  0
SECTION
  2
HEADER
  9
$ACADVER
  1
AC1014
  9
$DWGCODEPAGE
  3
ANSI_932
  9
$LTSCALE
 40
20.0
  9
$FILLMODE
 70
     1
  9
$CLAYER
  8
0
  9
$PDMODE
 70
     0
  9
$SPLFRAME
 70
     0
  9
$SPLINETYPE
 70
     6
  9
$SPLINESEGS
 70
     8
  9
$DIMASZ
 40
2.000000
  9
$DIMEXE
 40
2.000000
  9
$DIMEXO
 40
0.800000
  9
$DIMTAD
 70
     1
  9
$DIMTIH
 70
     0
  9
$DIMTOH
 70
     0
  9
$DIMTVP
 40
0.500000
  9
$DIMTXT
 40
3.100000
  9
$EXTMIN
 10
0.000000
 20
0.000000
 30
0.000000
  9
$EXTMAX
 10
420.000000
 20
594.000000
 30
0.000000
  9
$MEASUREMENT
 70
  1
  9
$LIMMIN
 10
0.000000
 20
0.000000
  9
$LIMMAX
 10
420.000000
 20
594.000000
  9
$HANDLING
 70
     1
  9
$HANDSEED
  5
5B2
  9
$DIMBLK
  1
_OPEN
  9
$DIMDEC
 70
     3
  9
$DIMAUNIT
 70
     1
  9
$DIMZIN
 70
     8
  9
$DIMTOFL
 70
     1
  0
ENDSEC
  0
SECTION
  2
CLASSES
  0
ENDSEC
  0
SECTION
  2
TABLES
  0
TABLE
  2
VPORT
  5
55B
100
AcDbSymbolTable
 70
     1
  0
VPORT
  5
55C
100
AcDbSymbolTableRecord
100
AcDbViewportTableRecord
  2
*ACTIVE
 70
     0
 12
297.000000
 22
210.000000
 40
420.000000
 41
1.414286
  0
ENDTAB
  0
TABLE
  2
LTYPE
  5
55D
100
AcDbSymbolTable
 70
     4
  0
LTYPE
  5
55E
100
AcDbSymbolTableRecord
100
AcDbLinetypeTableRecord
  2
BYBLOCK
 70
     0
  3

 72
    65
 73
     0
 40
0.0
  0
LTYPE
  5
55F
100
AcDbSymbolTableRecord
100
AcDbLinetypeTableRecord
  2
BYLAYER
 70
     0
  3

 72
    65
 73
     0
 40
0.0
  0
LTYPE
  5
560
100
AcDbSymbolTableRecord
100
AcDbLinetypeTableRecord
  2
CONTINUOUS
 70
     0
  3
Solid line (NEC CAE2D for Win R14.2 : 2021.07.14)
 72
    65
 73
     0
 40
0.0
  0
LTYPE
  5
561
100
AcDbSymbolTableRecord
100
AcDbLinetypeTableRecord
  2
HIDDEN
 70
     0
  3
__ __ __ __ __ __ __ __ __ __ __ __ __ __
 72
    65
 73
     2
 40
0.375
 49
0.25
 74
     0
 49
-0.125
 74
     0
  0
LTYPE
  5
562
100
AcDbSymbolTableRecord
100
AcDbLinetypeTableRecord
  2
CENTER
 70
     0
  3
____ _ ____ _ ____ _ ____ _ ____ _ ____
 72
    65
 73
     4
 40
2.0
 49
1.25
 74
     0
 49
-0.25
 74
     0
 49
0.25
 74
     0
 49
-0.25
 74
     0
  0
LTYPE
  5
563
100
AcDbSymbolTableRecord
100
AcDbLinetypeTableRecord
  2
PHANTOM
 70
     0
  3
______  __  __  ______  __  __  ______ 
 72
    65
 73
     6
 40
2.5
 49
1.25
 74
     0
 49
-0.25
 74
     0
 49
0.25
 74
     0
 49
-0.25
 74
     0
 49
0.25
 74
     0
 49
-0.25
 74
     0
  0
ENDTAB
  0
TABLE
  2
LAYER
  5
564
100
AcDbSymbolTable
 70
     9
  0
LAYER
  5
565
100
AcDbSymbolTableRecord
100
AcDbLayerTableRecord
  2
0
 70
     0
 62
     7
  6
CONTINUOUS
  0
LAYER
  5
566
100
AcDbSymbolTableRecord
100
AcDbLayerTableRecord
  2
MAIN0
 70
     0
 62
     7
  6
CONTINUOUS
  0
LAYER
  5
567
100
AcDbSymbolTableRecord
100
AcDbLayerTableRecord
  2
MAIN1
 70
     0
 62
     7
  6
CONTINUOUS
  0
LAYER
  5
568
100
AcDbSymbolTableRecord
100
AcDbLayerTableRecord
  2
MAIN2
 70
     0
 62
     7
  6
CONTINUOUS
  0
LAYER
  5
569
100
AcDbSymbolTableRecord
100
AcDbLayerTableRecord
  2
MAIN4
 70
     0
 62
     7
  6
CONTINUOUS
  0
LAYER
  5
56A
100
AcDbSymbolTableRecord
100
AcDbLayerTableRecord
  2
MAIN10
 70
     0
 62
     7
  6
CONTINUOUS
  0
LAYER
  5
56B
100
AcDbSymbolTableRecord
100
AcDbLayerTableRecord
  2
MAIN1023
 70
     0
 62
    16
  6
CONTINUOUS
  0
LAYER
  5
56C
100
AcDbSymbolTableRecord
100
AcDbLayerTableRecord
  2
WAKU0
 70
     0
 62
     7
  6
CONTINUOUS
  0
LAYER
  5
56D
100
AcDbSymbolTableRecord
100
AcDbLayerTableRecord
  2
WAKU1023
 70
     0
 62
    16
  6
CONTINUOUS
  0
ENDTAB
  0
TABLE
  2
STYLE
  5
56E
100
AcDbSymbolTable
 70
     4
  0
STYLE
  5
56F
100
AcDbSymbolTableRecord
100
AcDbTextStyleTableRecord
  2
STANDARD
 70
    64
 40
0.0
 41
1.0
 50
0.0
 71
     0
 42
3.099999904632568
  3
TXT
  4

  0
STYLE
  5
570
100
AcDbSymbolTableRecord
100
AcDbTextStyleTableRecord
  2
ANKTATE
 70
    68
 40
0.0
 41
1.0
 50
0.0
 71
     0
 42
3.099999904632568
  3
TXT
  4

  0
STYLE
  5
2CF
100
AcDbSymbolTableRecord
100
AcDbTextStyleTableRecord
  2
KNJYOKO
 70
    64
 40
0.0
 41
1.0
 50
0.0
 71
     0
 42
3.099999904632568
  3
TXT
  4
BIGFONT
  0
STYLE
  5
571
100
AcDbSymbolTableRecord
100
AcDbTextStyleTableRecord
  2
KNJTATE
 70
    68
 40
0.0
 41
1.0
 50
0.0
 71
     0
 42
3.099999904632568
  3
TXT
  4
BIGFONT
  0
ENDTAB
  0
TABLE
  2
VIEW
  5
572
100
AcDbSymbolTable
 70
     0
  0
ENDTAB
  0
TABLE
  2
UCS
  5
573
100
AcDbSymbolTable
 70
     0
  0
ENDTAB
  0
TABLE
  2
APPID
  5
574
100
AcDbSymbolTable
 70
     1
  0
APPID
  5
575
100
AcDbSymbolTableRecord
100
AcDbRegAppTableRecord
  2
ACAD
 70
     0
  0
ENDTAB
  0
TABLE
  2
DIMSTYLE
  5
576
100
AcDbSymbolTable
 70
     1
  0
DIMSTYLE
105
577
100
AcDbSymbolTableRecord
100
AcDbDimStyleTableRecord
  2
STANDARD
 70
     0
 41
2.000000
 44
2.000000
 42
0.800000
145
0.661290
140
3.100000
144
1.000000
146
0.903226
340
56F
  0
DIMSTYLE
105
578
100
AcDbSymbolTableRecord
100
AcDbDimStyleTableRecord
  2
MAIN001
 70
     0
 41
2.000000
 44
2.000000
 42
0.800000
145
0.661290
140
3.100000
144
1.000000
146
0.903226
 77
     1
 73
     0
 74
     0
271
     3
275
     1
 78
     8
172
     1
340
56F
  0
DIMSTYLE
105
579
100
AcDbSymbolTableRecord
100
AcDbDimStyleTableRecord
  2
WAKU002
 70
     0
 41
2.000000
 44
2.000000
 42
0.800000
145
0.661290
140
3.100000
144
1.000000
146
0.903226
 77
     1
 73
     0
 74
     0
271
     3
275
     1
 78
     8
172
     1
340
56F
  0
ENDTAB
  0
TABLE
  2
BLOCK_RECORD
  5
57A
100
AcDbSymbolTable
 70
    56
  0
BLOCK_RECORD
  5
57B
100
AcDbSymbolTableRecord
100
AcDbBlockTableRecord
  2
*MODEL_SPACE
  0
BLOCK_RECORD
  5
57C
100
AcDbSymbolTableRecord
100
AcDbBlockTableRecord
  2
*PAPER_SPACE
  0
BLOCK_RECORD
  5
1
100
AcDbSymbolTableRecord
100
AcDbBlockTableRecord
  2
_NONE
  0
BLOCK_RECORD
  5
4
100
AcDbSymbolTableRecord
100
AcDbBlockTableRecord
  2
_CLOSED
  0
BLOCK_RECORD
  5
B
100
AcDbSymbolTableRecord
100
AcDbBlockTableRecord
  2
_DOT
  0
BLOCK_RECORD
  5
13
100
AcDbSymbolTableRecord
100
AcDbBlockTableRecord
  2
_OPEN
  0
BLOCK_RECORD
  5
19
100
AcDbSymbolTableRecord
100
AcDbBlockTableRecord
  2
_ORIGIN
  0
BLOCK_RECORD
  5
1E
100
AcDbSymbolTableRecord
100
AcDbBlockTableRecord
  2
_OPEN30
  0
BLOCK_RECORD
  5
24
100
AcDbSymbolTableRecord
100
AcDbBlockTableRecord
  2
_BOXFILLED
  0
BLOCK_RECORD
  5
29
100
AcDbSymbolTableRecord
100
AcDbBlockTableRecord
  2
_BOXBLANK
  0
BLOCK_RECORD
  5
31
100
AcDbSymbolTableRecord
100
AcDbBlockTableRecord
  2
_OBLIQUE
  0
BLOCK_RECORD
  5
35
100
AcDbSymbolTableRecord
100
AcDbBlockTableRecord
  2
_OPEN90
  0
BLOCK_RECORD
  5
3B
100
AcDbSymbolTableRecord
100
AcDbBlockTableRecord
  2
_CLOSEDBLANK
  0
BLOCK_RECORD
  5
41
100
AcDbSymbolTableRecord
100
AcDbBlockTableRecord
  2
_DOTBLANK
  0
BLOCK_RECORD
  5
57D
100
AcDbSymbolTableRecord
100
AcDbBlockTableRecord
  2
*D0
  0
BLOCK_RECORD
  5
57E
100
AcDbSymbolTableRecord
100
AcDbBlockTableRecord
  2
*D1
  0
BLOCK_RECORD
  5
57F
100
AcDbSymbolTableRecord
100
AcDbBlockTableRecord
  2
*D2
  0
BLOCK_RECORD
  5
580
100
AcDbSymbolTableRecord
100
AcDbBlockTableRecord
  2
*D3
  0
BLOCK_RECORD
  5
581
100
AcDbSymbolTableRecord
100
AcDbBlockTableRecord
  2
*D4
  0
BLOCK_RECORD
  5
582
100
AcDbSymbolTableRecord
100
AcDbBlockTableRecord
  2
*D5
  0
BLOCK_RECORD
  5
583
100
AcDbSymbolTableRecord
100
AcDbBlockTableRecord
  2
*D6
  0
BLOCK_RECORD
  5
584
100
AcDbSymbolTableRecord
100
AcDbBlockTableRecord
  2
*D7
  0
BLOCK_RECORD
  5
585
100
AcDbSymbolTableRecord
100
AcDbBlockTableRecord
  2
D8
  0
BLOCK_RECORD
  5
586
100
AcDbSymbolTableRecord
100
AcDbBlockTableRecord
  2
D9
  0
BLOCK_RECORD
  5
587
100
AcDbSymbolTableRecord
100
AcDbBlockTableRecord
  2
*D10
  0
BLOCK_RECORD
  5
588
100
AcDbSymbolTableRecord
100
AcDbBlockTableRecord
  2
*D11
  0
BLOCK_RECORD
  5
589
100
AcDbSymbolTableRecord
100
AcDbBlockTableRecord
  2
*D12
  0
BLOCK_RECORD
  5
58A
100
AcDbSymbolTableRecord
100
AcDbBlockTableRecord
  2
*D13
  0
BLOCK_RECORD
  5
58B
100
AcDbSymbolTableRecord
100
AcDbBlockTableRecord
  2
*D14
  0
BLOCK_RECORD
  5
58C
100
AcDbSymbolTableRecord
100
AcDbBlockTableRecord
  2
*D15
  0
BLOCK_RECORD
  5
58D
100
AcDbSymbolTableRecord
100
AcDbBlockTableRecord
  2
*D16
  0
BLOCK_RECORD
  5
58E
100
AcDbSymbolTableRecord
100
AcDbBlockTableRecord
  2
D17
  0
BLOCK_RECORD
  5
58F
100
AcDbSymbolTableRecord
100
AcDbBlockTableRecord
  2
M0
  0
BLOCK_RECORD
  5
590
100
AcDbSymbolTableRecord
100
AcDbBlockTableRecord
  2
M1
  0
BLOCK_RECORD
  5
591
100
AcDbSymbolTableRecord
100
AcDbBlockTableRecord
  2
*D18
  0
BLOCK_RECORD
  5
592
100
AcDbSymbolTableRecord
100
AcDbBlockTableRecord
  2
*D19
  0
BLOCK_RECORD
  5
593
100
AcDbSymbolTableRecord
100
AcDbBlockTableRecord
  2
M2
  0
BLOCK_RECORD
  5
594
100
AcDbSymbolTableRecord
100
AcDbBlockTableRecord
  2
*D20
  0
BLOCK_RECORD
  5
595
100
AcDbSymbolTableRecord
100
AcDbBlockTableRecord
  2
*D21
  0
BLOCK_RECORD
  5
596
100
AcDbSymbolTableRecord
100
AcDbBlockTableRecord
  2
*D22
  0
BLOCK_RECORD
  5
597
100
AcDbSymbolTableRecord
100
AcDbBlockTableRecord
  2
M3
  0
BLOCK_RECORD
  5
598
100
AcDbSymbolTableRecord
100
AcDbBlockTableRecord
  2
M4
  0
BLOCK_RECORD
  5
599
100
AcDbSymbolTableRecord
100
AcDbBlockTableRecord
  2
*D23
  0
BLOCK_RECORD
  5
59A
100
AcDbSymbolTableRecord
100
AcDbBlockTableRecord
  2
*D24
  0
BLOCK_RECORD
  5
59B
100
AcDbSymbolTableRecord
100
AcDbBlockTableRecord
  2
*D25
  0
BLOCK_RECORD
  5
59C
100
AcDbSymbolTableRecord
100
AcDbBlockTableRecord
  2
*D26
  0
BLOCK_RECORD
  5
59D
100
AcDbSymbolTableRecord
100
AcDbBlockTableRecord
  2
*D27
  0
BLOCK_RECORD
  5
59E
100
AcDbSymbolTableRecord
100
AcDbBlockTableRecord
  2
*D28
  0
BLOCK_RECORD
  5
59F
100
AcDbSymbolTableRecord
100
AcDbBlockTableRecord
  2
*D29
  0
BLOCK_RECORD
  5
5A0
100
AcDbSymbolTableRecord
100
AcDbBlockTableRecord
  2
*D30
  0
BLOCK_RECORD
  5
5A1
100
AcDbSymbolTableRecord
100
AcDbBlockTableRecord
  2
*D31
  0
BLOCK_RECORD
  5
5A2
100
AcDbSymbolTableRecord
100
AcDbBlockTableRecord
  2
*X0
  0
BLOCK_RECORD
  5
5A3
100
AcDbSymbolTableRecord
100
AcDbBlockTableRecord
  2
*X1
  0
BLOCK_RECORD
  5
5A4
100
AcDbSymbolTableRecord
100
AcDbBlockTableRecord
  2
*X2
  0
BLOCK_RECORD
  5
5A5
100
AcDbSymbolTableRecord
100
AcDbBlockTableRecord
  2
*X3
  0
BLOCK_RECORD
  5
5A6
100
AcDbSymbolTableRecord
100
AcDbBlockTableRecord
  2
M5
  0
BLOCK_RECORD
  5
5A7
100
AcDbSymbolTableRecord
100
AcDbBlockTableRecord
  2
*D32
  0
BLOCK_RECORD
  5
5A8
100
AcDbSymbolTableRecord
100
AcDbBlockTableRecord
  2
*D33
  0
ENDTAB
  0
ENDSEC
  0
SECTION
  2
BLOCKS
  0
BLOCK
  5
5A9
100
AcDbEntity
  8
0
100
AcDbBlockBegin
  2
*MODEL_SPACE
 70
     0
 10
0.0
 20
0.0
 30
0.0
  3
*MODEL_SPACE
  1

  0
ENDBLK
  5
5AA
100
AcDbEntity
  8
0
100
AcDbBlockEnd
  0
BLOCK
  5
5AB
100
AcDbEntity
  8
0
100
AcDbBlockBegin
  2
*PAPER_SPACE
 70
     0
 10
0.0
 20
0.0
 30
0.0
  3
*PAPER_SPACE
  1

  0
ENDBLK
  5
5AC
100
AcDbEntity
  8
0
100
AcDbBlockEnd
  0
BLOCK
  5
2
100
AcDbEntity
  8
0
100
AcDbBlockBegin
  2
_NONE
 70
     0
 10
0.0
 20
0.0
 30
0.0
  3
_NONE
  1

  0
ENDBLK
  5
3
100
AcDbEntity
  8
0
100
AcDbBlockEnd
  0
BLOCK
  5
5
100
AcDbEntity
  8
0
100
AcDbBlockBegin
  2
_CLOSED
 70
     0
 10
0.0
 20
0.0
 30
0.0
  3
_CLOSED
  1

  0
LINE
  5
6
100
AcDbEntity
  8
0
  6
BYBLOCK
 62
     0
100
AcDbLine
 10
-1.0
 20
0.166667
 30
0.0
 11
0.0
 21
0.0
 31
0.0
  0
LINE
  5
7
100
AcDbEntity
  8
0
  6
BYBLOCK
 62
     0
100
AcDbLine
 10
0.0
 20
0.0
 30
0.0
 11
-1.0
 21
-0.166667
 31
0.0
  0
LINE
  5
8
100
AcDbEntity
  8
0
  6
BYBLOCK
 62
     0
100
AcDbLine
 10
-1.0
 20
0.166667
 30
0.0
 11
-1.0
 21
-0.166667
 31
0.0
  0
LINE
  5
9
100
AcDbEntity
  8
0
  6
BYBLOCK
 62
     0
100
AcDbLine
 10
0.0
 20
0.0
 30
0.0
 11
-1.0
 21
0.0
 31
0.0
  0
ENDBLK
  5
A
100
AcDbEntity
  8
0
100
AcDbBlockEnd
  0
BLOCK
  5
C
100
AcDbEntity
  8
0
100
AcDbBlockBegin
  2
_DOT
 70
     0
 10
0.0
 20
0.0
 30
0.0
  3
_DOT
  1

  0
POLYLINE
  5
D
100
AcDbEntity
  8
0
  6
BYBLOCK
 62
     0
100
AcDb2dPolyline
 66
     1
 10
0.0
 20
0.0
 30
0.0
 70
     1
 40
0.5
 41
0.5
  0
VERTEX
  5
E
100
AcDbEntity
  8
0
  6
BYBLOCK
 62
     0
100
AcDbVertex
100
AcDb2dVertex
 10
-0.25
 20
0.0
 30
0.0
 42
1.0
  0
VERTEX
  5
F
100
AcDbEntity
  8
0
  6
BYBLOCK
 62
     0
100
AcDbVertex
100
AcDb2dVertex
 10
0.25
 20
0.0
 30
0.0
 42
1.0
  0
SEQEND
  5
10
100
AcDbEntity
  8
0
  6
BYBLOCK
 62
     0
  0
LINE
  5
11
100
AcDbEntity
  8
0
  6
BYBLOCK
 62
     0
100
AcDbLine
 10
-0.5
 20
0.0
 30
0.0
 11
-1.0
 21
0.0
 31
0.0
  0
ENDBLK
  5
12
100
AcDbEntity
  8
0
100
AcDbBlockEnd
  0
BLOCK
  5
14
100
AcDbEntity
  8
0
100
AcDbBlockBegin
  2
_OPEN
 70
     0
 10
0.0
 20
0.0
 30
0.0
  3
_OPEN
  1

  0
LINE
  5
15
100
AcDbEntity
  8
0
  6
BYBLOCK
 62
     0
100
AcDbLine
 10
-1.0
 20
0.166667
 30
0.0
 11
0.0
 21
0.0
 31
0.0
  0
LINE
  5
16
100
AcDbEntity
  8
0
  6
BYBLOCK
 62
     0
100
AcDbLine
 10
0.0
 20
0.0
 30
0.0
 11
-1.0
 21
-0.166667
 31
0.0
  0
LINE
  5
17
100
AcDbEntity
  8
0
  6
BYBLOCK
 62
     0
100
AcDbLine
 10
0.0
 20
0.0
 30
0.0
 11
-1.0
 21
0.0
 31
0.0
  0
ENDBLK
  5
18
100
AcDbEntity
  8
0
100
AcDbBlockEnd
  0
BLOCK
  5
1A
100
AcDbEntity
  8
0
100
AcDbBlockBegin
  2
_ORIGIN
 70
     0
 10
0.0
 20
0.0
 30
0.0
  3
_ORIGIN
  1

  0
CIRCLE
  5
1B
100
AcDbEntity
  8
0
  6
BYBLOCK
 62
     0
100
AcDbCircle
 10
0.0
 20
0.0
 30
0.0
 40
0.5
  0
LINE
  5
1C
100
AcDbEntity
  8
0
  6
BYBLOCK
 62
     0
100
AcDbLine
 10
0.0
 20
0.0
 30
0.0
 11
-1.0
 21
0.0
 31
0.0
  0
ENDBLK
  5
1D
100
AcDbEntity
  8
0
100
AcDbBlockEnd
  0
BLOCK
  5
1F
100
AcDbEntity
  8
0
100
AcDbBlockBegin
  2
_OPEN30
 70
     0
 10
0.0
 20
0.0
 30
0.0
  3
_OPEN30
  1

  0
LINE
  5
20
100
AcDbEntity
  8
0
  6
BYBLOCK
 62
     0
100
AcDbLine
 10
-1.0
 20
0.267949
 30
0.0
 11
0.0
 21
0.0
 31
0.0
  0
LINE
  5
21
100
AcDbEntity
  8
0
  6
BYBLOCK
 62
     0
100
AcDbLine
 10
0.0
 20
0.0
 30
0.0
 11
-1.0
 21
-0.267949
 31
0.0
  0
LINE
  5
22
100
AcDbEntity
  8
0
  6
BYBLOCK
 62
     0
100
AcDbLine
 10
0.0
 20
0.0
 30
0.0
 11
-1.0
 21
0.0
 31
0.0
  0
ENDBLK
  5
23
100
AcDbEntity
  8
0
100
AcDbBlockEnd
  0
BLOCK
  5
25
100
AcDbEntity
  8
0
100
AcDbBlockBegin
  2
_BOXFILLED
 70
     0
 10
0.0
 20
0.0
 30
0.0
  3
_BOXFILLED
  1

  0
SOLID
  5
26
100
AcDbEntity
  8
0
  6
BYBLOCK
 62
     0
100
AcDbTrace
 10
-0.5
 20
0.5
 30
0.0
 11
0.5
 21
0.5
 31
0.0
 12
-0.5
 22
-0.5
 32
0.0
 13
0.5
 23
-0.5
 33
0.0
  0
LINE
  5
27
100
AcDbEntity
  8
0
  6
BYBLOCK
 62
     0
100
AcDbLine
 10
-0.5
 20
0.0
 30
0.0
 11
-1.0
 21
0.0
 31
0.0
  0
ENDBLK
  5
28
100
AcDbEntity
  8
0
100
AcDbBlockEnd
  0
BLOCK
  5
2A
100
AcDbEntity
  8
0
100
AcDbBlockBegin
  2
_BOXBLANK
 70
     0
 10
0.0
 20
0.0
 30
0.0
  3
_BOXBLANK
  1

  0
LINE
  5
2B
100
AcDbEntity
  8
0
  6
BYBLOCK
 62
     0
100
AcDbLine
 10
-0.5
 20
-0.5
 30
0.0
 11
0.5
 21
-0.5
 31
0.0
  0
LINE
  5
2C
100
AcDbEntity
  8
0
  6
BYBLOCK
 62
     0
100
AcDbLine
 10
0.5
 20
-0.5
 30
0.0
 11
0.5
 21
0.5
 31
0.0
  0
LINE
  5
2D
100
AcDbEntity
  8
0
  6
BYBLOCK
 62
     0
100
AcDbLine
 10
0.5
 20
0.5
 30
0.0
 11
-0.5
 21
0.5
 31
0.0
  0
LINE
  5
2E
100
AcDbEntity
  8
0
  6
BYBLOCK
 62
     0
100
AcDbLine
 10
-0.5
 20
0.5
 30
0.0
 11
-0.5
 21
-0.5
 31
0.0
  0
LINE
  5
2F
100
AcDbEntity
  8
0
  6
BYBLOCK
 62
     0
100
AcDbLine
 10
-0.5
 20
0.0
 30
0.0
 11
-1.0
 21
0.0
 31
0.0
  0
ENDBLK
  5
30
100
AcDbEntity
  8
0
100
AcDbBlockEnd
  0
BLOCK
  5
32
100
AcDbEntity
  8
0
100
AcDbBlockBegin
  2
_OBLIQUE
 70
     0
 10
0.0
 20
0.0
 30
0.0
  3
_OBLIQUE
  1

  0
LINE
  5
33
100
AcDbEntity
  8
0
  6
BYBLOCK
 62
     0
100
AcDbLine
 10
-0.5
 20
-0.5
 30
0.0
 11
0.5
 21
0.5
 31
0.0
  0
ENDBLK
  5
34
100
AcDbEntity
  8
0
100
AcDbBlockEnd
  0
BLOCK
  5
36
100
AcDbEntity
  8
0
100
AcDbBlockBegin
  2
_OPEN90
 70
     0
 10
0.0
 20
0.0
 30
0.0
  3
_OPEN90
  1

  0
LINE
  5
37
100
AcDbEntity
  8
0
  6
BYBLOCK
 62
     0
100
AcDbLine
 10
-0.5
 20
0.5
 30
0.0
 11
0.0
 21
0.0
 31
0.0
  0
LINE
  5
38
100
AcDbEntity
  8
0
  6
BYBLOCK
 62
     0
100
AcDbLine
 10
0.0
 20
0.0
 30
0.0
 11
-0.5
 21
-0.5
 31
0.0
  0
LINE
  5
39
100
AcDbEntity
  8
0
  6
BYBLOCK
 62
     0
100
AcDbLine
 10
0.0
 20
0.0
 30
0.0
 11
-1.0
 21
0.0
 31
0.0
  0
ENDBLK
  5
3A
100
AcDbEntity
  8
0
100
AcDbBlockEnd
  0
BLOCK
  5
3C
100
AcDbEntity
  8
0
100
AcDbBlockBegin
  2
_CLOSEDBLANK
 70
     0
 10
0.0
 20
0.0
 30
0.0
  3
_CLOSEDBLANK
  1

  0
LINE
  5
3D
100
AcDbEntity
  8
0
  6
BYBLOCK
 62
     0
100
AcDbLine
 10
-1.0
 20
0.1666666666666666
 30
0.0
 11
0.0
 21
0.0
 31
0.0
  0
LINE
  5
3E
100
AcDbEntity
  8
0
  6
BYBLOCK
 62
     0
100
AcDbLine
 10
0.0
 20
0.0
 30
0.0
 11
-1.0
 21
-0.1666666666666666
 31
0.0
  0
LINE
  5
3F
100
AcDbEntity
  8
0
  6
BYBLOCK
 62
     0
100
AcDbLine
 10
-1.0
 20
0.1666666666666666
 30
0.0
 11
-1.0
 21
-0.1666666666666666
 31
0.0
  0
ENDBLK
  5
40
100
AcDbEntity
  8
0
100
AcDbBlockEnd
  0
BLOCK
  5
42
100
AcDbEntity
  8
0
100
AcDbBlockBegin
  2
_DOTBLANK
 70
     0
 10
0.0
 20
0.0
 30
0.0
  3
_DOTBLANK
  1

  0
CIRCLE
  5
43
100
AcDbEntity
  8
0
  6
BYBLOCK
 62
     0
100
AcDbCircle
 10
0.0
 20
0.0
 30
0.0
 40
0.5
  0
LINE
  5
44
100
AcDbEntity
  8
0
  6
BYBLOCK
 62
     0
100
AcDbLine
 10
-0.5
 20
0.0
 30
0.0
 11
-1.0
 21
0.0
 31
0.0
  0
ENDBLK
  5
45
100
AcDbEntity
  8
0
100
AcDbBlockEnd
  0
BLOCK
  5
59
100
AcDbEntity
  8
MAIN0
  6
CONTINUOUS
 62
3
100
AcDbBlockBegin
  2
*D0
 70
    65
 10
0.0
 20
0.0
 30
0.0
  0
LINE
  5
5A
100
AcDbEntity
  8
MAIN0
  6
BYBLOCK
 62
0
100
AcDbLine
 10
503.6534749773240
 20
253.1932140788164
 30
0.0000000000000000
 11
517.7195003697416
 21
253.1932140788164
 31
0.0000000000000000
  0
LINE
  5
5B
100
AcDbEntity
  8
MAIN0
  6
BYBLOCK
 62
0
100
AcDbLine
 10
515.7195003697416
 20
251.1932140788164
 30
0.0000000000000000
 11
515.7195003697416
 21
233.1932140788164
 31
0.0000000000000000
  0
INSERT
  5
5C
100
AcDbEntity
  8
MAIN0
  6
BYBLOCK
 62
0
100
AcDbBlockReference
  2
_OPEN
 10
515.7195003697416
 20
253.1932140788164
 30
0.0000000000000000
 41
2.000000000000000
 42
2.000000000000000
 43
2.000000000000000
 50
90.00000000000000
  0
INSERT
  5
5D
100
AcDbEntity
  8
MAIN0
  6
BYBLOCK
 62
0
100
AcDbBlockReference
  2
_OPEN
 10
515.7195003697416
 20
231.1932140788164
 30
0.0000000000000000
 41
2.000000000000000
 42
2.000000000000000
 43
2.000000000000000
 50
270.0000000000000
  0
LINE
  5
5E
100
AcDbEntity
  8
MAIN0
  6
BYBLOCK
 62
0
100
AcDbLine
 10
503.6534749773240
 20
231.1932140788164
 30
0.0000000000000000
 11
517.7195003697416
 21
231.1932140788164
 31
0.0000000000000000
  0
MTEXT
  5
5F
100
AcDbEntity
  8
MAIN0
  6
BYBLOCK
 62
0
100
AcDbMText
 10
513.6695004174253
 20
242.1932140788164
 30
0.0000000000000000
 40
3.099999904632568
 41
0.0000000000000000
 71
     5
 72
     1
  1
\A1;\U+220522H8
 11
6.123233995736766e-017
 21
1.000000000000000
 31
0.0000000000000000
  7
STANDARD
  0
ENDBLK
  5
60
100
AcDbEntity
  8
MAIN0
  6
CONTINUOUS
 62
3
100
AcDbBlockEnd
  0
BLOCK
  5
62
100
AcDbEntity
  8
MAIN0
  6
CONTINUOUS
 62
3
100
AcDbBlockBegin
  2
*D1
 70
    65
 10
0.0
 20
0.0
 30
0.0
  0
LINE
  5
63
100
AcDbEntity
  8
MAIN0
  6
BYBLOCK
 62
0
100
AcDbLine
 10
487.6534749784396
 20
258.1932140788164
 30
0.0000000000000000
 11
527.7195003697416
 21
258.1932140788164
 31
0.0000000000000000
  0
LINE
  5
64
100
AcDbEntity
  8
MAIN0
  6
BYBLOCK
 62
0
100
AcDbLine
 10
525.7195003697416
 20
256.1932140788164
 30
0.0000000000000000
 11
525.7195003697416
 21
228.1932140788164
 31
0.0000000000000000
  0
INSERT
  5
65
100
AcDbEntity
  8
MAIN0
  6
BYBLOCK
 62
0
100
AcDbBlockReference
  2
_OPEN
 10
525.7195003697416
 20
258.1932140788164
 30
0.0000000000000000
 41
2.000000000000000
 42
2.000000000000000
 43
2.000000000000000
 50
90.00000000000000
  0
INSERT
  5
66
100
AcDbEntity
  8
MAIN0
  6
BYBLOCK
 62
0
100
AcDbBlockReference
  2
_OPEN
 10
525.7195003697416
 20
226.1932140788164
 30
0.0000000000000000
 41
2.000000000000000
 42
2.000000000000000
 43
2.000000000000000
 50
270.0000000000000
  0
LINE
  5
67
100
AcDbEntity
  8
MAIN0
  6
BYBLOCK
 62
0
100
AcDbLine
 10
487.6534749784396
 20
226.1932140788164
 30
0.0000000000000000
 11
527.7195003697416
 21
226.1932140788164
 31
0.0000000000000000
  0
MTEXT
  5
68
100
AcDbEntity
  8
MAIN0
  6
BYBLOCK
 62
0
100
AcDbMText
 10
523.6695004174253
 20
242.1932140788164
 30
0.0000000000000000
 40
3.099999904632568
 41
0.0000000000000000
 71
     5
 72
     1
  1
\A1;\U+220532
 11
6.123233995736766e-017
 21
1.000000000000000
 31
0.0000000000000000
  7
STANDARD
  0
ENDBLK
  5
69
100
AcDbEntity
  8
MAIN0
  6
CONTINUOUS
 62
3
100
AcDbBlockEnd
  0
BLOCK
  5
6B
100
AcDbEntity
  8
MAIN0
  6
CONTINUOUS
 62
3
100
AcDbBlockBegin
  2
*D2
 70
    65
 10
0.0
 20
0.0
 30
0.0
  0
LINE
  5
6C
100
AcDbEntity
  8
MAIN0
  6
BYBLOCK
 62
0
100
AcDbLine
 10
459.5195003816618
 20
220.1932140788164
 30
0.0000000000000000
 11
537.7195003697416
 21
220.1932140788164
 31
0.0000000000000000
  0
LINE
  5
6D
100
AcDbEntity
  8
MAIN0
  6
BYBLOCK
 62
0
100
AcDbLine
 10
535.7195003697416
 20
222.1932140788164
 30
0.0000000000000000
 11
535.7195003697416
 21
262.1932140788164
 31
0.0000000000000000
  0
INSERT
  5
6E
100
AcDbEntity
  8
MAIN0
  6
BYBLOCK
 62
0
100
AcDbBlockReference
  2
_OPEN
 10
535.7195003697416
 20
220.1932140788164
 30
0.0000000000000000
 41
2.000000000000000
 42
2.000000000000000
 43
2.000000000000000
 50
270.0000000000000
  0
INSERT
  5
6F
100
AcDbEntity
  8
MAIN0
  6
BYBLOCK
 62
0
100
AcDbBlockReference
  2
_OPEN
 10
535.7195003697416
 20
264.1932140788164
 30
0.0000000000000000
 41
2.000000000000000
 42
2.000000000000000
 43
2.000000000000000
 50
90.00000000000000
  0
LINE
  5
70
100
AcDbEntity
  8
MAIN0
  6
BYBLOCK
 62
0
100
AcDbLine
 10
459.5195003816618
 20
264.1932140788164
 30
0.0000000000000000
 11
537.7195003697416
 21
264.1932140788164
 31
0.0000000000000000
  0
MTEXT
  5
71
100
AcDbEntity
  8
MAIN0
  6
BYBLOCK
 62
0
100
AcDbMText
 10
533.6695004174253
 20
242.1932140788164
 30
0.0000000000000000
 40
3.099999904632568
 41
0.0000000000000000
 71
     5
 72
     1
  1
\A1;\U+220544
 11
6.123233995736766e-017
 21
1.000000000000000
 31
0.0000000000000000
  7
STANDARD
  0
ENDBLK
  5
72
100
AcDbEntity
  8
MAIN0
  6
CONTINUOUS
 62
3
100
AcDbBlockEnd
  0
BLOCK
  5
74
100
AcDbEntity
  8
MAIN0
  6
CONTINUOUS
 62
3
100
AcDbBlockBegin
  2
*D3
 70
    65
 10
0.0
 20
0.0
 30
0.0
  0
LINE
  5
75
100
AcDbEntity
  8
MAIN0
  6
BYBLOCK
 62
0
100
AcDbLine
 10
443.7195003697409
 20
159.3932140668955
 30
0.0000000000000000
 11
443.7195003697409
 21
124.8020635727745
 31
0.0000000000000000
  0
LINE
  5
76
100
AcDbEntity
  8
MAIN0
  6
BYBLOCK
 62
0
100
AcDbLine
 10
445.7195003697409
 20
126.8020635727745
 30
0.0000000000000000
 11
501.7195003697409
 21
126.8020635727745
 31
0.0000000000000000
  0
INSERT
  5
77
100
AcDbEntity
  8
MAIN0
  6
BYBLOCK
 62
0
100
AcDbBlockReference
  2
_OPEN
 10
443.7195003697409
 20
126.8020635727745
 30
0.0000000000000000
 41
2.000000000000000
 42
2.000000000000000
 43
2.000000000000000
 50
180.0000000000000
  0
INSERT
  5
78
100
AcDbEntity
  8
MAIN0
  6
BYBLOCK
 62
0
100
AcDbBlockReference
  2
_OPEN
 10
503.7195003697409
 20
126.8020635727745
 30
0.0000000000000000
 41
2.000000000000000
 42
2.000000000000000
 43
2.000000000000000
 50
0.0000000000000000
  0
LINE
  5
79
100
AcDbEntity
  8
MAIN0
  6
BYBLOCK
 62
0
100
AcDbLine
 10
503.7195003697409
 20
224.3932140668955
 30
0.0000000000000000
 11
503.7195003697409
 21
124.8020635727745
 31
0.0000000000000000
  0
MTEXT
  5
7A
100
AcDbEntity
  8
MAIN0
  6
BYBLOCK
 62
0
100
AcDbMText
 10
473.7195003697409
 20
128.8520635250908
 30
0.0000000000000000
 40
3.099999904632568
 41
0.0000000000000000
 71
     5
 72
     1
  1
\A1;MAX 60
 11
1.000000000000000
 21
0.0000000000000000
 31
0.0000000000000000
  7
STANDARD
  0
ENDBLK
  5
7B
100
AcDbEntity
  8
MAIN0
  6
CONTINUOUS
 62
3
100
AcDbBlockEnd
  0
BLOCK
  5
7D
100
AcDbEntity
  8
MAIN0
  6
CONTINUOUS
 62
3
100
AcDbBlockBegin
  2
*D4
 70
    65
 10
0.0
 20
0.0
 30
0.0
  0
LINE
  5
7E
100
AcDbEntity
  8
MAIN0
  6
BYBLOCK
 62
0
100
AcDbLine
 10
498.7195003697408
 20
230.3932140668955
 30
0.0000000000000000
 11
498.7195003697408
 21
208.4577716690964
 31
0.0000000000000000
  0
LINE
  5
7F
100
AcDbEntity
  8
MAIN0
  6
BYBLOCK
 62
0
100
AcDbLine
 10
498.7195003697408
 20
210.4577716690964
 30
0.0000000000000000
 11
503.7195003697409
 21
210.4577716690964
 31
0.0000000000000000
  0
INSERT
  5
80
100
AcDbEntity
  8
MAIN0
  6
BYBLOCK
 62
0
100
AcDbBlockReference
  2
_OPEN
 10
498.7195003697408
 20
210.4577716690964
 30
0.0000000000000000
 41
2.000000000000000
 42
2.000000000000000
 43
2.000000000000000
 50
0.0000000000000000
  0
INSERT
  5
81
100
AcDbEntity
  8
MAIN0
  6
BYBLOCK
 62
0
100
AcDbBlockReference
  2
_OPEN
 10
503.7195003697409
 20
210.4577716690964
 30
0.0000000000000000
 41
2.000000000000000
 42
2.000000000000000
 43
2.000000000000000
 50
180.0000000000000
  0
LINE
  5
82
100
AcDbEntity
  8
MAIN0
  6
BYBLOCK
 62
0
100
AcDbLine
 10
496.7195003697408
 20
210.4577716690964
 30
0.0000000000000000
 11
495.7195003697408
 21
210.4577716690964
 31
0.0000000000000000
  0
LINE
  5
83
100
AcDbEntity
  8
MAIN0
  6
BYBLOCK
 62
0
100
AcDbLine
 10
505.7195003697409
 20
210.4577716690964
 30
0.0000000000000000
 11
506.7195003697409
 21
210.4577716690964
 31
0.0000000000000000
  0
LINE
  5
84
100
AcDbEntity
  8
MAIN0
  6
BYBLOCK
 62
0
100
AcDbLine
 10
503.7195003697409
 20
227.8932140668955
 30
0.0000000000000000
 11
503.7195003697409
 21
208.4577716690964
 31
0.0000000000000000
  0
MTEXT
  5
85
100
AcDbEntity
  8
MAIN0
  6
BYBLOCK
 62
0
100
AcDbMText
 10
501.2195003697408
 20
212.5077716214127
 30
0.0000000000000000
 40
3.099999904632568
 41
0.0000000000000000
 71
     5
 72
     1
  1
\A1;5
 11
1.000000000000000
 21
0.0000000000000000
 31
0.0000000000000000
  7
STANDARD
  0
ENDBLK
  5
86
100
AcDbEntity
  8
MAIN0
  6
CONTINUOUS
 62
3
100
AcDbBlockEnd
  0
BLOCK
  5
88
100
AcDbEntity
  8
MAIN0
  6
CONTINUOUS
 62
3
100
AcDbBlockBegin
  2
*D5
 70
    65
 10
0.0
 20
0.0
 30
0.0
  0
LINE
  5
89
100
AcDbEntity
  8
MAIN0
  6
BYBLOCK
 62
0
100
AcDbLine
 10
473.7195003697409
 20
231.3932140668955
 30
0.0000000000000000
 11
473.7195003697409
 21
198.4577716690964
 31
0.0000000000000000
  0
LINE
  5
8A
100
AcDbEntity
  8
MAIN0
  6
BYBLOCK
 62
0
100
AcDbLine
 10
475.7195003697409
 20
200.4577716690964
 30
0.0000000000000000
 11
501.7195003697409
 21
200.4577716690964
 31
0.0000000000000000
  0
INSERT
  5
8B
100
AcDbEntity
  8
MAIN0
  6
BYBLOCK
 62
0
100
AcDbBlockReference
  2
_OPEN
 10
473.7195003697409
 20
200.4577716690964
 30
0.0000000000000000
 41
2.000000000000000
 42
2.000000000000000
 43
2.000000000000000
 50
180.0000000000000
  0
INSERT
  5
8C
100
AcDbEntity
  8
MAIN0
  6
BYBLOCK
 62
0
100
AcDbBlockReference
  2
_OPEN
 10
503.7195003697409
 20
200.4577716690964
 30
0.0000000000000000
 41
2.000000000000000
 42
2.000000000000000
 43
2.000000000000000
 50
0.0000000000000000
  0
LINE
  5
8D
100
AcDbEntity
  8
MAIN0
  6
BYBLOCK
 62
0
100
AcDbLine
 10
503.7195003697409
 20
227.8932140668955
 30
0.0000000000000000
 11
503.7195003697409
 21
198.4577716690964
 31
0.0000000000000000
  0
MTEXT
  5
8E
100
AcDbEntity
  8
MAIN0
  6
BYBLOCK
 62
0
100
AcDbMText
 10
488.7195003697409
 20
202.5077716214127
 30
0.0000000000000000
 40
3.099999904632568
 41
0.0000000000000000
 71
     5
 72
     1
  1
\A1;30
 11
1.000000000000000
 21
0.0000000000000000
 31
0.0000000000000000
  7
STANDARD
  0
ENDBLK
  5
8F
100
AcDbEntity
  8
MAIN0
  6
CONTINUOUS
 62
3
100
AcDbBlockEnd
  0
BLOCK
  5
93
100
AcDbEntity
  8
MAIN0
  6
CONTINUOUS
 62
3
100
AcDbBlockBegin
  2
*D6
 70
    65
 10
0.0
 20
0.0
 30
0.0
  0
LINE
  5
94
100
AcDbEntity
  8
MAIN0
  6
BYBLOCK
 62
0
100
AcDbLine
 10
442.5195003816618
 20
158.1932140788164
 30
0.0000000000000000
 11
560.7195003697409
 21
158.1932140788164
 31
0.0000000000000000
  0
LINE
  5
95
100
AcDbEntity
  8
MAIN0
  6
BYBLOCK
 62
0
100
AcDbLine
 10
558.7195003697409
 20
160.1932140788164
 30
0.0000000000000000
 11
558.7195003697409
 21
324.1932140788164
 31
0.0000000000000000
  0
INSERT
  5
96
100
AcDbEntity
  8
MAIN0
  6
BYBLOCK
 62
0
100
AcDbBlockReference
  2
_OPEN
 10
558.7195003697409
 20
158.1932140788164
 30
0.0000000000000000
 41
2.000000000000000
 42
2.000000000000000
 43
2.000000000000000
 50
270.0000000000000
  0
INSERT
  5
97
100
AcDbEntity
  8
MAIN0
  6
BYBLOCK
 62
0
100
AcDbBlockReference
  2
_OPEN
 10
558.7195003697409
 20
326.1932140788164
 30
0.0000000000000000
 41
2.000000000000000
 42
2.000000000000000
 43
2.000000000000000
 50
90.00000000000000
  0
LINE
  5
98
100
AcDbEntity
  8
MAIN0
  6
BYBLOCK
 62
0
100
AcDbLine
 10
443.5195003816618
 20
326.1932140788164
 30
0.0000000000000000
 11
560.7195003697409
 21
326.1932140788164
 31
0.0000000000000000
  0
MTEXT
  5
99
100
AcDbEntity
  8
MAIN0
  6
BYBLOCK
 62
0
100
AcDbMText
 10
556.6695004174246
 20
242.1932140788164
 30
0.0000000000000000
 40
3.099999904632568
 41
0.0000000000000000
 71
     5
 72
     1
  1
\A1;\U+2205168h7
 11
6.123233995736766e-017
 21
1.000000000000000
 31
0.0000000000000000
  7
STANDARD
  0
ENDBLK
  5
9A
100
AcDbEntity
  8
MAIN0
  6
CONTINUOUS
 62
3
100
AcDbBlockEnd
  0
BLOCK
  5
A2
100
AcDbEntity
  8
MAIN0
  6
CONTINUOUS
 62
3
100
AcDbBlockBegin
  2
*D7
 70
    65
 10
0.0
 20
0.0
 30
0.0
  0
LINE
  5
A3
100
AcDbEntity
  8
MAIN0
  6
BYBLOCK
 62
0
100
AcDbLine
 10
445.7195003697409
 20
200.4577716690964
 30
0.0000000000000000
 11
456.7195003697409
 21
200.4577716690964
 31
0.0000000000000000
  0
INSERT
  5
A4
100
AcDbEntity
  8
MAIN0
  6
BYBLOCK
 62
0
100
AcDbBlockReference
  2
_OPEN
 10
443.7195003697409
 20
200.4577716690964
 30
0.0000000000000000
 41
2.000000000000000
 42
2.000000000000000
 43
2.000000000000000
 50
180.0000000000000
  0
INSERT
  5
A5
100
AcDbEntity
  8
MAIN0
  6
BYBLOCK
 62
0
100
AcDbBlockReference
  2
_OPEN
 10
458.7195003697409
 20
200.4577716690964
 30
0.0000000000000000
 41
2.000000000000000
 42
2.000000000000000
 43
2.000000000000000
 50
0.0000000000000000
  0
LINE
  5
A6
100
AcDbEntity
  8
MAIN0
  6
BYBLOCK
 62
0
100
AcDbLine
 10
458.7195003697409
 20
219.3932140668954
 30
0.0000000000000000
 11
458.7195003697409
 21
198.4577716690964
 31
0.0000000000000000
  0
MTEXT
  5
A7
100
AcDbEntity
  8
MAIN0
  6
BYBLOCK
 62
0
100
AcDbMText
 10
451.2195003697409
 20
202.5077716214127
 30
0.0000000000000000
 40
3.099999904632568
 41
0.0000000000000000
 71
     5
 72
     1
  1
\A1;15
 11
1.000000000000000
 21
0.0000000000000000
 31
0.0000000000000000
  7
STANDARD
  0
ENDBLK
  5
A8
100
AcDbEntity
  8
MAIN0
  6
CONTINUOUS
 62
3
100
AcDbBlockEnd
  0
BLOCK
  5
102
100
AcDbEntity
  8
MAIN0
  6
CONTINUOUS
 62
3
100
AcDbBlockBegin
  2
D8
 70
    64
 10
0.0
 20
0.0
 30
0.0
  0
LINE
  5
103
100
AcDbEntity
  8
MAIN0
  6
BYBLOCK
 62
0
100
AcDbLine
 10
38.69702777359541
 20
8.399999618530273
 30
0.0000000000000000
 11
38.69702777359541
 21
-72.49999999999999
 31
0.0000000000000000
  0
LINE
  5
104
100
AcDbEntity
  8
MAIN0
  6
BYBLOCK
 62
0
100
AcDbLine
 10
39.29702779743727
 20
-70.49999999999999
 30
0.0000000000000000
 11
38.69702777359541
 21
-72.49999999999999
 31
0.0000000000000000
  0
LINE
  5
105
100
AcDbEntity
  8
MAIN0
  6
BYBLOCK
 62
0
100
AcDbLine
 10
38.69702777359541
 20
-72.49999999999999
 30
0.0000000000000000
 11
38.09702774975355
 21
-70.49999999999999
 31
0.0000000000000000
  0
LINE
  5
106
100
AcDbEntity
  8
MAIN0
  6
BYBLOCK
 62
0
100
AcDbLine
 10
-40.61984826834544
 20
-72.49999999999999
 30
0.0000000000000000
 11
40.69702777359541
 21
-72.49999999999999
 31
0.0000000000000000
  0
MTEXT
  5
107
100
AcDbEntity
  8
MAIN0
  6
BYBLOCK
 62
0
100
AcDbMText
 10
36.64702782127912
 20
0.0000000000000000
 30
0.0000000000000000
 40
3.099999904632568
 41
0.0000000000000000
 71
     5
 72
     1
  1
\A1;\U+2205145\U+00B10.2
 11
6.123233995736766e-017
 21
1.000000000000000
 31
0.0000000000000000
  7
STANDARD
  0
ENDBLK
  5
108
100
AcDbEntity
  8
MAIN0
  6
CONTINUOUS
 62
3
100
AcDbBlockEnd
  0
BLOCK
  5
10B
100
AcDbEntity
  8
MAIN0
  6
CONTINUOUS
 62
3
100
AcDbBlockBegin
  2
D9
 70
    64
 10
0.0
 20
0.0
 30
0.0
  0
LINE
  5
10C
100
AcDbEntity
  8
MAIN0
  6
BYBLOCK
 62
0
100
AcDbLine
 10
-1.076486343339866
 20
-34.76822538905419
 30
0.0000000000000000
 11
-1.076486343339866
 21
-91.10000000000004
 31
0.0000000000000000
  0
LINE
  5
10D
100
AcDbEntity
  8
MAIN0
  6
BYBLOCK
 62
0
100
AcDbLine
 10
-0.4764863194980081
 20
-89.10000000000004
 30
0.0000000000000000
 11
-1.076486343339866
 21
-91.10000000000004
 31
0.0000000000000000
  0
LINE
  5
10E
100
AcDbEntity
  8
MAIN0
  6
BYBLOCK
 62
0
100
AcDbLine
 10
-1.076486343339866
 20
-91.10000000000004
 30
0.0000000000000000
 11
-1.676486367181724
 21
-89.10000000000004
 31
0.0000000000000000
  0
LINE
  5
10F
100
AcDbEntity
  8
MAIN0
  6
BYBLOCK
 62
0
100
AcDbLine
 10
14.28300224661780
 20
-91.10000000000004
 30
0.0000000000000000
 11
-3.076486343339866
 21
-91.10000000000004
 31
0.0000000000000000
  0
MTEXT
  5
110
100
AcDbEntity
  8
MAIN0
  6
BYBLOCK
 62
0
100
AcDbMText
 10
-3.126486295656150
 20
-42.81822539352454
 30
0.0000000000000000
 40
3.099999904632568
 41
0.0000000000000000
 71
     5
 72
     1
  1
\A1;\U+2205182.2
 11
6.123233995736766e-017
 21
1.000000000000000
 31
0.0000000000000000
  7
STANDARD
  0
ENDBLK
  5
111
100
AcDbEntity
  8
MAIN0
  6
CONTINUOUS
 62
3
100
AcDbBlockEnd
  0
BLOCK
  5
11C
100
AcDbEntity
  8
MAIN0
  6
CONTINUOUS
 62
3
100
AcDbBlockBegin
  2
*D10
 70
    65
 10
0.0
 20
0.0
 30
0.0
  0
LINE
  5
11D
100
AcDbEntity
  8
MAIN0
  6
BYBLOCK
 62
0
100
AcDbLine
 10
443.7195003697409
 20
325.9932140907373
 30
0.0000000000000000
 11
443.7195003697409
 21
373.0954167980465
 31
0.0000000000000000
  0
LINE
  5
11E
100
AcDbEntity
  8
MAIN0
  6
BYBLOCK
 62
0
100
AcDbLine
 10
441.7195003697409
 20
371.0954167980465
 30
0.0000000000000000
 11
391.7195003697415
 21
371.0954167980465
 31
0.0000000000000000
  0
INSERT
  5
11F
100
AcDbEntity
  8
MAIN0
  6
BYBLOCK
 62
0
100
AcDbBlockReference
  2
_OPEN
 10
443.7195003697409
 20
371.0954167980465
 30
0.0000000000000000
 41
2.000000000000000
 42
2.000000000000000
 43
2.000000000000000
 50
360.0000000000000
  0
INSERT
  5
120
100
AcDbEntity
  8
MAIN0
  6
BYBLOCK
 62
0
100
AcDbBlockReference
  2
_OPEN
 10
389.7195003697415
 20
371.0954167980465
 30
0.0000000000000000
 41
2.000000000000000
 42
2.000000000000000
 43
2.000000000000000
 50
180.0000000000000
  0
LINE
  5
121
100
AcDbEntity
  8
MAIN0
  6
BYBLOCK
 62
0
100
AcDbLine
 10
389.7195003697415
 20
329.9932140907375
 30
0.0000000000000000
 11
389.7195003697415
 21
373.0954167980465
 31
0.0000000000000000
  0
MTEXT
  5
122
100
AcDbEntity
  8
MAIN0
  6
BYBLOCK
 62
0
100
AcDbMText
 10
416.7195003697412
 20
373.1454167503628
 30
0.0000000000000000
 40
3.099999904632568
 41
0.0000000000000000
 71
     5
 72
     1
  1
\A1;MIN 54
 11
1.000000000000000
 21
0.0000000000000000
 31
0.0000000000000000
  7
STANDARD
  0
ENDBLK
  5
123
100
AcDbEntity
  8
MAIN0
  6
CONTINUOUS
 62
3
100
AcDbBlockEnd
  0
BLOCK
  5
125
100
AcDbEntity
  8
MAIN0
  6
CONTINUOUS
 62
3
100
AcDbBlockBegin
  2
*D11
 70
    65
 10
0.0
 20
0.0
 30
0.0
  0
LINE
  5
126
100
AcDbEntity
  8
MAIN0
  6
BYBLOCK
 62
0
100
AcDbLine
 10
389.7195003697415
 20
330.4932140907375
 30
0.0000000000000000
 11
389.7195003697415
 21
373.0954167980465
 31
0.0000000000000000
  0
LINE
  5
127
100
AcDbEntity
  8
MAIN0
  6
BYBLOCK
 62
0
100
AcDbLine
 10
387.7195003697415
 20
371.0954167980465
 30
0.0000000000000000
 11
364.7195003697415
 21
371.0954167980465
 31
0.0000000000000000
  0
INSERT
  5
128
100
AcDbEntity
  8
MAIN0
  6
BYBLOCK
 62
0
100
AcDbBlockReference
  2
_OPEN
 10
389.7195003697415
 20
371.0954167980465
 30
0.0000000000000000
 41
2.000000000000000
 42
2.000000000000000
 43
2.000000000000000
 50
360.0000000000000
  0
INSERT
  5
129
100
AcDbEntity
  8
MAIN0
  6
BYBLOCK
 62
0
100
AcDbBlockReference
  2
_OPEN
 10
362.7195003697415
 20
371.0954167980465
 30
0.0000000000000000
 41
2.000000000000000
 42
2.000000000000000
 43
2.000000000000000
 50
180.0000000000000
  0
LINE
  5
12A
100
AcDbEntity
  8
MAIN0
  6
BYBLOCK
 62
0
100
AcDbLine
 10
362.7195003697415
 20
330.4932140907375
 30
0.0000000000000000
 11
362.7195003697415
 21
373.0954167980465
 31
0.0000000000000000
  0
MTEXT
  5
12B
100
AcDbEntity
  8
MAIN0
  6
BYBLOCK
 62
0
100
AcDbMText
 10
376.2195003697415
 20
373.1454167503628
 30
0.0000000000000000
 40
3.099999904632568
 41
0.0000000000000000
 71
     5
 72
     1
  1
\A1;27
 11
1.000000000000000
 21
0.0000000000000000
 31
0.0000000000000000
  7
STANDARD
  0
ENDBLK
  5
12C
100
AcDbEntity
  8
MAIN0
  6
CONTINUOUS
 62
3
100
AcDbBlockEnd
  0
BLOCK
  5
130
100
AcDbEntity
  8
MAIN0
  6
CONTINUOUS
 62
3
100
AcDbBlockBegin
  2
*D12
 70
    65
 10
0.0
 20
0.0
 30
0.0
  0
LINE
  5
131
100
AcDbEntity
  8
MAIN0
  6
BYBLOCK
 62
0
100
AcDbLine
 10
187.5334249370177
 20
154.7851747060042
 30
0.0000000000000000
 11
195.2222818836357
 21
133.6602138637570
 31
0.0000000000000000
  0
ARC
  5
132
100
AcDbEntity
  8
MAIN0
  6
BYBLOCK
 62
0
100
AcDbCircle
 10
155.7195003697416
 20
242.1932140788163
 30
0.0000000000000000
 40
113.4984064089913
100
AcDbArc
 50
271.0096314358240
 51
288.9903685641809
  0
INSERT
  5
133
100
AcDbEntity
  8
MAIN0
  6
BYBLOCK
 62
0
100
AcDbBlockReference
  2
_OPEN
 10
155.7195003697465
 20
128.6948076698250
 30
0.0000000000000000
 41
2.000000000000000
 42
2.000000000000000
 43
2.000000000000000
 50
180.0000000000025
  0
INSERT
  5
134
100
AcDbEntity
  8
MAIN0
  6
BYBLOCK
 62
0
100
AcDbBlockReference
  2
_OPEN
 10
194.5382415969842
 20
135.5395991053288
 30
0.0000000000000000
 41
2.000000000000000
 42
2.000000000000000
 43
2.000000000000000
 50
20.00000000000239
  0
MTEXT
  5
135
100
AcDbEntity
  8
MAIN0
  6
BYBLOCK
 62
0
100
AcDbMText
 10
175.0723130548313
 20
132.4379593394278
 30
0.0000000000000000
 40
3.099999904632568
 41
0.0000000000000000
 71
     5
 72
     1
  1
\A1;20\U+00B0
 11
0.9848077530122007
 21
0.1736481776669721
 31
0.0000000000000000
  7
STANDARD
  0
ENDBLK
  5
136
100
AcDbEntity
  8
MAIN0
  6
CONTINUOUS
 62
3
100
AcDbBlockEnd
  0
BLOCK
  5
138
100
AcDbEntity
  8
MAIN0
  6
CONTINUOUS
 62
3
100
AcDbBlockBegin
  2
*D13
 70
    65
 10
0.0
 20
0.0
 30
0.0
  0
LINE
  5
139
100
AcDbEntity
  8
MAIN0
  6
BYBLOCK
 62
0
100
AcDbLine
 10
187.5334249370177
 20
154.7851747060042
 30
0.0000000000000000
 11
195.2222818836357
 21
133.6602138637570
 31
0.0000000000000000
  0
LINE
  5
13A
100
AcDbEntity
  8
MAIN0
  6
BYBLOCK
 62
0
100
AcDbLine
 10
230.5929625128781
 20
167.3197519356930
 30
0.0000000000000000
 11
237.3892067577863
 21
160.5235076907860
 31
0.0000000000000000
  0
ARC
  5
13B
100
AcDbEntity
  8
MAIN0
  6
BYBLOCK
 62
0
100
AcDbCircle
 10
155.7195003697416
 20
242.1932140788163
 30
0.0000000000000000
 40
113.4984064089913
100
AcDbArc
 50
291.0096314358239
 51
313.9903685641835
  0
INSERT
  5
13C
100
AcDbEntity
  8
MAIN0
  6
BYBLOCK
 62
0
100
AcDbBlockReference
  2
_OPEN
 10
194.5382415969842
 20
135.5395991053288
 30
0.0000000000000000
 41
2.000000000000000
 42
2.000000000000000
 43
2.000000000000000
 50
200.0000000000024
  0
INSERT
  5
13D
100
AcDbEntity
  8
MAIN0
  6
BYBLOCK
 62
0
100
AcDbBlockReference
  2
_OPEN
 10
235.9749931954131
 20
161.9377212531588
 30
0.0000000000000000
 41
2.000000000000000
 42
2.000000000000000
 43
2.000000000000000
 50
45.00000000000495
  0
MTEXT
  5
13E
100
AcDbEntity
  8
MAIN0
  6
BYBLOCK
 62
0
100
AcDbMText
 10
215.6006855097968
 20
148.1985814237829
 30
0.0000000000000000
 40
3.099999904632568
 41
0.0000000000000000
 71
     5
 72
     1
  1
\A1;25\U+00B0
 11
0.8433914458128512
 21
0.5372996083468780
 31
0.0000000000000000
  7
STANDARD
  0
ENDBLK
  5
13F
100
AcDbEntity
  8
MAIN0
  6
CONTINUOUS
 62
3
100
AcDbBlockEnd
  0
BLOCK
  5
141
100
AcDbEntity
  8
MAIN0
  6
CONTINUOUS
 62
3
100
AcDbBlockBegin
  2
*D14
 70
    65
 10
0.0
 20
0.0
 30
0.0
  0
LINE
  5
142
100
AcDbEntity
  8
MAIN0
  6
BYBLOCK
 62
0
100
AcDbLine
 10
230.5929625128781
 20
167.3197519356930
 30
0.0000000000000000
 11
237.3892067577863
 21
160.5235076907860
 31
0.0000000000000000
  0
LINE
  5
143
100
AcDbEntity
  8
MAIN0
  6
BYBLOCK
 62
0
100
AcDbLine
 10
261.2426604510495
 20
242.1932140788164
 30
0.0000000000000000
 11
271.2179067787329
 21
242.1932140788163
 31
0.0000000000000000
  0
ARC
  5
144
100
AcDbEntity
  8
MAIN0
  6
BYBLOCK
 62
0
100
AcDbCircle
 10
155.7195003697416
 20
242.1932140788163
 30
0.0000000000000000
 40
113.4984064089913
100
AcDbArc
 50
316.0096314358265
 51
358.9903685641785
  0
INSERT
  5
145
100
AcDbEntity
  8
MAIN0
  6
BYBLOCK
 62
0
100
AcDbBlockReference
  2
_OPEN
 10
235.9749931954131
 20
161.9377212531588
 30
0.0000000000000000
 41
2.000000000000000
 42
2.000000000000000
 43
2.000000000000000
 50
225.0000000000050
  0
INSERT
  5
146
100
AcDbEntity
  8
MAIN0
  6
BYBLOCK
 62
0
100
AcDbBlockReference
  2
_OPEN
 10
269.2179067787329
 20
242.1932140788163
 30
0.0000000000000000
 41
2.000000000000000
 42
2.000000000000000
 43
2.000000000000000
 50
90.00000000000000
  0
MTEXT
  5
147
100
AcDbEntity
  8
MAIN0
  6
BYBLOCK
 62
0
100
AcDbMText
 10
258.6844020260643
 20
199.5437553643608
 30
0.0000000000000000
 40
3.099999904632568
 41
0.0000000000000000
 71
     5
 72
     1
  1
\A1;45\U+00B0
 11
0.3826834323650492
 21
0.9238795325113036
 31
0.0000000000000000
  7
STANDARD
  0
ENDBLK
  5
148
100
AcDbEntity
  8
MAIN0
  6
CONTINUOUS
 62
3
100
AcDbBlockEnd
  0
BLOCK
  5
14A
100
AcDbEntity
  8
MAIN0
  6
CONTINUOUS
 62
3
100
AcDbBlockBegin
  2
*D15
 70
    65
 10
0.0
 20
0.0
 30
0.0
  0
LINE
  5
14B
100
AcDbEntity
  8
MAIN0
  6
BYBLOCK
 62
0
100
AcDbLine
 10
261.2426604510495
 20
242.1932140788164
 30
0.0000000000000000
 11
271.2179067787329
 21
242.1932140788164
 31
0.0000000000000000
  0
ARC
  5
14C
100
AcDbEntity
  8
MAIN0
  6
BYBLOCK
 62
0
100
AcDbCircle
 10
152.6885117858575
 20
242.1932140788164
 30
0.0000000000000000
 40
116.5293949928755
100
AcDbArc
 50
0.9833704108149769
 51
64.01662958908776
  0
INSERT
  5
14D
100
AcDbEntity
  8
MAIN0
  6
BYBLOCK
 62
0
100
AcDbBlockReference
  2
_OPEN
 10
269.2179067787329
 20
242.1932140788164
 30
0.0000000000000000
 41
2.000000000000000
 42
2.000000000000000
 43
2.000000000000000
 50
270.0000000000000
  0
INSERT
  5
14E
100
AcDbEntity
  8
MAIN0
  6
BYBLOCK
 62
0
100
AcDbBlockReference
  2
_OPEN
 10
201.9359621396212
 20
347.8047121794454
 30
0.0000000000000000
 41
2.000000000000000
 42
2.000000000000000
 43
2.000000000000000
 50
154.9999999999027
  0
MTEXT
  5
14F
100
AcDbEntity
  8
MAIN0
  6
BYBLOCK
 62
0
100
AcDbMText
 10
252.6973591323540
 20
305.9058765407864
 30
0.0000000000000000
 40
3.099999904632568
 41
0.0000000000000000
 71
     5
 72
     1
  1
\A1;65\U+00B0
 11
0.5372996083461078
 21
-0.8433914458133419
 31
0.0000000000000000
  7
STANDARD
  0
ENDBLK
  5
150
100
AcDbEntity
  8
MAIN0
  6
CONTINUOUS
 62
3
100
AcDbBlockEnd
  0
BLOCK
  5
152
100
AcDbEntity
  8
MAIN0
  6
CONTINUOUS
 62
3
100
AcDbBlockBegin
  2
*D16
 70
    65
 10
0.0
 20
0.0
 30
0.0
  0
ARC
  5
153
100
AcDbEntity
  8
MAIN0
  6
BYBLOCK
 62
0
100
AcDbCircle
 10
155.7195003697414
 20
248.6931900729121
 30
0.0000000000000000
 40
109.3574650071983
100
AcDbArc
 50
66.04786224706274
 51
88.95213775284245
  0
INSERT
  5
154
100
AcDbEntity
  8
MAIN0
  6
BYBLOCK
 62
0
100
AcDbBlockReference
  2
_OPEN
 10
201.9359621396212
 20
347.8047121794454
 30
0.0000000000000000
 41
2.000000000000000
 42
2.000000000000000
 43
2.000000000000000
 50
334.9999999999027
  0
INSERT
  5
155
100
AcDbEntity
  8
MAIN0
  6
BYBLOCK
 62
0
100
AcDbBlockReference
  2
_OPEN
 10
155.7195003697367
 20
358.0506550801104
 30
0.0000000000000000
 41
2.000000000000000
 42
2.000000000000000
 43
2.000000000000000
 50
180.0000000000024
  0
MTEXT
  5
156
100
AcDbEntity
  8
MAIN0
  6
BYBLOCK
 62
0
100
AcDbMText
 10
179.8324890754915
 20
357.4598532762201
 30
0.0000000000000000
 40
3.099999904632568
 41
0.0000000000000000
 71
     5
 72
     1
  1
\A1;25\U+00B0
 11
0.9762960071197542
 21
-0.2164396139389110
 31
0.0000000000000000
  7
STANDARD
  0
ENDBLK
  5
157
100
AcDbEntity
  8
MAIN0
  6
CONTINUOUS
 62
3
100
AcDbBlockEnd
  0
BLOCK
  5
15F
100
AcDbEntity
  8
MAIN0
  6
CONTINUOUS
 62
3
100
AcDbBlockBegin
  2
D17
 70
    64
 10
0.0
 20
0.0
 30
0.0
  0
LINE
  5
160
100
AcDbEntity
  8
MAIN0
  6
BYBLOCK
 62
0
100
AcDbLine
 10
18.69702777359544
 20
-31.73544240971999
 30
0.0000000000000000
 11
18.69702777359544
 21
-47.50000000000000
 31
0.0000000000000000
  0
LINE
  5
161
100
AcDbEntity
  8
MAIN0
  6
BYBLOCK
 62
0
100
AcDbLine
 10
19.29702779743730
 20
-45.50000000000000
 30
0.0000000000000000
 11
18.69702777359544
 21
-47.50000000000000
 31
0.0000000000000000
  0
LINE
  5
162
100
AcDbEntity
  8
MAIN0
  6
BYBLOCK
 62
0
100
AcDbLine
 10
18.69702777359544
 20
-47.50000000000000
 30
0.0000000000000000
 11
18.09702774975358
 21
-45.50000000000000
 31
0.0000000000000000
  0
LINE
  5
163
100
AcDbEntity
  8
MAIN0
  6
BYBLOCK
 62
0
100
AcDbLine
 10
0.8000000119209290
 20
-47.50000000000000
 30
0.0000000000000000
 11
20.69702777359544
 21
-47.50000000000000
 31
0.0000000000000000
  0
MTEXT
  5
164
100
AcDbEntity
  8
MAIN0
  6
BYBLOCK
 62
0
100
AcDbMText
 10
16.64702782127915
 20
-37.13544241195517
 30
0.0000000000000000
 40
3.099999904632568
 41
0.0000000000000000
 71
     5
 72
     1
  1
\A1;\U+220595
 11
6.123233995736766e-017
 21
1.000000000000000
 31
0.0000000000000000
  7
STANDARD
  0
ENDBLK
  5
165
100
AcDbEntity
  8
MAIN0
  6
CONTINUOUS
 62
3
100
AcDbBlockEnd
  0
BLOCK
  5
169
100
AcDbEntity
  8
MAIN0
  6
BYBLOCK
 62
2
100
AcDbBlockBegin
  2
M0
 70
    64
 10
0.0
 20
0.0
 30
0.0
  0
LINE
  5
16A
100
AcDbEntity
  8
MAIN0
  6
BYBLOCK
 62
0
100
AcDbLine
 10
489.7334383219917
 20
299.9108225017272
 30
0.0000000000000000
 11
489.7334383219917
 21
293.9108225017272
 31
0.0000000000000000
  0
LINE
  5
16B
100
AcDbEntity
  8
MAIN0
  6
BYBLOCK
 62
0
100
AcDbLine
 10
489.7334383219917
 20
296.9108225017272
 30
0.0000000000000000
 11
501.7334383219916
 21
296.9108225017272
 31
0.0000000000000000
  0
LINE
  5
16C
100
AcDbEntity
  8
MAIN0
  6
BYBLOCK
 62
0
100
AcDbLine
 10
489.7334383219917
 20
296.9108225017272
 30
0.0000000000000000
 11
494.5630674534370
 21
298.2049177272398
 31
0.0000000000000000
  0
LINE
  5
16D
100
AcDbEntity
  8
MAIN0
  6
BYBLOCK
 62
0
100
AcDbLine
 10
489.7334383219917
 20
296.9108225017271
 30
0.0000000000000000
 11
494.5630674534370
 21
295.6167272762145
 31
0.0000000000000000
  0
ENDBLK
  5
16E
100
AcDbEntity
  8
MAIN0
  6
BYBLOCK
 62
2
100
AcDbBlockEnd
  0
BLOCK
  5
170
100
AcDbEntity
  8
MAIN0
  6
BYBLOCK
 62
2
100
AcDbBlockBegin
  2
M1
 70
    64
 10
0.0
 20
0.0
 30
0.0
  0
LINE
  5
171
100
AcDbEntity
  8
MAIN0
  6
BYBLOCK
 62
0
100
AcDbLine
 10
489.7334383219917
 20
179.4756056559056
 30
0.0000000000000000
 11
489.7334383219917
 21
185.4756056559056
 31
0.0000000000000000
  0
LINE
  5
172
100
AcDbEntity
  8
MAIN0
  6
BYBLOCK
 62
0
100
AcDbLine
 10
489.7334383219917
 20
182.4756056559056
 30
0.0000000000000000
 11
501.7334383219916
 21
182.4756056559056
 31
0.0000000000000000
  0
LINE
  5
173
100
AcDbEntity
  8
MAIN0
  6
BYBLOCK
 62
0
100
AcDbLine
 10
489.7334383219917
 20
182.4756056559055
 30
0.0000000000000000
 11
494.5630674534370
 21
181.1815104303929
 31
0.0000000000000000
  0
LINE
  5
174
100
AcDbEntity
  8
MAIN0
  6
BYBLOCK
 62
0
100
AcDbLine
 10
489.7334383219917
 20
182.4756056559056
 30
0.0000000000000000
 11
494.5630674534370
 21
183.7697008814183
 31
0.0000000000000000
  0
ENDBLK
  5
175
100
AcDbEntity
  8
MAIN0
  6
BYBLOCK
 62
2
100
AcDbBlockEnd
  0
BLOCK
  5
17C
100
AcDbEntity
  8
MAIN0
  6
CONTINUOUS
 62
3
100
AcDbBlockBegin
  2
*D18
 70
    65
 10
0.0
 20
0.0
 30
0.0
  0
LINE
  5
17D
100
AcDbEntity
  8
MAIN0
  6
BYBLOCK
 62
0
100
AcDbLine
 10
65.86940486475302
 20
255.1932140788130
 30
0.0000000000000000
 11
43.54926745606065
 21
255.1932140788130
 31
0.0000000000000000
  0
LINE
  5
17E
100
AcDbEntity
  8
MAIN0
  6
BYBLOCK
 62
0
100
AcDbLine
 10
45.54926745606065
 20
253.1932140788130
 30
0.0000000000000000
 11
45.54926745606065
 21
231.1932140788129
 31
0.0000000000000000
  0
INSERT
  5
17F
100
AcDbEntity
  8
MAIN0
  6
BYBLOCK
 62
0
100
AcDbBlockReference
  2
_OPEN
 10
45.54926745606065
 20
255.1932140788130
 30
0.0000000000000000
 41
2.000000000000000
 42
2.000000000000000
 43
2.000000000000000
 50
90.00000000000000
  0
INSERT
  5
180
100
AcDbEntity
  8
MAIN0
  6
BYBLOCK
 62
0
100
AcDbBlockReference
  2
_OPEN
 10
45.54926745606065
 20
229.1932140788129
 30
0.0000000000000000
 41
2.000000000000000
 42
2.000000000000000
 43
2.000000000000000
 50
270.0000000000000
  0
LINE
  5
181
100
AcDbEntity
  8
MAIN0
  6
BYBLOCK
 62
0
100
AcDbLine
 10
65.69252340729250
 20
229.1932140788129
 30
0.0000000000000000
 11
43.54926745606065
 21
229.1932140788129
 31
0.0000000000000000
  0
MTEXT
  5
182
100
AcDbEntity
  8
MAIN0
  6
BYBLOCK
 62
0
100
AcDbMText
 10
43.49926750374436
 20
242.1932140601865
 30
0.0000000000000000
 40
3.099999904632568
 41
0.0000000000000000
 71
     5
 72
     1
  1
\A1;26\H0.903226x;\U+00B10.2
 11
6.123233995736766e-017
 21
1.000000000000000
 31
0.0000000000000000
  7
STANDARD
  0
ENDBLK
  5
183
100
AcDbEntity
  8
MAIN0
  6
CONTINUOUS
 62
3
100
AcDbBlockEnd
  0
BLOCK
  5
185
100
AcDbEntity
  8
MAIN0
  6
CONTINUOUS
 62
3
100
AcDbBlockBegin
  2
*D19
 70
    65
 10
0.0
 20
0.0
 30
0.0
  0
LINE
  5
186
100
AcDbEntity
  8
MAIN0
  6
BYBLOCK
 62
0
100
AcDbLine
 10
73.21950036974167
 20
262.7781589557018
 30
0.0000000000000000
 11
73.21950036974167
 21
271.8541978928816
 31
0.0000000000000000
  0
LINE
  5
187
100
AcDbEntity
  8
MAIN0
  6
BYBLOCK
 62
0
100
AcDbLine
 10
75.21950036974167
 20
269.8541978928816
 30
0.0000000000000000
 11
153.7195003697362
 21
269.8541978928816
 31
0.0000000000000000
  0
INSERT
  5
188
100
AcDbEntity
  8
MAIN0
  6
BYBLOCK
 62
0
100
AcDbBlockReference
  2
_OPEN
 10
73.21950036974167
 20
269.8541978928816
 30
0.0000000000000000
 41
2.000000000000000
 42
2.000000000000000
 43
2.000000000000000
 50
180.0000000000000
  0
INSERT
  5
189
100
AcDbEntity
  8
MAIN0
  6
BYBLOCK
 62
0
100
AcDbBlockReference
  2
_OPEN
 10
155.7195003697362
 20
269.8541978928816
 30
0.0000000000000000
 41
2.000000000000000
 42
2.000000000000000
 43
2.000000000000000
 50
0.0000000000000000
  0
MTEXT
  5
18A
100
AcDbEntity
  8
MAIN0
  6
BYBLOCK
 62
0
100
AcDbMText
 10
114.4695002803319
 20
271.9041978451979
 30
0.0000000000000000
 40
3.099999904632568
 41
0.0000000000000000
 71
     5
 72
     1
  1
\A1;82.5\H0.903226x;\U+00B10.1
 11
1.000000000000000
 21
0.0000000000000000
 31
0.0000000000000000
  7
STANDARD
  0
ENDBLK
  5
18B
100
AcDbEntity
  8
MAIN0
  6
CONTINUOUS
 62
3
100
AcDbBlockEnd
  0
BLOCK
  5
198
100
AcDbEntity
  8
MAIN0
  6
BYBLOCK
 62
3
100
AcDbBlockBegin
  2
M2
 70
    64
 10
0.0
 20
0.0
 30
0.0
  0
LINE
  5
199
100
AcDbEntity
  8
MAIN0
  6
BYBLOCK
 62
0
100
AcDbLine
 10
33.75210210161919
 20
147.4515968932306
 30
0.0000000000000000
 11
110.7521021016192
 21
147.4515968932306
 31
0.0000000000000000
  0
LINE
  5
19A
100
AcDbEntity
  8
MAIN0
  6
BYBLOCK
 62
0
100
AcDbLine
 10
33.75210210161919
 20
140.4515968932306
 30
0.0000000000000000
 11
110.7521021016192
 21
140.4515968932306
 31
0.0000000000000000
  0
LINE
  5
19B
100
AcDbEntity
  8
MAIN0
  6
BYBLOCK
 62
0
100
AcDbLine
 10
33.75210210161919
 20
54.95159689323060
 30
0.0000000000000000
 11
33.75210210161919
 21
147.4515968932306
 31
0.0000000000000000
  0
LINE
  5
19C
100
AcDbEntity
  8
MAIN0
  6
BYBLOCK
 62
0
100
AcDbLine
 10
33.75210210161924
 20
133.4515968932306
 30
0.0000000000000000
 11
110.7521021016191
 21
133.4515968932306
 31
0.0000000000000000
  0
LINE
  5
19D
100
AcDbEntity
  8
MAIN0
  6
BYBLOCK
 62
0
100
AcDbLine
 10
33.75210210161924
 20
126.4515968932306
 30
0.0000000000000000
 11
110.7521021016191
 21
126.4515968932306
 31
0.0000000000000000
  0
LINE
  5
19E
100
AcDbEntity
  8
MAIN0
  6
BYBLOCK
 62
0
100
AcDbLine
 10
76.73529046989250
 20
116.4515968932306
 30
0.0000000000000000
 11
110.7521021016191
 21
116.4515968932306
 31
0.0000000000000000
  0
LINE
  5
19F
100
AcDbEntity
  8
MAIN0
  6
BYBLOCK
 62
0
100
AcDbLine
 10
33.75210210161919
 20
106.4515968932306
 30
0.0000000000000000
 11
110.7521021016191
 21
106.4515968932306
 31
0.0000000000000000
  0
LINE
  5
1A0
100
AcDbEntity
  8
MAIN0
  6
BYBLOCK
 62
0
100
AcDbLine
 10
33.75210210161919
 20
96.45159689323060
 30
0.0000000000000000
 11
110.7521021016191
 21
96.45159689323060
 31
0.0000000000000000
  0
LINE
  5
1A1
100
AcDbEntity
  8
MAIN0
  6
BYBLOCK
 62
0
100
AcDbLine
 10
33.75210210161919
 20
89.45159689323060
 30
0.0000000000000000
 11
110.7521021016191
 21
89.45159689323060
 31
0.0000000000000000
  0
LINE
  5
1A2
100
AcDbEntity
  8
MAIN0
  6
BYBLOCK
 62
0
100
AcDbLine
 10
33.75210210161919
 20
82.45159689323060
 30
0.0000000000000000
 11
110.7521021016191
 21
82.45159689323060
 31
0.0000000000000000
  0
LINE
  5
1A3
100
AcDbEntity
  8
MAIN0
  6
BYBLOCK
 62
0
100
AcDbLine
 10
33.75210210161919
 20
72.45159689323060
 30
0.0000000000000000
 11
110.7521021016191
 21
72.45159689323060
 31
0.0000000000000000
  0
LINE
  5
1A4
100
AcDbEntity
  8
MAIN0
  6
BYBLOCK
 62
0
100
AcDbLine
 10
33.75210210161919
 20
54.95159689323063
 30
0.0000000000000000
 11
110.7521021016191
 21
54.95159689323037
 31
0.0000000000000000
  0
LINE
  5
1A5
100
AcDbEntity
  8
MAIN0
  6
BYBLOCK
 62
0
100
AcDbLine
 10
80.75210210161907
 20
54.95159689323049
 30
0.0000000000000000
 11
80.75210210161907
 21
140.4515968932306
 31
0.0000000000000000
  0
LINE
  5
1A6
100
AcDbEntity
  8
MAIN0
  6
BYBLOCK
 62
0
100
AcDbLine
 10
110.7521021016191
 20
54.95159689323037
 30
0.0000000000000000
 11
110.7521021016191
 21
147.4515968932306
 31
0.0000000000000000
  0
LINE
  5
1A7
100
AcDbEntity
  8
MAIN0
  6
BYBLOCK
 62
0
100
AcDbLine
 10
33.75210210161919
 20
65.45159689323060
 30
0.0000000000000000
 11
110.7521021016191
 21
65.45159689323060
 31
0.0000000000000000
  0
MTEXT
  5
1A8
100
AcDbEntity
  8
MAIN0
  6
BYBLOCK
 62
0
100
AcDbMText
 10
35.75210210161919
 20
94.45159689323072
 30
0.0000000000000000
 40
3.000000000000000
 41
0.0000000000000000
 71
     1
 72
     1
  1
{\H0.93x;MAX. SPEED}
 11
1.000000000000000
 21
0.0000000000000000
 31
0.0000000000000000
  7
STANDARD
  0
MTEXT
  5
1A9
100
AcDbEntity
  8
MAIN0
  6
BYBLOCK
 62
0
100
AcDbMText
 10
35.75210210161919
 20
87.45159689323072
 30
0.0000000000000000
 40
3.000000000000000
 41
0.0000000000000000
 71
     1
 72
     1
  1
{\H0.91x;MASS}
 11
1.000000000000000
 21
0.0000000000000000
 31
0.0000000000000000
  7
STANDARD
  0
MTEXT
  5
1AA
100
AcDbEntity
  8
MAIN0
  6
BYBLOCK
 62
0
100
AcDbMText
 10
35.75210210161919
 20
78.95159689323066
 30
0.0000000000000000
 40
3.000000000000000
 41
0.0000000000000000
 71
     1
 72
     1
  1
{\H0.63x;MOMENT OF INERTIA}
 11
1.000000000000000
 21
0.0000000000000000
 31
0.0000000000000000
  7
STANDARD
  0
MTEXT
  5
1AB
100
AcDbEntity
  8
MAIN0
  6
BYBLOCK
 62
0
100
AcDbMText
 10
95.75210210161907
 20
137.2515961302910
 30
0.0000000000000000
 40
2.799999237060547
 41
0.0000000000000000
 71
     1
 72
     1
  1
{\H0.62x;　　　　mm}
 11
1.000000000000000
 21
0.0000000000000000
 31
0.0000000000000000
  7
KNJYOKO
  0
MTEXT
  5
1AC
100
AcDbEntity
  8
MAIN0
  6
BYBLOCK
 62
0
100
AcDbMText
 10
95.75210210161907
 20
86.25159613029103
 30
0.0000000000000000
 40
2.799999237060547
 41
0.0000000000000000
 71
     1
 72
     1
  1
{\H0.62x;　　　　kg}
 11
1.000000000000000
 21
0.0000000000000000
 31
0.0000000000000000
  7
KNJYOKO
  0
MTEXT
  5
1AD
100
AcDbEntity
  8
MAIN0
  6
BYBLOCK
 62
0
100
AcDbMText
 10
107.2122913748184
 20
79.57050929539986
 30
0.0000000000000000
 40
2.000000000000000
 41
0.0000000000000000
 71
     1
 72
     1
  1
{\H0.81x;2}
 11
1.000000000000000
 21
0.0000000000000000
 31
0.0000000000000000
  7
STANDARD
  0
MTEXT
  5
1AE
100
AcDbEntity
  8
MAIN0
  6
BYBLOCK
 62
0
100
AcDbMText
 10
39.00210210161917
 20
146.6015969885980
 30
0.0000000000000000
 40
5.300000190734863
 41
0.0000000000000000
 71
     1
 72
     1
  1
{\H0.94x;SPECIFICATIONS}
 11
1.000000000000000
 21
0.0000000000000000
 31
0.0000000000000000
  7
STANDARD
  0
MTEXT
  5
1AF
100
AcDbEntity
  8
MAIN0
  6
BYBLOCK
 62
0
100
AcDbMText
 10
35.75210210161919
 20
138.4515968932306
 30
0.0000000000000000
 40
3.000000000000000
 41
0.0000000000000000
 71
     1
 72
     1
  1
{\H0.93x;PISTON DIA}
 11
1.000000000000000
 21
0.0000000000000000
 31
0.0000000000000000
  7
STANDARD
  0
MTEXT
  5
1B0
100
AcDbEntity
  8
MAIN0
  6
BYBLOCK
 62
0
100
AcDbMText
 10
35.75210210161919
 20
131.4515968932308
 30
0.0000000000000000
 40
3.000000000000000
 41
0.0000000000000000
 71
     1
 72
     1
  1
{\H0.93x;PISTON STROKE}
 11
1.000000000000000
 21
0.0000000000000000
 31
0.0000000000000000
  7
STANDARD
  0
MTEXT
  5
1B1
100
AcDbEntity
  8
MAIN0
  6
BYBLOCK
 62
0
100
AcDbMText
 10
35.75210210161919
 20
122.4515968932308
 30
0.0000000000000000
 40
3.000000000000000
 41
0.0000000000000000
 71
     1
 72
     1
  1
{\H0.93x;PISTON THRUST}
 11
1.000000000000000
 21
0.0000000000000000
 31
0.0000000000000000
  7
STANDARD
  0
MTEXT
  5
1B2
100
AcDbEntity
  8
MAIN0
  6
BYBLOCK
 62
0
100
AcDbMText
 10
33.75210210161919
 20
116.4515968932307
 30
0.0000000000000000
 40
3.000000000000000
 41
0.0000000000000000
 71
     1
 72
     1
  1
{\H0.94x;(AT  　 　　　　　)}
 11
1.000000000000000
 21
0.0000000000000000
 31
0.0000000000000000
  7
KNJYOKO
  0
MTEXT
  5
1B3
100
AcDbEntity
  8
MAIN0
  6
BYBLOCK
 62
0
100
AcDbMText
 10
35.75210210161919
 20
63.45159689323066
 30
0.0000000000000000
 40
3.000000000000000
 41
0.0000000000000000
 71
     1
 72
     1
  1
{\H0.93x;OIL LEAKAGE}
 11
1.000000000000000
 21
0.0000000000000000
 31
0.0000000000000000
  7
STANDARD
  0
MTEXT
  5
1B4
100
AcDbEntity
  8
MAIN0
  6
BYBLOCK
 62
0
100
AcDbMText
 10
73.03521284343475
 20
122.6878870739409
 30
0.0000000000000000
 40
3.000000000000000
 41
0.0000000000000000
 71
     1
 72
     1
  1
{\H0.63x;PUSH}
 11
1.000000000000000
 21
0.0000000000000000
 31
0.0000000000000000
  7
STANDARD
  0
MTEXT
  5
1B5
100
AcDbEntity
  8
MAIN0
  6
BYBLOCK
 62
0
100
AcDbMText
 10
73.03521284343475
 20
112.6878870739408
 30
0.0000000000000000
 40
3.000000000000000
 41
0.0000000000000000
 71
     1
 72
     1
  1
{\H0.63x;PULL}
 11
1.000000000000000
 21
0.0000000000000000
 31
0.0000000000000000
  7
STANDARD
  0
MTEXT
  5
1B6
100
AcDbEntity
  8
MAIN0
  6
BYBLOCK
 62
0
100
AcDbMText
 10
35.75210210161919
 20
58.95159689323066
 30
0.0000000000000000
 40
2.000000000000000
 41
0.0000000000000000
 71
     1
 72
     1
  1
{\H0.94x;ISO,VG 32,50℃,3.0MPa}
 11
1.000000000000000
 21
0.0000000000000000
 31
0.0000000000000000
  7
KNJYOKO
  0
MTEXT
  5
1B7
100
AcDbEntity
  8
MAIN0
  6
BYBLOCK
 62
0
100
AcDbMText
 10
95.75210210161907
 20
58.75159613029103
 30
0.0000000000000000
 40
2.799999237060547
 41
0.0000000000000000
 71
     1
 72
     1
  1
{\H0.67x;　　/min}
 11
1.000000000000000
 21
0.0000000000000000
 31
0.0000000000000000
  7
KNJYOKO
  0
MTEXT
  5
1B8
100
AcDbEntity
  8
MAIN0
  6
BYBLOCK
 62
0
100
AcDbMText
 10
35.75210210161919
 20
102.9515968932307
 30
0.0000000000000000
 40
3.000000000000000
 41
0.0000000000000000
 71
     1
 72
     1
  1
{\H0.63x;MAX. OPERATING PRESSURE}
 11
1.000000000000000
 21
0.0000000000000000
 31
0.0000000000000000
  7
STANDARD
  0
MTEXT
  5
1B9
100
AcDbEntity
  8
MAIN0
  6
BYBLOCK
 62
0
100
AcDbMText
 10
99.79626769737334
 20
78.10717715330100
 30
0.0000000000000000
 40
2.799999237060547
 41
0.0000000000000000
 71
     1
 72
     1
  1
{\H0.67x;kg・m}
 11
1.000000000000000
 21
0.0000000000000000
 31
0.0000000000000000
  7
KNJYOKO
  0
MTEXT
  5
1BA
100
AcDbEntity
  8
MAIN0
  6
BYBLOCK
 62
0
100
AcDbMText
 10
95.75210210161907
 20
103.7515961302910
 30
0.0000000000000000
 40
2.799999237060547
 41
0.0000000000000000
 71
     1
 72
     1
  1
{\H0.64x;　　　MPa}
 11
1.000000000000000
 21
0.0000000000000000
 31
0.0000000000000000
  7
KNJYOKO
  0
MTEXT
  5
1BB
100
AcDbEntity
  8
MAIN0
  6
BYBLOCK
 62
0
100
AcDbMText
 10
56.66979505698768
 20
116.2515961302913
 30
0.0000000000000000
 40
2.799999237060547
 41
0.0000000000000000
 71
     1
 72
     1
  1
{\H0.64x;　　　MPa}
 11
1.000000000000000
 21
0.0000000000000000
 31
0.0000000000000000
  7
KNJYOKO
  0
MTEXT
  5
1BC
100
AcDbEntity
  8
MAIN0
  6
BYBLOCK
 62
0
100
AcDbMText
 10
95.75210210161907
 20
123.7515961302912
 30
0.0000000000000000
 40
2.799999237060547
 41
0.0000000000000000
 71
     1
 72
     1
  1
{\H0.62x;　　　　kN}
 11
1.000000000000000
 21
0.0000000000000000
 31
0.0000000000000000
  7
KNJYOKO
  0
MTEXT
  5
1BD
100
AcDbEntity
  8
MAIN0
  6
BYBLOCK
 62
0
100
AcDbMText
 10
95.75210210161907
 20
93.25159613029103
 30
0.0000000000000000
 40
2.799999237060547
 41
0.0000000000000000
 71
     1
 72
     1
  1
{\H0.65x;　　min}
 11
1.000000000000000
 21
0.0000000000000000
 31
0.0000000000000000
  7
KNJYOKO
  0
MTEXT
  5
1BE
100
AcDbEntity
  8
MAIN0
  6
BYBLOCK
 62
0
100
AcDbMText
 10
105.9067703499390
 20
93.92114068318580
 30
0.0000000000000000
 40
2.000000000000000
 41
0.0000000000000000
 71
     1
 72
     1
  1
{\H0.88x;-1}
 11
1.000000000000000
 21
0.0000000000000000
 31
0.0000000000000000
  7
STANDARD
  0
MTEXT
  5
1BF
100
AcDbEntity
  8
MAIN0
  6
BYBLOCK
 62
0
100
AcDbMText
 10
95.75210210161907
 20
130.2515961302912
 30
0.0000000000000000
 40
2.799999237060547
 41
0.0000000000000000
 71
     1
 72
     1
  1
{\H0.62x;　　　　mm}
 11
1.000000000000000
 21
0.0000000000000000
 31
0.0000000000000000
  7
KNJYOKO
  0
MTEXT
  5
1C0
100
AcDbEntity
  8
MAIN0
  6
BYBLOCK
 62
0
100
AcDbMText
 10
95.75210210161907
 20
113.7515961302910
 30
0.0000000000000000
 40
2.799999237060547
 41
0.0000000000000000
 71
     1
 72
     1
  1
{\H0.62x;　　　　kN}
 11
1.000000000000000
 21
0.0000000000000000
 31
0.0000000000000000
  7
KNJYOKO
  0
ENDBLK
  5
1C1
100
AcDbEntity
  8
MAIN0
  6
BYBLOCK
 62
3
100
AcDbBlockEnd
  0
BLOCK
  5
1D7
100
AcDbEntity
  8
MAIN0
  6
CONTINUOUS
 62
3
100
AcDbBlockBegin
  2
*D20
 70
    65
 10
0.0
 20
0.0
 30
0.0
  0
LINE
  5
1D8
100
AcDbEntity
  8
MAIN0
  6
BYBLOCK
 62
0
100
AcDbLine
 10
443.7195003697409
 20
159.3932140668955
 30
0.0000000000000000
 11
443.7195003697409
 21
133.8020635727746
 31
0.0000000000000000
  0
LINE
  5
1D9
100
AcDbEntity
  8
MAIN0
  6
BYBLOCK
 62
0
100
AcDbLine
 10
441.7195003697409
 20
135.8020635727746
 30
0.0000000000000000
 11
317.7195003697452
 21
135.8020635727746
 31
0.0000000000000000
  0
INSERT
  5
1DA
100
AcDbEntity
  8
MAIN0
  6
BYBLOCK
 62
0
100
AcDbBlockReference
  2
_OPEN
 10
443.7195003697409
 20
135.8020635727746
 30
0.0000000000000000
 41
2.000000000000000
 42
2.000000000000000
 43
2.000000000000000
 50
360.0000000000000
  0
INSERT
  5
1DB
100
AcDbEntity
  8
MAIN0
  6
BYBLOCK
 62
0
100
AcDbBlockReference
  2
_OPEN
 10
315.7195003697452
 20
135.8020635727746
 30
0.0000000000000000
 41
2.000000000000000
 42
2.000000000000000
 43
2.000000000000000
 50
180.0000000000000
  0
LINE
  5
1DC
100
AcDbEntity
  8
MAIN0
  6
BYBLOCK
 62
0
100
AcDbLine
 10
315.7195003697452
 20
149.1931604184974
 30
0.0000000000000000
 11
315.7195003697452
 21
133.8020635727746
 31
0.0000000000000000
  0
MTEXT
  5
1DD
100
AcDbEntity
  8
MAIN0
  6
BYBLOCK
 62
0
100
AcDbMText
 10
379.7195003697430
 20
137.8520635250908
 30
0.0000000000000000
 40
3.099999904632568
 41
0.0000000000000000
 71
     5
 72
     1
  1
\A1;128
 11
1.000000000000000
 21
0.0000000000000000
 31
0.0000000000000000
  7
STANDARD
  0
ENDBLK
  5
1DE
100
AcDbEntity
  8
MAIN0
  6
CONTINUOUS
 62
3
100
AcDbBlockEnd
  0
BLOCK
  5
1E0
100
AcDbEntity
  8
MAIN0
  6
CONTINUOUS
 62
3
100
AcDbBlockBegin
  2
*D21
 70
    65
 10
0.0
 20
0.0
 30
0.0
  0
LINE
  5
1E1
100
AcDbEntity
  8
MAIN0
  6
BYBLOCK
 62
0
100
AcDbLine
 10
443.7195003697409
 20
159.3932140668955
 30
0.0000000000000000
 11
443.7195003697409
 21
124.8020635727745
 31
0.0000000000000000
  0
LINE
  5
1E2
100
AcDbEntity
  8
MAIN0
  6
BYBLOCK
 62
0
100
AcDbLine
 10
441.7195003697409
 20
126.8020635727745
 30
0.0000000000000000
 11
307.7195003697416
 21
126.8020635727745
 31
0.0000000000000000
  0
INSERT
  5
1E3
100
AcDbEntity
  8
MAIN0
  6
BYBLOCK
 62
0
100
AcDbBlockReference
  2
_OPEN
 10
443.7195003697409
 20
126.8020635727745
 30
0.0000000000000000
 41
2.000000000000000
 42
2.000000000000000
 43
2.000000000000000
 50
360.0000000000000
  0
INSERT
  5
1E4
100
AcDbEntity
  8
MAIN0
  6
BYBLOCK
 62
0
100
AcDbBlockReference
  2
_OPEN
 10
305.7195003697416
 20
126.8020635727745
 30
0.0000000000000000
 41
2.000000000000000
 42
2.000000000000000
 43
2.000000000000000
 50
180.0000000000000
  0
LINE
  5
1E5
100
AcDbEntity
  8
MAIN0
  6
BYBLOCK
 62
0
100
AcDbLine
 10
305.7195003697416
 20
150.2932140668954
 30
0.0000000000000000
 11
305.7195003697416
 21
124.8020635727745
 31
0.0000000000000000
  0
MTEXT
  5
1E6
100
AcDbEntity
  8
MAIN0
  6
BYBLOCK
 62
0
100
AcDbMText
 10
374.7195003697412
 20
128.8520635250908
 30
0.0000000000000000
 40
3.099999904632568
 41
0.0000000000000000
 71
     5
 72
     1
  1
\A1;138
 11
1.000000000000000
 21
0.0000000000000000
 31
0.0000000000000000
  7
STANDARD
  0
ENDBLK
  5
1E7
100
AcDbEntity
  8
MAIN0
  6
CONTINUOUS
 62
3
100
AcDbBlockEnd
  0
BLOCK
  5
1E9
100
AcDbEntity
  8
MAIN0
  6
CONTINUOUS
 62
3
100
AcDbBlockBegin
  2
*D22
 70
    65
 10
0.0
 20
0.0
 30
0.0
  0
LINE
  5
1EA
100
AcDbEntity
  8
MAIN0
  6
BYBLOCK
 62
0
100
AcDbLine
 10
443.7195003697409
 20
159.3932140668955
 30
0.0000000000000000
 11
443.7195003697409
 21
133.8020635727746
 31
0.0000000000000000
  0
LINE
  5
1EB
100
AcDbEntity
  8
MAIN0
  6
BYBLOCK
 62
0
100
AcDbLine
 10
445.7195003697409
 20
135.8020635727746
 30
0.0000000000000000
 11
455.7195003697414
 21
135.8020635727746
 31
0.0000000000000000
  0
INSERT
  5
1EC
100
AcDbEntity
  8
MAIN0
  6
BYBLOCK
 62
0
100
AcDbBlockReference
  2
_OPEN
 10
443.7195003697409
 20
135.8020635727746
 30
0.0000000000000000
 41
2.000000000000000
 42
2.000000000000000
 43
2.000000000000000
 50
180.0000000000000
  0
INSERT
  5
1ED
100
AcDbEntity
  8
MAIN0
  6
BYBLOCK
 62
0
100
AcDbBlockReference
  2
_OPEN
 10
457.7195003697414
 20
135.8020635727746
 30
0.0000000000000000
 41
2.000000000000000
 42
2.000000000000000
 43
2.000000000000000
 50
0.0000000000000000
  0
LINE
  5
1EE
100
AcDbEntity
  8
MAIN0
  6
BYBLOCK
 62
0
100
AcDbLine
 10
457.7195003697414
 20
163.8932140668955
 30
0.0000000000000000
 11
457.7195003697414
 21
133.8020635727746
 31
0.0000000000000000
  0
MTEXT
  5
1EF
100
AcDbEntity
  8
MAIN0
  6
BYBLOCK
 62
0
100
AcDbMText
 10
450.7195003697411
 20
137.8520635250908
 30
0.0000000000000000
 40
3.099999904632568
 41
0.0000000000000000
 71
     5
 72
     1
  1
\A1;14
 11
1.000000000000000
 21
0.0000000000000000
 31
0.0000000000000000
  7
STANDARD
  0
ENDBLK
  5
1F0
100
AcDbEntity
  8
MAIN0
  6
CONTINUOUS
 62
3
100
AcDbBlockEnd
  0
BLOCK
  5
27D
100
AcDbEntity
  8
MAIN0
  6
BYBLOCK
 62
3
100
AcDbBlockBegin
  2
M3
 70
    64
 10
0.0
 20
0.0
 30
0.0
  0
LINE
  5
27E
100
AcDbEntity
  8
MAIN0
  6
BYBLOCK
 62
0
100
AcDbLine
 10
276.1564675095039
 20
23.52893154403205
 30
0.0000000000000000
 11
406.3985086798115
 21
23.52893154403205
 31
0.0000000000000000
  0
LINE
  5
27F
100
AcDbEntity
  8
MAIN0
  6
BYBLOCK
 62
0
100
AcDbLine
 10
276.1564675095039
 20
18.52893154403205
 30
0.0000000000000000
 11
406.3985086798115
 21
18.52893154403205
 31
0.0000000000000000
  0
MTEXT
  5
280
100
AcDbEntity
  8
MAIN0
  6
BYBLOCK
 62
0
100
AcDbMText
 10
277.1564675095039
 20
27.12893144866462
 30
0.0000000000000000
 40
3.099999904632568
 41
0.0000000000000000
 71
     1
 72
     1
  1
{\H0.88x;1.}
 11
1.000000000000000
 21
0.0000000000000000
 31
0.0000000000000000
  7
STANDARD
  0
ENDBLK
  5
281
100
AcDbEntity
  8
MAIN0
  6
BYBLOCK
 62
3
100
AcDbBlockEnd
  0
BLOCK
  5
2BC
100
AcDbEntity
  8
MAIN0
  6
BYBLOCK
 62
3
100
AcDbBlockBegin
  2
M4
 70
    64
 10
0.0
 20
0.0
 30
0.0
  0
LINE
  5
2BD
100
AcDbEntity
  8
MAIN0
  6
BYBLOCK
 62
0
100
AcDbLine
 10
277.2006604402038
 20
39.85210521408669
 30
0.0000000000000000
 11
399.4935918557395
 21
39.85210521408669
 31
0.0000000000000000
  0
MTEXT
  5
2BE
100
AcDbEntity
  8
MAIN0
  6
BYBLOCK
 62
0
100
AcDbMText
 10
278.2006604402038
 20
43.45210511871926
 30
0.0000000000000000
 40
3.099999904632568
 41
0.0000000000000000
 71
     1
 72
     1
  1
{\H0.88x;1.}
 11
1.000000000000000
 21
0.0000000000000000
 31
0.0000000000000000
  7
STANDARD
  0
MTEXT
  5
2BF
100
AcDbEntity
  8
MAIN0
  6
BYBLOCK
 62
0
100
AcDbMText
 10
278.7006604402038
 20
53.85210521408698
 30
0.0000000000000000
 40
6.000000000000000
 41
0.0000000000000000
 71
     1
 72
     1
  1
{\H0.80x;要注意}
 11
1.000000000000000
 21
0.0000000000000000
 31
0.0000000000000000
  7
KNJYOKO
  0
LINE
  5
2C0
100
AcDbEntity
  8
MAIN0
  6
BYBLOCK
 62
0
100
AcDbLine
 10
297.2006604402038
 20
55.35210521408698
 30
0.0000000000000000
 11
297.2006604402038
 21
46.35210521408698
 31
0.0000000000000000
  0
LINE
  5
2C1
100
AcDbEntity
  8
MAIN0
  6
BYBLOCK
 62
0
100
AcDbLine
 10
277.2006604402038
 20
46.35210521408698
 30
0.0000000000000000
 11
297.2006604402038
 21
46.35210521408698
 31
0.0000000000000000
  0
LINE
  5
2C2
100
AcDbEntity
  8
MAIN0
  6
BYBLOCK
 62
0
100
AcDbLine
 10
277.2006604402038
 20
55.35210521408698
 30
0.0000000000000000
 11
277.2006604402038
 21
46.35210521408698
 31
0.0000000000000000
  0
LINE
  5
2C3
100
AcDbEntity
  8
MAIN0
  6
BYBLOCK
 62
0
100
AcDbLine
 10
277.2006604402038
 20
55.35210521408698
 30
0.0000000000000000
 11
297.2006604402038
 21
55.35210521408698
 31
0.0000000000000000
  0
ENDBLK
  5
2C4
100
AcDbEntity
  8
MAIN0
  6
BYBLOCK
 62
3
100
AcDbBlockEnd
  0
BLOCK
  5
2C6
100
AcDbEntity
  8
MAIN0
  6
CONTINUOUS
 62
3
100
AcDbBlockBegin
  2
*D23
 70
    65
 10
0.0
 20
0.0
 30
0.0
  0
LINE
  5
2C7
100
AcDbEntity
  8
MAIN0
  6
BYBLOCK
 62
0
100
AcDbLine
 10
529.8434446716606
 20
125.5475925450547
 30
0.0000000000000000
 11
529.8434446716606
 21
103.3110393080567
 31
0.0000000000000000
  0
LINE
  5
2C8
100
AcDbEntity
  8
MAIN0
  6
BYBLOCK
 62
0
100
AcDbLine
 10
531.8434446716606
 20
105.3110393080567
 30
0.0000000000000000
 11
554.8434446716605
 21
105.3110393080567
 31
0.0000000000000000
  0
INSERT
  5
2C9
100
AcDbEntity
  8
MAIN0
  6
BYBLOCK
 62
0
100
AcDbBlockReference
  2
_OPEN
 10
529.8434446716606
 20
105.3110393080567
 30
0.0000000000000000
 41
2.000000000000000
 42
2.000000000000000
 43
2.000000000000000
 50
180.0000000000000
  0
INSERT
  5
2CA
100
AcDbEntity
  8
MAIN0
  6
BYBLOCK
 62
0
100
AcDbBlockReference
  2
_OPEN
 10
556.8434446716605
 20
105.3110393080567
 30
0.0000000000000000
 41
2.000000000000000
 42
2.000000000000000
 43
2.000000000000000
 50
0.0000000000000000
  0
LINE
  5
2CB
100
AcDbEntity
  8
MAIN0
  6
BYBLOCK
 62
0
100
AcDbLine
 10
556.8434446716605
 20
125.5475925450599
 30
0.0000000000000000
 11
556.8434446716605
 21
103.3110393080567
 31
0.0000000000000000
  0
MTEXT
  5
2CC
100
AcDbEntity
  8
MAIN0
  6
BYBLOCK
 62
0
100
AcDbMText
 10
543.3434446884244
 20
107.3610392603730
 30
0.0000000000000000
 40
3.099999904632568
 41
0.0000000000000000
 71
     5
 72
     1
  1
\A1;27\H0.903226x;\S　0^ －0.35;
 11
1.000000000000000
 21
0.0000000000000000
 31
0.0000000000000000
  7
KNJYOKO
  0
ENDBLK
  5
2CD
100
AcDbEntity
  8
MAIN0
  6
CONTINUOUS
 62
3
100
AcDbBlockEnd
  0
BLOCK
  5
2E4
100
AcDbEntity
  8
MAIN0
  6
CONTINUOUS
 62
3
100
AcDbBlockBegin
  2
*D24
 70
    65
 10
0.0
 20
0.0
 30
0.0
  0
LINE
  5
2E5
100
AcDbEntity
  8
MAIN0
  6
BYBLOCK
 62
0
100
AcDbLine
 10
49.42223545941607
 20
399.6177350527078
 30
0.0000000000000000
 11
31.74493279107918
 21
399.6177350527078
 31
0.0000000000000000
  0
LINE
  5
2E6
100
AcDbEntity
  8
MAIN0
  6
BYBLOCK
 62
0
100
AcDbLine
 10
33.74493279107918
 20
397.6177350527078
 30
0.0000000000000000
 11
33.74493279107918
 21
370.6177350527078
 31
0.0000000000000000
  0
INSERT
  5
2E7
100
AcDbEntity
  8
MAIN0
  6
BYBLOCK
 62
0
100
AcDbBlockReference
  2
_OPEN
 10
33.74493279107918
 20
399.6177350527078
 30
0.0000000000000000
 41
2.000000000000000
 42
2.000000000000000
 43
2.000000000000000
 50
90.00000000000000
  0
INSERT
  5
2E8
100
AcDbEntity
  8
MAIN0
  6
BYBLOCK
 62
0
100
AcDbBlockReference
  2
_OPEN
 10
33.74493279107918
 20
368.6177350527078
 30
0.0000000000000000
 41
2.000000000000000
 42
2.000000000000000
 43
2.000000000000000
 50
270.0000000000000
  0
LINE
  5
2E9
100
AcDbEntity
  8
MAIN0
  6
BYBLOCK
 62
0
100
AcDbLine
 10
57.28366008671117
 20
368.6177350527079
 30
0.0000000000000000
 11
31.74493279107918
 21
368.6177350527078
 31
0.0000000000000000
  0
MTEXT
  5
2EA
100
AcDbEntity
  8
MAIN0
  6
BYBLOCK
 62
0
100
AcDbMText
 10
31.69493283876290
 20
384.1177350527078
 30
0.0000000000000000
 40
3.099999904632568
 41
0.0000000000000000
 71
     5
 72
     1
  1
\A1;31
 11
6.123233995736766e-017
 21
1.000000000000000
 31
0.0000000000000000
  7
STANDARD
  0
ENDBLK
  5
2EB
100
AcDbEntity
  8
MAIN0
  6
CONTINUOUS
 62
3
100
AcDbBlockEnd
  0
BLOCK
  5
2ED
100
AcDbEntity
  8
MAIN0
  6
CONTINUOUS
 62
3
100
AcDbBlockBegin
  2
*D25
 70
    65
 10
0.0
 20
0.0
 30
0.0
  0
LINE
  5
2EE
100
AcDbEntity
  8
MAIN0
  6
BYBLOCK
 62
0
100
AcDbLine
 10
58.08248949614247
 20
389.6177350527079
 30
0.0000000000000000
 11
39.74493279107918
 21
389.6177350527079
 31
0.0000000000000000
  0
LINE
  5
2EF
100
AcDbEntity
  8
MAIN0
  6
BYBLOCK
 62
0
100
AcDbLine
 10
41.74493279107918
 20
387.6177350527079
 30
0.0000000000000000
 11
41.74493279107918
 21
370.6177350527079
 31
0.0000000000000000
  0
INSERT
  5
2F0
100
AcDbEntity
  8
MAIN0
  6
BYBLOCK
 62
0
100
AcDbBlockReference
  2
_OPEN
 10
41.74493279107918
 20
389.6177350527079
 30
0.0000000000000000
 41
2.000000000000000
 42
2.000000000000000
 43
2.000000000000000
 50
90.00000000000000
  0
INSERT
  5
2F1
100
AcDbEntity
  8
MAIN0
  6
BYBLOCK
 62
0
100
AcDbBlockReference
  2
_OPEN
 10
41.74493279107918
 20
368.6177350527079
 30
0.0000000000000000
 41
2.000000000000000
 42
2.000000000000000
 43
2.000000000000000
 50
270.0000000000000
  0
LINE
  5
2F2
100
AcDbEntity
  8
MAIN0
  6
BYBLOCK
 62
0
100
AcDbLine
 10
57.28366008671117
 20
368.6177350527079
 30
0.0000000000000000
 11
39.74493279107918
 21
368.6177350527079
 31
0.0000000000000000
  0
MTEXT
  5
2F3
100
AcDbEntity
  8
MAIN0
  6
BYBLOCK
 62
0
100
AcDbMText
 10
39.69493283876290
 20
379.1177350527079
 30
0.0000000000000000
 40
3.099999904632568
 41
0.0000000000000000
 71
     5
 72
     1
  1
\A1;21
 11
6.123233995736766e-017
 21
1.000000000000000
 31
0.0000000000000000
  7
STANDARD
  0
ENDBLK
  5
2F4
100
AcDbEntity
  8
MAIN0
  6
CONTINUOUS
 62
3
100
AcDbBlockEnd
  0
BLOCK
  5
2F6
100
AcDbEntity
  8
MAIN0
  6
CONTINUOUS
 62
3
100
AcDbBlockBegin
  2
*D26
 70
    65
 10
0.0
 20
0.0
 30
0.0
  0
LINE
  5
2F7
100
AcDbEntity
  8
MAIN0
  6
BYBLOCK
 62
0
100
AcDbLine
 10
57.28366008671117
 20
368.6177350527079
 30
0.0000000000000000
 11
39.74493279107918
 21
368.6177350527079
 31
0.0000000000000000
  0
LINE
  5
2F8
100
AcDbEntity
  8
MAIN0
  6
BYBLOCK
 62
0
100
AcDbLine
 10
41.74493279107918
 20
366.6177350527079
 30
0.0000000000000000
 11
41.74493279107918
 21
353.6177350527103
 31
0.0000000000000000
  0
INSERT
  5
2F9
100
AcDbEntity
  8
MAIN0
  6
BYBLOCK
 62
0
100
AcDbBlockReference
  2
_OPEN
 10
41.74493279107918
 20
368.6177350527079
 30
0.0000000000000000
 41
2.000000000000000
 42
2.000000000000000
 43
2.000000000000000
 50
90.00000000000000
  0
INSERT
  5
2FA
100
AcDbEntity
  8
MAIN0
  6
BYBLOCK
 62
0
100
AcDbBlockReference
  2
_OPEN
 10
41.74493279107918
 20
351.6177350527103
 30
0.0000000000000000
 41
2.000000000000000
 42
2.000000000000000
 43
2.000000000000000
 50
270.0000000000000
  0
LINE
  5
2FB
100
AcDbEntity
  8
MAIN0
  6
BYBLOCK
 62
0
100
AcDbLine
 10
58.08248949614296
 20
351.6177350527103
 30
0.0000000000000000
 11
39.74493279107918
 21
351.6177350527103
 31
0.0000000000000000
  0
MTEXT
  5
2FC
100
AcDbEntity
  8
MAIN0
  6
BYBLOCK
 62
0
100
AcDbMText
 10
39.69493283876290
 20
360.1177350527090
 30
0.0000000000000000
 40
3.099999904632568
 41
0.0000000000000000
 71
     5
 72
     1
  1
\A1;17
 11
6.123233995736766e-017
 21
1.000000000000000
 31
0.0000000000000000
  7
STANDARD
  0
ENDBLK
  5
2FD
100
AcDbEntity
  8
MAIN0
  6
CONTINUOUS
 62
3
100
AcDbBlockEnd
  0
BLOCK
  5
2FF
100
AcDbEntity
  8
MAIN0
  6
CONTINUOUS
 62
3
100
AcDbBlockBegin
  2
*D27
 70
    65
 10
0.0
 20
0.0
 30
0.0
  0
LINE
  5
300
100
AcDbEntity
  8
MAIN0
  6
BYBLOCK
 62
0
100
AcDbLine
 10
92.89283294289601
 20
370.6177350527107
 30
0.0000000000000000
 11
104.7090923634853
 21
370.6177350527107
 31
0.0000000000000000
  0
LINE
  5
301
100
AcDbEntity
  8
MAIN0
  6
BYBLOCK
 62
0
100
AcDbLine
 10
102.7090923634853
 20
372.6177350527107
 30
0.0000000000000000
 11
102.7090923634853
 21
397.6177350527082
 31
0.0000000000000000
  0
INSERT
  5
302
100
AcDbEntity
  8
MAIN0
  6
BYBLOCK
 62
0
100
AcDbBlockReference
  2
_OPEN
 10
102.7090923634853
 20
370.6177350527107
 30
0.0000000000000000
 41
2.000000000000000
 42
2.000000000000000
 43
2.000000000000000
 50
270.0000000000000
  0
INSERT
  5
303
100
AcDbEntity
  8
MAIN0
  6
BYBLOCK
 62
0
100
AcDbBlockReference
  2
_OPEN
 10
102.7090923634853
 20
399.6177350527082
 30
0.0000000000000000
 41
2.000000000000000
 42
2.000000000000000
 43
2.000000000000000
 50
90.00000000000000
  0
LINE
  5
304
100
AcDbEntity
  8
MAIN0
  6
BYBLOCK
 62
0
100
AcDbLine
 10
91.02223548325767
 20
399.6177350527082
 30
0.0000000000000000
 11
104.7090923634853
 21
399.6177350527082
 31
0.0000000000000000
  0
MTEXT
  5
305
100
AcDbEntity
  8
MAIN0
  6
BYBLOCK
 62
0
100
AcDbMText
 10
100.6590924111690
 20
385.1177350527095
 30
0.0000000000000000
 40
3.099999904632568
 41
0.0000000000000000
 71
     5
 72
     1
  1
\A1;29
 11
6.123233995736766e-017
 21
1.000000000000000
 31
0.0000000000000000
  7
STANDARD
  0
ENDBLK
  5
306
100
AcDbEntity
  8
MAIN0
  6
CONTINUOUS
 62
3
100
AcDbBlockEnd
  0
BLOCK
  5
308
100
AcDbEntity
  8
MAIN0
  6
CONTINUOUS
 62
3
100
AcDbBlockBegin
  2
*D28
 70
    65
 10
0.0
 20
0.0
 30
0.0
  0
LINE
  5
309
100
AcDbEntity
  8
MAIN0
  6
BYBLOCK
 62
0
100
AcDbLine
 10
264.9891488305925
 20
361.6542332523516
 30
0.0000000000000000
 11
240.7511085637610
 21
372.9566170474444
 31
0.0000000000000000
  0
LINE
  5
30A
100
AcDbEntity
  8
MAIN0
  6
BYBLOCK
 62
0
100
AcDbLine
 10
243.4089606613158
 20
373.9239960980363
 30
0.0000000000000000
 11
258.2005998222402
 21
405.6447686443191
 31
0.0000000000000000
  0
INSERT
  5
30B
100
AcDbEntity
  8
MAIN0
  6
BYBLOCK
 62
0
100
AcDbBlockReference
  2
_OPEN
 10
242.5637241378343
 20
372.1113805239630
 30
0.0000000000000000
 41
2.000000000000000
 42
2.000000000000000
 43
2.000000000000000
 50
245.0000000000001
  0
INSERT
  5
30C
100
AcDbEntity
  8
MAIN0
  6
BYBLOCK
 62
0
100
AcDbBlockReference
  2
_OPEN
 10
259.0458363457216
 20
407.4573842183925
 30
0.0000000000000000
 41
2.000000000000000
 42
2.000000000000000
 43
2.000000000000000
 50
65.00000000000004
  0
LINE
  5
30D
100
AcDbEntity
  8
MAIN0
  6
BYBLOCK
 62
0
100
AcDbLine
 10
273.0336145181112
 20
400.9347761360339
 30
0.0000000000000000
 11
257.2332207716484
 21
408.3026207418738
 31
0.0000000000000000
  0
MTEXT
  5
30E
100
AcDbEntity
  8
MAIN0
  6
BYBLOCK
 62
0
100
AcDbMText
 10
248.9468493215690
 20
390.6507497875941
 30
0.0000000000000000
 40
3.099999904632568
 41
0.0000000000000000
 71
     5
 72
     1
  1
\A1;39
 11
0.4226182617406996
 21
0.9063077870366498
 31
0.0000000000000000
  7
STANDARD
  0
ENDBLK
  5
30F
100
AcDbEntity
  8
MAIN0
  6
CONTINUOUS
 62
3
100
AcDbBlockEnd
  0
BLOCK
  5
311
100
AcDbEntity
  8
MAIN0
  6
CONTINUOUS
 62
3
100
AcDbBlockBegin
  2
*D29
 70
    65
 10
0.0
 20
0.0
 30
0.0
  0
LINE
  5
312
100
AcDbEntity
  8
MAIN0
  6
BYBLOCK
 62
0
100
AcDbLine
 10
273.9389892762954
 20
376.2382787356175
 30
0.0000000000000000
 11
255.6362964986551
 21
384.7729645426892
 31
0.0000000000000000
  0
LINE
  5
313
100
AcDbEntity
  8
MAIN0
  6
BYBLOCK
 62
0
100
AcDbLine
 10
256.6036755492470
 20
382.1151124451345
 30
0.0000000000000000
 11
251.1096381466180
 21
370.3331112136578
 31
0.0000000000000000
  0
INSERT
  5
314
100
AcDbEntity
  8
MAIN0
  6
BYBLOCK
 62
0
100
AcDbBlockReference
  2
_OPEN
 10
257.4489120727284
 20
383.9277280192078
 30
0.0000000000000000
 41
2.000000000000000
 42
2.000000000000000
 43
2.000000000000000
 50
65.00000000000051
  0
INSERT
  5
315
100
AcDbEntity
  8
MAIN0
  6
BYBLOCK
 62
0
100
AcDbBlockReference
  2
_OPEN
 10
250.2644016231366
 20
368.5204956395845
 30
0.0000000000000000
 41
2.000000000000000
 42
2.000000000000000
 43
2.000000000000000
 50
245.0000000000005
  0
LINE
  5
316
100
AcDbEntity
  8
MAIN0
  6
BYBLOCK
 62
0
100
AcDbLine
 10
264.9891488305925
 20
361.6542332523516
 30
0.0000000000000000
 11
248.4517860490633
 21
369.3657321630658
 31
0.0000000000000000
  0
MTEXT
  5
317
100
AcDbEntity
  8
MAIN0
  6
BYBLOCK
 62
0
100
AcDbMText
 10
251.9987259277235
 20
377.0904792458126
 30
0.0000000000000000
 40
3.099999904632568
 41
0.0000000000000000
 71
     5
 72
     1
  1
\A1;17
 11
0.4226182617406902
 21
0.9063077870366543
 31
0.0000000000000000
  7
STANDARD
  0
ENDBLK
  5
318
100
AcDbEntity
  8
MAIN0
  6
CONTINUOUS
 62
3
100
AcDbBlockEnd
  0
BLOCK
  5
31A
100
AcDbEntity
  8
MAIN0
  6
CONTINUOUS
 62
3
100
AcDbBlockBegin
  2
*D30
 70
    65
 10
0.0
 20
0.0
 30
0.0
  0
LINE
  5
31B
100
AcDbEntity
  8
MAIN0
  6
BYBLOCK
 62
0
100
AcDbLine
 10
264.9891488305925
 20
361.6542332523516
 30
0.0000000000000000
 11
248.4517860490633
 21
369.3657321630658
 31
0.0000000000000000
  0
LINE
  5
31C
100
AcDbEntity
  8
MAIN0
  6
BYBLOCK
 62
0
100
AcDbLine
 10
249.4191650996552
 20
366.7078800655112
 30
0.0000000000000000
 11
242.2346546500636
 21
351.3006476858882
 31
0.0000000000000000
  0
INSERT
  5
31D
100
AcDbEntity
  8
MAIN0
  6
BYBLOCK
 62
0
100
AcDbBlockReference
  2
_OPEN
 10
250.2644016231366
 20
368.5204956395845
 30
0.0000000000000000
 41
2.000000000000000
 42
2.000000000000000
 43
2.000000000000000
 50
65.00000000000057
  0
INSERT
  5
31E
100
AcDbEntity
  8
MAIN0
  6
BYBLOCK
 62
0
100
AcDbBlockReference
  2
_OPEN
 10
241.3894181265822
 20
349.4880321118150
 30
0.0000000000000000
 41
2.000000000000000
 42
2.000000000000000
 43
2.000000000000000
 50
245.0000000000006
  0
LINE
  5
31F
100
AcDbEntity
  8
MAIN0
  6
BYBLOCK
 62
0
100
AcDbLine
 10
257.8794953301488
 20
341.7985828282249
 30
0.0000000000000000
 11
239.5768025525088
 21
350.3332686352964
 31
0.0000000000000000
  0
MTEXT
  5
320
100
AcDbEntity
  8
MAIN0
  6
BYBLOCK
 62
0
100
AcDbMText
 10
243.9689789546504
 20
359.8706312921162
 30
0.0000000000000000
 40
3.099999904632568
 41
0.0000000000000000
 71
     5
 72
     1
  1
\A1;21
 11
0.4226182617406902
 21
0.9063077870366543
 31
0.0000000000000000
  7
STANDARD
  0
ENDBLK
  5
321
100
AcDbEntity
  8
MAIN0
  6
CONTINUOUS
 62
3
100
AcDbBlockEnd
  0
BLOCK
  5
323
100
AcDbEntity
  8
MAIN0
  6
CONTINUOUS
 62
3
100
AcDbBlockBegin
  2
*D31
 70
    65
 10
0.0
 20
0.0
 30
0.0
  0
LINE
  5
324
100
AcDbEntity
  8
MAIN0
  6
BYBLOCK
 62
0
100
AcDbLine
 10
295.1310012515872
 20
345.3921007995392
 30
0.0000000000000000
 11
305.1595501728283
 21
340.7157116373826
 31
0.0000000000000000
  0
LINE
  5
325
100
AcDbEntity
  8
MAIN0
  6
BYBLOCK
 62
0
100
AcDbLine
 10
304.1921711222364
 20
343.3735637349373
 30
0.0000000000000000
 11
319.8290468066419
 21
376.9069518552935
 31
0.0000000000000000
  0
INSERT
  5
326
100
AcDbEntity
  8
MAIN0
  6
BYBLOCK
 62
0
100
AcDbBlockReference
  2
_OPEN
 10
303.3469345987550
 20
341.5609481608640
 30
0.0000000000000000
 41
2.000000000000000
 42
2.000000000000000
 43
2.000000000000000
 50
245.0000000000006
  0
INSERT
  5
327
100
AcDbEntity
  8
MAIN0
  6
BYBLOCK
 62
0
100
AcDbBlockReference
  2
_OPEN
 10
320.6742833301232
 20
378.7195674293669
 30
0.0000000000000000
 41
2.000000000000000
 42
2.000000000000000
 43
2.000000000000000
 50
65.00000000000058
  0
LINE
  5
328
100
AcDbEntity
  8
MAIN0
  6
BYBLOCK
 62
0
100
AcDbLine
 10
306.2044795452606
 20
385.4669477462483
 30
0.0000000000000000
 11
322.4868989041966
 21
377.8743309058855
 31
0.0000000000000000
  0
MTEXT
  5
329
100
AcDbEntity
  8
MAIN0
  6
BYBLOCK
 62
0
100
AcDbMText
 10
310.1526780442301
 20
361.0066252115319
 30
0.0000000000000000
 40
3.099999904632568
 41
0.0000000000000000
 71
     5
 72
     1
  1
\A1;41
 11
0.4226182617406894
 21
0.9063077870366547
 31
0.0000000000000000
  7
STANDARD
  0
ENDBLK
  5
32A
100
AcDbEntity
  8
MAIN0
  6
CONTINUOUS
 62
3
100
AcDbBlockEnd
  0
BLOCK
  5
32C
100
AcDbEntity
  8
MAIN0
  6
BYBLOCK
 62
3
100
AcDbBlockBegin
  2
*X0
 70
     1
 10
0.0
 20
0.0
 30
0.0
  0
LINE
  5
32D
100
AcDbEntity
  8
MAIN0
  6
BYBLOCK
 62
0
100
AcDbLine
 10
285.3855453247444
 20
381.3827522208720
 30
0.0000000000000000
 11
286.9713780339845
 21
382.2983331624412
 31
0.0000000000000000
  0
LINE
  5
32E
100
AcDbEntity
  8
MAIN0
  6
BYBLOCK
 62
0
100
AcDbLine
 10
283.1727502927198
 20
382.4145954902295
 30
0.0000000000000000
 11
284.7585830019635
 21
383.3301764318011
 31
0.0000000000000000
  0
LINE
  5
32F
100
AcDbEntity
  8
MAIN0
  6
BYBLOCK
 62
0
100
AcDbLine
 10
280.9599552606989
 20
383.4464387595898
 30
0.0000000000000000
 11
282.5457879699408
 21
384.3620197011604
 31
0.0000000000000000
  0
LINE
  5
330
100
AcDbEntity
  8
MAIN0
  6
BYBLOCK
 62
0
100
AcDbLine
 10
278.7471602286771
 20
384.4782820289487
 30
0.0000000000000000
 11
280.3329929379226
 21
385.3938629705216
 31
0.0000000000000000
  0
LINE
  5
331
100
AcDbEntity
  8
MAIN0
  6
BYBLOCK
 62
0
100
AcDbLine
 10
276.5343651966561
 20
385.5101252983085
 30
0.0000000000000000
 11
278.1201979058962
 21
386.4257062398782
 31
0.0000000000000000
  0
LINE
  5
332
100
AcDbEntity
  8
MAIN0
  6
BYBLOCK
 62
0
100
AcDbLine
 10
274.3215701646315
 20
386.5419685676669
 30
0.0000000000000000
 11
275.9074028738752
 21
387.4575495092385
 31
0.0000000000000000
  0
LINE
  5
333
100
AcDbEntity
  8
MAIN0
  6
BYBLOCK
 62
0
100
AcDbLine
 10
272.1087751326133
 20
387.5738118370276
 30
0.0000000000000000
 11
273.6946078418543
 21
388.4893927785986
 31
0.0000000000000000
  0
LINE
  5
334
100
AcDbEntity
  8
MAIN0
  6
BYBLOCK
 62
0
100
AcDbLine
 10
269.8959801005878
 20
388.6056551063856
 30
0.0000000000000000
 11
271.4818128098315
 21
389.5212360479571
 31
0.0000000000000000
  0
LINE
  5
335
100
AcDbEntity
  8
MAIN0
  6
BYBLOCK
 62
0
100
AcDbLine
 10
267.6831850685650
 20
389.6374983757449
 30
0.0000000000000000
 11
269.2690177778079
 21
390.5530793173151
 31
0.0000000000000000
  0
LINE
  5
336
100
AcDbEntity
  8
MAIN0
  6
BYBLOCK
 62
0
100
AcDbLine
 10
265.4703900365431
 20
390.6693416451038
 30
0.0000000000000000
 11
267.0562227457887
 21
391.5849225866763
 31
0.0000000000000000
  0
LINE
  5
337
100
AcDbEntity
  8
MAIN0
  6
BYBLOCK
 62
0
100
AcDbLine
 10
263.2575950045240
 20
391.7011849144645
 30
0.0000000000000000
 11
264.8434277137660
 21
392.6167658560356
 31
0.0000000000000000
  0
LINE
  5
338
100
AcDbEntity
  8
MAIN0
  6
BYBLOCK
 62
0
100
AcDbLine
 10
287.5983403567644
 20
380.3509089515118
 30
0.0000000000000000
 11
289.1841730660091
 21
381.2664898930838
 31
0.0000000000000000
  0
LINE
  5
339
100
AcDbEntity
  8
MAIN0
  6
BYBLOCK
 62
0
100
AcDbLine
 10
289.8111353887872
 20
379.3190656821529
 30
0.0000000000000000
 11
291.3969680980300
 21
380.2346466237235
 31
0.0000000000000000
  0
LINE
  5
33A
100
AcDbEntity
  8
MAIN0
  6
BYBLOCK
 62
0
100
AcDbLine
 10
292.0239304208100
 20
378.2872224127935
 30
0.0000000000000000
 11
293.6097631300528
 21
379.2028033543642
 31
0.0000000000000000
  0
LINE
  5
33B
100
AcDbEntity
  8
MAIN0
  6
BYBLOCK
 62
0
100
AcDbLine
 10
294.2367254528319
 20
377.2553791434337
 30
0.0000000000000000
 11
295.8225581620729
 21
378.1709600850044
 31
0.0000000000000000
  0
LINE
  5
33C
100
AcDbEntity
  8
MAIN0
  6
BYBLOCK
 62
0
100
AcDbLine
 10
296.4495204848537
 20
376.2235358740749
 30
0.0000000000000000
 11
298.0353531940956
 21
377.1391168156455
 31
0.0000000000000000
  0
LINE
  5
33D
100
AcDbEntity
  8
MAIN0
  6
BYBLOCK
 62
0
100
AcDbLine
 10
298.6623155168765
 20
375.1916926047155
 30
0.0000000000000000
 11
300.2481482261184
 21
376.1072735462861
 31
0.0000000000000000
  0
LINE
  5
33E
100
AcDbEntity
  8
MAIN0
  6
BYBLOCK
 62
0
100
AcDbLine
 10
300.8751105488965
 20
374.1598493353557
 30
0.0000000000000000
 11
302.4609432581412
 21
375.0754302769277
 31
0.0000000000000000
  0
LINE
  5
33F
100
AcDbEntity
  8
MAIN0
  6
BYBLOCK
 62
0
100
AcDbLine
 10
303.0879055809211
 20
373.1280060659973
 30
0.0000000000000000
 11
304.6737382901639
 21
374.0435870075684
 31
0.0000000000000000
  0
LINE
  5
340
100
AcDbEntity
  8
MAIN0
  6
BYBLOCK
 62
0
100
AcDbLine
 10
305.3007006129412
 20
372.0961627966375
 30
0.0000000000000000
 11
306.8865333221858
 21
373.0117437382095
 31
0.0000000000000000
  0
LINE
  5
341
100
AcDbEntity
  8
MAIN0
  6
BYBLOCK
 62
0
100
AcDbLine
 10
307.5134956449666
 20
371.0643195272800
 30
0.0000000000000000
 11
309.0993283542067
 21
371.9799004688497
 31
0.0000000000000000
  0
ENDBLK
  5
342
100
AcDbEntity
  8
MAIN0
  6
BYBLOCK
 62
3
100
AcDbBlockEnd
  0
BLOCK
  5
344
100
AcDbEntity
  8
MAIN0
  6
BYBLOCK
 62
3
100
AcDbBlockBegin
  2
*X1
 70
     1
 10
0.0
 20
0.0
 30
0.0
  0
LINE
  5
345
100
AcDbEntity
  8
MAIN0
  6
BYBLOCK
 62
0
100
AcDbLine
 10
274.6087796503551
 20
358.2719036514360
 30
0.0000000000000000
 11
276.1946123595970
 21
359.1874845930066
 31
0.0000000000000000
  0
LINE
  5
346
100
AcDbEntity
  8
MAIN0
  6
BYBLOCK
 62
0
100
AcDbLine
 10
272.3959846183323
 20
359.3037469207953
 30
0.0000000000000000
 11
273.9818173275742
 21
360.2193278623655
 31
0.0000000000000000
  0
LINE
  5
347
100
AcDbEntity
  8
MAIN0
  6
BYBLOCK
 62
0
100
AcDbLine
 10
270.1831895863113
 20
360.3355901901547
 30
0.0000000000000000
 11
271.7690222955541
 21
361.2511711317258
 31
0.0000000000000000
  0
LINE
  5
348
100
AcDbEntity
  8
MAIN0
  6
BYBLOCK
 62
0
100
AcDbLine
 10
267.9703945542895
 20
361.3674334595140
 30
0.0000000000000000
 11
269.5562272635305
 21
362.2830144010846
 31
0.0000000000000000
  0
LINE
  5
349
100
AcDbEntity
  8
MAIN0
  6
BYBLOCK
 62
0
100
AcDbLine
 10
265.7575995222658
 20
362.3992767288729
 30
0.0000000000000000
 11
267.3434322315086
 21
363.3148576704435
 31
0.0000000000000000
  0
LINE
  5
34A
100
AcDbEntity
  8
MAIN0
  6
BYBLOCK
 62
0
100
AcDbLine
 10
263.5448044902439
 20
363.4311199982318
 30
0.0000000000000000
 11
265.1306371994858
 21
364.3467009398029
 31
0.0000000000000000
  0
LINE
  5
34B
100
AcDbEntity
  8
MAIN0
  6
BYBLOCK
 62
0
100
AcDbLine
 10
261.3320094582248
 20
364.4629632675934
 30
0.0000000000000000
 11
262.9178421674649
 21
365.3785442091622
 31
0.0000000000000000
  0
LINE
  5
34C
100
AcDbEntity
  8
MAIN0
  6
BYBLOCK
 62
0
100
AcDbLine
 10
259.1192144262002
 20
365.4948065369509
 30
0.0000000000000000
 11
260.7050471354421
 21
366.4103874785216
 31
0.0000000000000000
  0
LINE
  5
34D
100
AcDbEntity
  8
MAIN0
  6
BYBLOCK
 62
0
100
AcDbLine
 10
256.9064193941774
 20
366.5266498063099
 30
0.0000000000000000
 11
258.4922521034202
 21
367.4422307478810
 31
0.0000000000000000
  0
LINE
  5
34E
100
AcDbEntity
  8
MAIN0
  6
BYBLOCK
 62
0
100
AcDbLine
 10
254.6936243621556
 20
367.5584930756687
 30
0.0000000000000000
 11
256.2794570713975
 21
368.4740740172393
 31
0.0000000000000000
  0
LINE
  5
34F
100
AcDbEntity
  8
MAIN0
  6
BYBLOCK
 62
0
100
AcDbLine
 10
252.4808293301365
 20
368.5903363450303
 30
0.0000000000000000
 11
254.0666620393766
 21
369.5059172866000
 31
0.0000000000000000
  0
LINE
  5
350
100
AcDbEntity
  8
MAIN0
  6
BYBLOCK
 62
0
100
AcDbLine
 10
276.8215746823769
 20
357.2400603820771
 30
0.0000000000000000
 11
278.4074073916198
 21
358.1556413236477
 31
0.0000000000000000
  0
LINE
  5
351
100
AcDbEntity
  8
MAIN0
  6
BYBLOCK
 62
0
100
AcDbLine
 10
279.0343697144006
 20
356.2082171127182
 30
0.0000000000000000
 11
280.6202024236416
 21
357.1237980542888
 31
0.0000000000000000
  0
LINE
  5
352
100
AcDbEntity
  8
MAIN0
  6
BYBLOCK
 62
0
100
AcDbLine
 10
281.2471647464188
 20
355.1763738433571
 30
0.0000000000000000
 11
282.8329974556626
 21
356.0919547849286
 31
0.0000000000000000
  0
LINE
  5
353
100
AcDbEntity
  8
MAIN0
  6
BYBLOCK
 62
0
100
AcDbLine
 10
283.4599597784434
 20
354.1445305739986
 30
0.0000000000000000
 11
285.0457924876862
 21
355.0601115155697
 31
0.0000000000000000
  0
LINE
  5
354
100
AcDbEntity
  8
MAIN0
  6
BYBLOCK
 62
0
100
AcDbLine
 10
285.6727548104661
 20
353.1126873046402
 30
0.0000000000000000
 11
287.2585875197081
 21
354.0282682462108
 31
0.0000000000000000
  0
LINE
  5
355
100
AcDbEntity
  8
MAIN0
  6
BYBLOCK
 62
0
100
AcDbLine
 10
287.8855498424889
 20
352.0808440352813
 30
0.0000000000000000
 11
289.4713825517308
 21
352.9964249768515
 31
0.0000000000000000
  0
LINE
  5
356
100
AcDbEntity
  8
MAIN0
  6
BYBLOCK
 62
0
100
AcDbLine
 10
290.0983448745090
 20
351.0490007659211
 30
0.0000000000000000
 11
291.6841775837518
 21
351.9645817074917
 31
0.0000000000000000
  0
LINE
  5
357
100
AcDbEntity
  8
MAIN0
  6
BYBLOCK
 62
0
100
AcDbLine
 10
292.3111399065300
 20
350.0171574965613
 30
0.0000000000000000
 11
293.8969726157736
 21
350.9327384381323
 31
0.0000000000000000
  0
LINE
  5
358
100
AcDbEntity
  8
MAIN0
  6
BYBLOCK
 62
0
100
AcDbLine
 10
294.5239349385545
 20
348.9853142272028
 30
0.0000000000000000
 11
296.1097676477982
 21
349.9008951687748
 31
0.0000000000000000
  0
LINE
  5
359
100
AcDbEntity
  8
MAIN0
  6
BYBLOCK
 62
0
100
AcDbLine
 10
296.7367299705791
 20
347.9534709578453
 30
0.0000000000000000
 11
298.3225626798210
 21
348.8690518994155
 31
0.0000000000000000
  0
ENDBLK
  5
35A
100
AcDbEntity
  8
MAIN0
  6
BYBLOCK
 62
3
100
AcDbBlockEnd
  0
BLOCK
  5
3C4
100
AcDbEntity
  8
MAIN0
  6
BYBLOCK
 62
3
100
AcDbBlockBegin
  2
*X2
 70
     1
 10
0.0
 20
0.0
 30
0.0
  0
LINE
  5
3C5
100
AcDbEntity
  8
MAIN0
  6
BYBLOCK
 62
0
100
AcDbLine
 10
71.02058414526724
 20
361.6177350527085
 30
0.0000000000000000
 11
72.52058414526715
 21
363.1177350527083
 31
0.0000000000000000
  0
LINE
  5
3C6
100
AcDbEntity
  8
MAIN0
  6
BYBLOCK
 62
0
100
AcDbLine
 10
68.19215702052134
 20
361.6177350527089
 30
0.0000000000000000
 11
69.69215702052085
 21
363.1177350527087
 31
0.0000000000000000
  0
LINE
  5
3C7
100
AcDbEntity
  8
MAIN0
  6
BYBLOCK
 62
0
100
AcDbLine
 10
65.36372989577365
 20
361.6177350527086
 30
0.0000000000000000
 11
66.86372989577455
 21
363.1177350527091
 31
0.0000000000000000
  0
LINE
  5
3C8
100
AcDbEntity
  8
MAIN0
  6
BYBLOCK
 62
0
100
AcDbLine
 10
62.53530277102743
 20
361.6177350527089
 30
0.0000000000000000
 11
64.03530277102738
 21
363.1177350527083
 31
0.0000000000000000
  0
LINE
  5
3C9
100
AcDbEntity
  8
MAIN0
  6
BYBLOCK
 62
0
100
AcDbLine
 10
59.70687564628111
 20
361.6177350527092
 30
0.0000000000000000
 11
61.20687564628105
 21
363.1177350527087
 31
0.0000000000000000
  0
LINE
  5
3CA
100
AcDbEntity
  8
MAIN0
  6
BYBLOCK
 62
0
100
AcDbLine
 10
56.87844852153387
 20
361.6177350527085
 30
0.0000000000000000
 11
58.37844852153478
 21
363.1177350527091
 31
0.0000000000000000
  0
LINE
  5
3CB
100
AcDbEntity
  8
MAIN0
  6
BYBLOCK
 62
0
100
AcDbLine
 10
54.05002139678763
 20
361.6177350527089
 30
0.0000000000000000
 11
55.55002139678712
 21
363.1177350527087
 31
0.0000000000000000
  0
LINE
  5
3CC
100
AcDbEntity
  8
MAIN0
  6
BYBLOCK
 62
0
100
AcDbLine
 10
51.22159427204133
 20
361.6177350527094
 30
0.0000000000000000
 11
52.72159427204082
 21
363.1177350527091
 31
0.0000000000000000
  0
LINE
  5
3CD
100
AcDbEntity
  8
MAIN0
  6
BYBLOCK
 62
0
100
AcDbLine
 10
48.39316714729364
 20
361.6177350527082
 30
0.0000000000000000
 11
49.89316714729455
 21
363.1177350527095
 31
0.0000000000000000
  0
LINE
  5
3CE
100
AcDbEntity
  8
MAIN0
  6
BYBLOCK
 62
0
100
AcDbLine
 10
46.85192133068688
 20
362.9049163608481
 30
0.0000000000000000
 11
47.06474002254731
 21
363.1177350527088
 31
0.0000000000000000
  0
LINE
  5
3CF
100
AcDbEntity
  8
MAIN0
  6
BYBLOCK
 62
0
100
AcDbLine
 10
73.84901127001484
 20
361.6177350527093
 30
0.0000000000000000
 11
75.34901127001473
 21
363.1177350527095
 31
0.0000000000000000
  0
LINE
  5
3D0
100
AcDbEntity
  8
MAIN0
  6
BYBLOCK
 62
0
100
AcDbLine
 10
76.67743839476111
 20
361.6177350527089
 30
0.0000000000000000
 11
78.17743839476105
 21
363.1177350527091
 31
0.0000000000000000
  0
LINE
  5
3D1
100
AcDbEntity
  8
MAIN0
  6
BYBLOCK
 62
0
100
AcDbLine
 10
79.50586551950738
 20
361.6177350527085
 30
0.0000000000000000
 11
81.00586551950727
 21
363.1177350527087
 31
0.0000000000000000
  0
LINE
  5
3D2
100
AcDbEntity
  8
MAIN0
  6
BYBLOCK
 62
0
100
AcDbLine
 10
82.33429264425502
 20
361.6177350527097
 30
0.0000000000000000
 11
83.83429264425490
 21
363.1177350527095
 31
0.0000000000000000
  0
LINE
  5
3D3
100
AcDbEntity
  8
MAIN0
  6
BYBLOCK
 62
0
100
AcDbLine
 10
85.16271976900126
 20
361.6177350527094
 30
0.0000000000000000
 11
86.66271976900117
 21
363.1177350527092
 31
0.0000000000000000
  0
LINE
  5
3D4
100
AcDbEntity
  8
MAIN0
  6
BYBLOCK
 62
0
100
AcDbLine
 10
87.99114689374756
 20
361.6177350527090
 30
0.0000000000000000
 11
89.49114689374807
 21
363.1177350527095
 31
0.0000000000000000
  0
LINE
  5
3D5
100
AcDbEntity
  8
MAIN0
  6
BYBLOCK
 62
0
100
AcDbLine
 10
90.81957401849527
 20
361.6177350527100
 30
0.0000000000000000
 11
92.31957401849442
 21
363.1177350527091
 31
0.0000000000000000
  0
LINE
  5
3D6
100
AcDbEntity
  8
MAIN0
  6
BYBLOCK
 62
0
100
AcDbLine
 10
93.64800114324154
 20
361.6177350527097
 30
0.0000000000000000
 11
95.14800114324069
 21
363.1177350527087
 31
0.0000000000000000
  0
ENDBLK
  5
3D7
100
AcDbEntity
  8
MAIN0
  6
BYBLOCK
 62
3
100
AcDbBlockEnd
  0
BLOCK
  5
3D9
100
AcDbEntity
  8
MAIN0
  6
BYBLOCK
 62
3
100
AcDbBlockBegin
  2
*X3
 70
     1
 10
0.0
 20
0.0
 30
0.0
  0
LINE
  5
3DA
100
AcDbEntity
  8
MAIN0
  6
BYBLOCK
 62
0
100
AcDbLine
 10
71.55066259608353
 20
387.1177350527087
 30
0.0000000000000000
 11
73.05066259608270
 21
388.6177350527076
 31
0.0000000000000000
  0
LINE
  5
3DB
100
AcDbEntity
  8
MAIN0
  6
BYBLOCK
 62
0
100
AcDbLine
 10
68.72223547133694
 20
387.1177350527090
 30
0.0000000000000000
 11
70.22223547133646
 21
388.6177350527080
 31
0.0000000000000000
  0
LINE
  5
3DC
100
AcDbEntity
  8
MAIN0
  6
BYBLOCK
 62
0
100
AcDbLine
 10
65.89380834659065
 20
387.1177350527094
 30
0.0000000000000000
 11
67.39380834659013
 21
388.6177350527084
 31
0.0000000000000000
  0
LINE
  5
3DD
100
AcDbEntity
  8
MAIN0
  6
BYBLOCK
 62
0
100
AcDbLine
 10
63.06538122184301
 20
387.1177350527083
 30
0.0000000000000000
 11
64.56538122184290
 21
388.6177350527077
 31
0.0000000000000000
  0
LINE
  5
3DE
100
AcDbEntity
  8
MAIN0
  6
BYBLOCK
 62
0
100
AcDbLine
 10
60.23695409709711
 20
387.1177350527090
 30
0.0000000000000000
 11
61.73695409709666
 21
388.6177350527080
 31
0.0000000000000000
  0
LINE
  5
3DF
100
AcDbEntity
  8
MAIN0
  6
BYBLOCK
 62
0
100
AcDbLine
 10
57.40852697234942
 20
387.1177350527078
 30
0.0000000000000000
 11
58.90852697235036
 21
388.6177350527084
 31
0.0000000000000000
  0
LINE
  5
3E0
100
AcDbEntity
  8
MAIN0
  6
BYBLOCK
 62
0
100
AcDbLine
 10
54.58009984760315
 20
387.1177350527083
 30
0.0000000000000000
 11
56.08009984760264
 21
388.6177350527081
 31
0.0000000000000000
  0
LINE
  5
3E1
100
AcDbEntity
  8
MAIN0
  6
BYBLOCK
 62
0
100
AcDbLine
 10
51.75167272285688
 20
387.1177350527087
 30
0.0000000000000000
 11
53.25167272285637
 21
388.6177350527084
 31
0.0000000000000000
  0
LINE
  5
3E2
100
AcDbEntity
  8
MAIN0
  6
BYBLOCK
 62
0
100
AcDbLine
 10
48.92324559810930
 20
387.1177350527074
 30
0.0000000000000000
 11
50.42324559811016
 21
388.6177350527088
 31
0.0000000000000000
  0
LINE
  5
3E3
100
AcDbEntity
  8
MAIN0
  6
BYBLOCK
 62
0
100
AcDbLine
 10
47.38199978150306
 20
388.4049163608478
 30
0.0000000000000000
 11
47.59481847336286
 21
388.6177350527081
 31
0.0000000000000000
  0
LINE
  5
3E4
100
AcDbEntity
  8
MAIN0
  6
BYBLOCK
 62
0
100
AcDbLine
 10
74.37908972083056
 20
387.1177350527089
 30
0.0000000000000000
 11
75.87908972083045
 21
388.6177350527087
 31
0.0000000000000000
  0
LINE
  5
3E5
100
AcDbEntity
  8
MAIN0
  6
BYBLOCK
 62
0
100
AcDbLine
 10
77.20751684557678
 20
387.1177350527086
 30
0.0000000000000000
 11
78.70751684557666
 21
388.6177350527083
 31
0.0000000000000000
  0
LINE
  5
3E6
100
AcDbEntity
  8
MAIN0
  6
BYBLOCK
 62
0
100
AcDbLine
 10
80.03594397032308
 20
387.1177350527081
 30
0.0000000000000000
 11
81.53594397032296
 21
388.6177350527080
 31
0.0000000000000000
  0
LINE
  5
3E7
100
AcDbEntity
  8
MAIN0
  6
BYBLOCK
 62
0
100
AcDbLine
 10
82.86437109507074
 20
387.1177350527090
 30
0.0000000000000000
 11
84.36437109507062
 21
388.6177350527088
 31
0.0000000000000000
  0
LINE
  5
3E8
100
AcDbEntity
  8
MAIN0
  6
BYBLOCK
 62
0
100
AcDbLine
 10
85.69279821981692
 20
387.1177350527086
 30
0.0000000000000000
 11
87.19279821981681
 21
388.6177350527084
 31
0.0000000000000000
  0
LINE
  5
3E9
100
AcDbEntity
  8
MAIN0
  6
BYBLOCK
 62
0
100
AcDbLine
 10
88.52122534456314
 20
387.1177350527082
 30
0.0000000000000000
 11
90.02122534456368
 21
388.6177350527088
 31
0.0000000000000000
  0
LINE
  5
3EA
100
AcDbEntity
  8
MAIN0
  6
BYBLOCK
 62
0
100
AcDbLine
 10
91.34965246931074
 20
387.1177350527094
 30
0.0000000000000000
 11
92.84965246930992
 21
388.6177350527084
 31
0.0000000000000000
  0
LINE
  5
3EB
100
AcDbEntity
  8
MAIN0
  6
BYBLOCK
 62
0
100
AcDbLine
 10
94.17807959405704
 20
387.1177350527091
 30
0.0000000000000000
 11
95.67807959405619
 21
388.6177350527081
 31
0.0000000000000000
  0
ENDBLK
  5
3EC
100
AcDbEntity
  8
MAIN0
  6
BYBLOCK
 62
3
100
AcDbBlockEnd
  0
BLOCK
  5
46B
100
AcDbEntity
  8
MAIN0
  6
BYBLOCK
 62
3
100
AcDbBlockBegin
  2
M5
 70
    64
 10
0.0
 20
0.0
 30
0.0
  0
LINE
  5
46C
100
AcDbEntity
  8
MAIN0
  6
BYBLOCK
 62
0
100
AcDbLine
 10
155.7195003697362
 20
375.8328085350690
 30
0.0000000000000000
 11
155.7195003697362
 21
387.8328085350690
 31
0.0000000000000000
  0
LINE
  5
46D
100
AcDbEntity
  8
MAIN0
  6
BYBLOCK
 62
0
100
AcDbLine
 10
155.7195003697361
 20
375.8328085350691
 30
0.0000000000000000
 11
154.4254051442235
 21
380.6624376665144
 31
0.0000000000000000
  0
LINE
  5
46E
100
AcDbEntity
  8
MAIN0
  6
BYBLOCK
 62
0
100
AcDbLine
 10
155.7195003697362
 20
375.8328085350691
 30
0.0000000000000000
 11
157.0135955952488
 21
380.6624376665142
 31
0.0000000000000000
  0
ENDBLK
  5
46F
100
AcDbEntity
  8
MAIN0
  6
BYBLOCK
 62
3
100
AcDbBlockEnd
  0
BLOCK
  5
4AE
100
AcDbEntity
  8
MAIN0
  6
CONTINUOUS
 62
3
100
AcDbBlockBegin
  2
*D32
 70
    65
 10
0.0
 20
0.0
 30
0.0
  0
LINE
  5
4AF
100
AcDbEntity
  8
MAIN0
  6
BYBLOCK
 62
0
100
AcDbLine
 10
246.3729973927091
 20
341.8679369108243
 30
0.0000000000000000
 11
239.6589163227829
 21
327.4695435915053
 31
0.0000000000000000
  0
LINE
  5
4B0
100
AcDbEntity
  8
MAIN0
  6
BYBLOCK
 62
0
100
AcDbLine
 10
242.3167684203376
 20
328.4369226420972
 30
0.0000000000000000
 11
274.9438487536570
 21
313.2226652194320
 31
0.0000000000000000
  0
INSERT
  5
4B1
100
AcDbEntity
  8
MAIN0
  6
BYBLOCK
 62
0
100
AcDbBlockReference
  2
_OPEN
 10
240.5041528462643
 20
329.2821591655786
 30
0.0000000000000000
 41
2.000000000000000
 42
2.000000000000000
 43
2.000000000000000
 50
155.0000000000000
  0
INSERT
  5
4B2
100
AcDbEntity
  8
MAIN0
  6
BYBLOCK
 62
0
100
AcDbBlockReference
  2
_OPEN
 10
276.7564643277303
 20
312.3774286959506
 30
0.0000000000000000
 41
2.000000000000000
 42
2.000000000000000
 43
2.000000000000000
 50
335.0000000000000
  0
LINE
  5
4B3
100
AcDbEntity
  8
MAIN0
  6
BYBLOCK
 62
0
100
AcDbLine
 10
282.6253088741751
 20
324.9632064411964
 30
0.0000000000000000
 11
275.9112278042489
 21
310.5648131218773
 31
0.0000000000000000
  0
MTEXT
  5
4B4
100
AcDbEntity
  8
MAIN0
  6
BYBLOCK
 62
0
100
AcDbMText
 10
259.4966760034137
 20
322.6877248509736
 30
0.0000000000000000
 40
3.099999904632568
 41
0.0000000000000000
 71
     5
 72
     1
  1
\A1;40
 11
0.9063077870366501
 21
-0.4226182617406992
 31
0.0000000000000000
  7
STANDARD
  0
ENDBLK
  5
4B5
100
AcDbEntity
  8
MAIN0
  6
CONTINUOUS
 62
3
100
AcDbBlockEnd
  0
BLOCK
  5
4B7
100
AcDbEntity
  8
MAIN0
  6
CONTINUOUS
 62
3
100
AcDbBlockBegin
  2
*D33
 70
    65
 10
0.0
 20
0.0
 30
0.0
  0
LINE
  5
4B8
100
AcDbEntity
  8
MAIN0
  6
BYBLOCK
 62
0
100
AcDbLine
 10
50.22223547133697
 20
336.6456285316994
 30
0.0000000000000000
 11
50.22223547133680
 21
327.5679378759337
 31
0.0000000000000000
  0
LINE
  5
4B9
100
AcDbEntity
  8
MAIN0
  6
BYBLOCK
 62
0
100
AcDbLine
 10
52.22223547133683
 20
329.5679378759337
 30
0.0000000000000000
 11
88.22223547133675
 21
329.5679378759337
 31
0.0000000000000000
  0
INSERT
  5
4BA
100
AcDbEntity
  8
MAIN0
  6
BYBLOCK
 62
0
100
AcDbBlockReference
  2
_OPEN
 10
50.22223547133683
 20
329.5679378759337
 30
0.0000000000000000
 41
2.000000000000000
 42
2.000000000000000
 43
2.000000000000000
 50
180.0000000000000
  0
INSERT
  5
4BB
100
AcDbEntity
  8
MAIN0
  6
BYBLOCK
 62
0
100
AcDbBlockReference
  2
_OPEN
 10
90.22223547133675
 20
329.5679378759337
 30
0.0000000000000000
 41
2.000000000000000
 42
2.000000000000000
 43
2.000000000000000
 50
0.0000000000000000
  0
LINE
  5
4BC
100
AcDbEntity
  8
MAIN0
  6
BYBLOCK
 62
0
100
AcDbLine
 10
90.22223547133675
 20
336.6456285316994
 30
0.0000000000000000
 11
90.22223547133675
 21
327.5679378759337
 31
0.0000000000000000
  0
MTEXT
  5
4BD
100
AcDbEntity
  8
MAIN0
  6
BYBLOCK
 62
0
100
AcDbMText
 10
70.22223547133677
 20
331.6179378282500
 30
0.0000000000000000
 40
3.099999904632568
 41
0.0000000000000000
 71
     5
 72
     1
  1
\A1;40
 11
1.000000000000000
 21
0.0000000000000000
 31
0.0000000000000000
  7
STANDARD
  0
ENDBLK
  5
4BE
100
AcDbEntity
  8
MAIN0
  6
CONTINUOUS
 62
3
100
AcDbBlockEnd
  0
ENDSEC
  0
SECTION
  2
ENTITIES
  0
LINE
  5
46
100
AcDbEntity
  8
MAIN0
  6
CONTINUOUS
 62
3
100
AcDbLine
 10
325.7195003697416
 20
267.5927390895946
 30
0.0000000000000000
 11
325.7195003697416
 21
278.1932140788163
 31
0.0000000000000000
  0
LINE
  5
47
100
AcDbEntity
  8
MAIN0
  6
CONTINUOUS
 62
3
100
AcDbLine
 10
365.7195003697417
 20
265.7401534026322
 30
0.0000000000000000
 11
365.7195003697417
 21
277.7932140788163
 31
0.0000000000000000
  0
LINE
  5
48
100
AcDbEntity
  8
MAIN0
  6
CENTER
 62
3
100
AcDbLine
 10
332.2723848083148
 20
284.6932140788163
 30
0.0000000000000000
 11
374.0316929349764
 21
284.6932140788163
 31
0.0000000000000000
  0
MTEXT
  5
49
100
AcDbEntity
  8
MAIN0
  6
CONTINUOUS
 62
3
100
AcDbMText
 10
467.5439082688827
 20
126.6639926624267
 30
0.0000000000000000
 40
3.099999904632568
 41
0.0000000000000000
 71
     1
 72
     1
  1
{\H0.70x;{MIN 39}}
 11
1.000000000000000
 21
0.0000000000000000
 31
0.0000000000000000
  7
STANDARD
  0
LINE
  5
4A
100
AcDbEntity
  8
MAIN0
  6
CONTINUOUS
 62
3
100
AcDbLine
 10
365.3195003697417
 20
278.1932140788163
 30
0.0000000000000000
 11
365.7195003697417
 21
277.7932140788163
 31
0.0000000000000000
  0
LINE
  5
4B
100
AcDbEntity
  8
MAIN0
  6
CONTINUOUS
 62
3
100
AcDbLine
 10
502.8534749654028
 20
231.1932140787907
 30
0.0000000000000000
 11
503.7195003697407
 21
230.6932140784718
 31
0.0000000000000000
  0
LINE
  5
4C
100
AcDbEntity
  8
MAIN0
  6
CONTINUOUS
 62
3
100
AcDbLine
 10
498.7195003697409
 20
231.1932140788164
 30
0.0000000000000000
 11
501.2195003697409
 21
231.1932140788164
 31
0.0000000000000000
  0
LINE
  5
4D
100
AcDbEntity
  8
MAIN0
  6
CONTINUOUS
 62
3
100
AcDbLine
 10
500.7195003697409
 20
231.1932140788164
 30
0.0000000000000000
 11
502.8534749654031
 21
231.1932140788164
 31
0.0000000000000000
  0
LINE
  5
4E
100
AcDbEntity
  8
MAIN0
  6
CONTINUOUS
 62
3
100
AcDbLine
 10
497.4204622639425
 20
233.4432140788165
 30
0.0000000000000000
 11
498.7195003696152
 21
231.1932140788165
 31
0.0000000000000000
  0
LINE
  5
4F
100
AcDbEntity
  8
MAIN0
  6
CONTINUOUS
 62
3
100
AcDbLine
 10
498.7195003697409
 20
253.1932140788164
 30
0.0000000000000000
 11
501.2195003697409
 21
253.1932140788164
 31
0.0000000000000000
  0
LINE
  5
50
100
AcDbEntity
  8
MAIN0
  6
CONTINUOUS
 62
3
100
AcDbLine
 10
387.7195003697412
 20
326.1932140788164
 30
0.0000000000000000
 11
442.7195003697409
 21
326.1932140788164
 31
0.0000000000000000
  0
LINE
  5
51
100
AcDbEntity
  8
MAIN0
  6
CONTINUOUS
 62
3
100
AcDbLine
 10
389.7195003697415
 20
158.1932140788164
 30
0.0000000000000000
 11
441.7195003697409
 21
158.1932140788164
 31
0.0000000000000000
  0
ARC
  5
52
100
AcDbEntity
  8
MAIN0
  6
CONTINUOUS
 62
3
100
AcDbCircle
 10
441.7195003697409
 20
160.1932140788164
 30
0.0000000000000000
 40
2.000000000000000
100
AcDbArc
 50
270.0000000000000
 51
360.0000000000000
  0
ARC
  5
53
100
AcDbEntity
  8
MAIN0
  6
CONTINUOUS
 62
3
100
AcDbCircle
 10
442.7195003697409
 20
325.1932140788164
 30
0.0000000000000000
 40
1.000000000000000
100
AcDbArc
 50
0.0000000000000000
 51
90.00000000000000
  0
LINE
  5
54
100
AcDbEntity
  8
MAIN0
  6
CENTER
 62
3
100
AcDbLine
 10
364.3902204623714
 20
169.6932140788164
 30
0.0000000000000000
 11
465.6026243158791
 21
169.6932140788164
 31
0.0000000000000000
  0
LEADER
  5
55
100
AcDbEntity
  8
MAIN0
  6
CONTINUOUS
 62
3
100
AcDbLeader
  3
MAIN001
 73
     0
 74
     0
 75
     1
 40
3.099999904632568
 41
10.40100000596044
 76
     3
 10
451.8544565535610
 20
164.6932140788164
 30
0.0000000000000000
 10
468.2173445427978
 20
136.8020635727746
 30
0.0000000000000000
 10
470.0023444901372
 20
136.8020635727746
 30
0.0000000000000000
340
56
213
0.0000000000000000
223
-0.5000000000000000
233
0.0000000000000000
1001
ACAD
1000
DSTYLE
1002
{
1070
   147
1040
0.0
1070
    77
1070
     1
1070
   173
1070
     1
1070
     6
1000
_OPEN
1070
     7
1000
_OPEN
1002
}
  0
MTEXT
  5
56
102
{ACAD_REACTORS
330
55
102
}
100
AcDbEntity
  8
MAIN0
  6
CONTINUOUS
 62
3
100
AcDbMText
 10
470.0033444901371
 20
140.4020634774071
 30
0.0000000000000000
 40
3.099999904632568
 41
0.0000000000000000
 71
     1
 72
     1
  1
{\H0.70x;{6-M10}}
 11
1.000000000000000
 21
0.0000000000000000
 31
0.0000000000000000
  7
STANDARD
  0
LEADER
  5
57
100
AcDbEntity
  8
MAIN0
  6
CONTINUOUS
 62
3
100
AcDbLeader
  3
MAIN001
 73
     0
 74
     0
 75
     1
 40
3.099999904632568
 41
7.991000247955299
 76
     3
 10
482.9227490720243
 20
252.1932140788164
 30
0.0000000000000000
 10
479.1759488123143
 20
275.1239838802121
 30
0.0000000000000000
 10
481.1009487565244
 20
275.1239838802121
 30
0.0000000000000000
340
58
213
0.0000000000000000
223
-0.5000000000000000
233
0.0000000000000000
1001
ACAD
1000
DSTYLE
1002
{
1070
   147
1040
0.0
1070
    77
1070
     1
1070
   173
1070
     1
1070
     6
1000
_OPEN
1070
     7
1000
_OPEN
1002
}
  0
MTEXT
  5
58
102
{ACAD_REACTORS
330
57
102
}
100
AcDbEntity
  8
MAIN0
  6
CONTINUOUS
 62
3
100
AcDbMText
 10
481.1019487565243
 20
278.7239837848446
 30
0.0000000000000000
 40
3.099999904632568
 41
0.0000000000000000
 71
     1
 72
     1
  1
{\H0.90x;{M20}}
 11
1.000000000000000
 21
0.0000000000000000
 31
0.0000000000000000
  7
STANDARD
  0
DIMENSION
  5
61
100
AcDbEntity
  8
MAIN0
  6
CONTINUOUS
 62
3
100
AcDbDimension
  2
*D0
 10
515.7195003697416
 20
253.1932140788164
 30
0.0000000000000000
 11
515.2195003697416
 21
242.1932140788164
 31
0.0000000000000000
 70
32
  1
\A1;\U+220522H8
  3
MAIN001
100
AcDbAlignedDimension
 13
502.8534749654031
 23
231.1932140788164
 33
0.0000000000000000
 14
502.8534749654031
 24
253.1932140788164
 34
0.0000000000000000
 50
90.00000000000000
100
AcDbRotatedDimension
1001
ACAD
1000
DSTYLE
1002
{
1070
   173
1070
     1
1070
     6
1000
_OPEN
1070
     7
1000
_OPEN
1070
    41
1040
2.000000
1002
}
  0
DIMENSION
  5
6A
100
AcDbEntity
  8
MAIN0
  6
CONTINUOUS
 62
3
100
AcDbDimension
  2
*D1
 10
525.7195003697416
 20
258.1932140788164
 30
0.0000000000000000
 11
525.2195003697416
 21
242.1932140788164
 31
0.0000000000000000
 70
32
  1
\A1;\U+220532
  3
MAIN001
100
AcDbAlignedDimension
 13
486.8534749665187
 23
226.1932140788164
 33
0.0000000000000000
 14
486.8534749665187
 24
258.1932140788164
 34
0.0000000000000000
 50
90.00000000000000
100
AcDbRotatedDimension
1001
ACAD
1000
DSTYLE
1002
{
1070
   173
1070
     1
1070
     6
1000
_OPEN
1070
     7
1000
_OPEN
1070
    41
1040
2.000000
1002
}
  0
DIMENSION
  5
73
100
AcDbEntity
  8
MAIN0
  6
CONTINUOUS
 62
3
100
AcDbDimension
  2
*D2
 10
535.7195003697416
 20
220.1932140788164
 30
0.0000000000000000
 11
535.2195003697416
 21
242.1932140788164
 31
0.0000000000000000
 70
32
  1
\A1;\U+220544
  3
MAIN001
100
AcDbAlignedDimension
 13
458.7195003697409
 23
264.1932140788164
 33
0.0000000000000000
 14
458.7195003697409
 24
220.1932140788164
 34
0.0000000000000000
 50
90.00000000000000
100
AcDbRotatedDimension
1001
ACAD
1000
DSTYLE
1002
{
1070
   173
1070
     1
1070
     6
1000
_OPEN
1070
     7
1000
_OPEN
1070
    41
1040
2.000000
1002
}
  0
DIMENSION
  5
7C
100
AcDbEntity
  8
MAIN0
  6
CONTINUOUS
 62
3
100
AcDbDimension
  2
*D3
 10
443.7195003697409
 20
126.8020635727745
 30
0.0000000000000000
 11
473.7195003697409
 21
127.3020635727745
 31
0.0000000000000000
 70
32
  1
\A1;MAX 60
  3
MAIN001
100
AcDbAlignedDimension
 13
503.7195003697409
 23
225.1932140788164
 33
0.0000000000000000
 14
443.7195003697409
 24
160.1932140788164
 34
0.0000000000000000
100
AcDbRotatedDimension
1001
ACAD
1000
DSTYLE
1002
{
1070
   173
1070
     1
1070
     6
1000
_OPEN
1070
     7
1000
_OPEN
1070
    41
1040
2.000000
1002
}
  0
DIMENSION
  5
87
100
AcDbEntity
  8
MAIN0
  6
CONTINUOUS
 62
3
100
AcDbDimension
  2
*D4
 10
498.7195003697408
 20
210.4577716690964
 30
0.0000000000000000
 11
501.2195003697408
 21
210.9577716690964
 31
0.0000000000000000
 70
32
  3
MAIN001
100
AcDbAlignedDimension
 13
503.7195003697409
 23
228.6932140788164
 33
0.0000000000000000
 14
498.7195003697408
 24
231.1932140788164
 34
0.0000000000000000
100
AcDbRotatedDimension
1001
ACAD
1000
DSTYLE
1002
{
1070
   173
1070
     1
1070
     6
1000
_OPEN
1070
     7
1000
_OPEN
1070
    41
1040
2.000000
1070
   287
1070
     0
1002
}
  0
DIMENSION
  5
90
100
AcDbEntity
  8
MAIN0
  6
CONTINUOUS
 62
3
100
AcDbDimension
  2
*D5
 10
473.7195003697409
 20
200.4577716690964
 30
0.0000000000000000
 11
488.7195003697409
 21
200.9577716690964
 31
0.0000000000000000
 70
32
  3
MAIN001
100
AcDbAlignedDimension
 13
503.7195003697409
 23
228.6932140788164
 33
0.0000000000000000
 14
473.7195003697409
 24
232.1932140788164
 34
0.0000000000000000
100
AcDbRotatedDimension
1001
ACAD
1000
DSTYLE
1002
{
1070
   173
1070
     1
1070
     6
1000
_OPEN
1070
     7
1000
_OPEN
1070
    41
1040
2.000000
1002
}
  0
MTEXT
  5
91
100
AcDbEntity
  8
MAIN0
  6
CONTINUOUS
 62
3
100
AcDbMText
 10
87.75210210161896
 20
131.5515967978632
 30
0.0000000000000000
 40
3.099999904632568
 41
0.0000000000000000
 71
     1
 72
     1
  1
{\H0.88x;{21}}
 11
1.000000000000000
 21
0.0000000000000000
 31
0.0000000000000000
  7
STANDARD
  0
MTEXT
  5
92
100
AcDbEntity
  8
MAIN0
  6
CONTINUOUS
 62
3
100
AcDbMText
 10
82.75210210161896
 20
94.55159679786306
 30
0.0000000000000000
 40
3.099999904632568
 41
0.0000000000000000
 71
     1
 72
     1
  1
{\H0.92x;{ 6000}}
 11
1.000000000000000
 21
0.0000000000000000
 31
0.0000000000000000
  7
STANDARD
  0
DIMENSION
  5
9B
100
AcDbEntity
  8
MAIN0
  6
CONTINUOUS
 62
3
100
AcDbDimension
  2
*D6
 10
558.7195003697409
 20
158.1932140788164
 30
0.0000000000000000
 11
558.2195003697409
 21
242.1932140788164
 31
0.0000000000000000
 70
32
  1
\A1;\U+2205168h7
  3
MAIN001
100
AcDbAlignedDimension
 13
442.7195003697409
 23
326.1932140788164
 33
0.0000000000000000
 14
441.7195003697409
 24
158.1932140788164
 34
0.0000000000000000
 50
90.00000000000000
100
AcDbRotatedDimension
1001
ACAD
1000
DSTYLE
1002
{
1070
   173
1070
     1
1070
     6
1000
_OPEN
1070
     7
1000
_OPEN
1070
    41
1040
2.000000
1002
}
  0
LINE
  5
9C
100
AcDbEntity
  8
MAIN0
  6
CENTER
 62
12
100
AcDbLine
 10
290.6364981112029
 20
242.1932140788164
 30
0.0000000000000000
 11
507.0224725961455
 21
242.1932140788164
 31
0.0000000000000000
  0
MTEXT
  5
9D
100
AcDbEntity
  8
MAIN0
  6
CONTINUOUS
 62
3
100
AcDbMText
 10
87.75210210161896
 20
138.5515967978630
 30
0.0000000000000000
 40
3.099999904632568
 41
0.0000000000000000
 71
     1
 72
     1
  1
{\H0.90x;{120}}
 11
1.000000000000000
 21
0.0000000000000000
 31
0.0000000000000000
  7
STANDARD
  0
MTEXT
  5
9E
100
AcDbEntity
  8
MAIN0
  6
CONTINUOUS
 62
3
100
AcDbMText
 10
87.75210210161896
 20
105.0515967978631
 30
0.0000000000000000
 40
3.099999904632568
 41
0.0000000000000000
 71
     1
 72
     1
  1
{\H0.90x;{4.0}}
 11
1.000000000000000
 21
0.0000000000000000
 31
0.0000000000000000
  7
STANDARD
  0
MTEXT
  5
9F
100
AcDbEntity
  8
MAIN0
  6
CONTINUOUS
 62
3
100
AcDbMText
 10
87.75210210161896
 20
87.55159679786306
 30
0.0000000000000000
 40
3.099999904632568
 41
0.0000000000000000
 71
     1
 72
     1
  1
{\H0.91x;{10.2}}
 11
1.000000000000000
 21
0.0000000000000000
 31
0.0000000000000000
  7
STANDARD
  0
MTEXT
  5
A0
100
AcDbEntity
  8
MAIN0
  6
CONTINUOUS
 62
3
100
AcDbMText
 10
82.88066793257988
 20
78.79533872843888
 30
0.0000000000000000
 40
3.099999904632568
 41
0.0000000000000000
 71
     1
 72
     1
  1
{\H0.92x;{0.028}}
 11
1.000000000000000
 21
0.0000000000000000
 31
0.0000000000000000
  7
STANDARD
  0
MTEXT
  5
A1
100
AcDbEntity
  8
MAIN0
  6
CONTINUOUS
 62
3
100
AcDbMText
 10
87.75210210161896
 20
60.05159679786306
 30
0.0000000000000000
 40
3.099999904632568
 41
0.0000000000000000
 71
     1
 72
     1
  1
{\H0.90x;{1.2}}
 11
1.000000000000000
 21
0.0000000000000000
 31
0.0000000000000000
  7
STANDARD
  0
DIMENSION
  5
A9
100
AcDbEntity
  8
MAIN0
  6
CONTINUOUS
 62
3
100
AcDbDimension
  2
*D7
 10
443.7195003697409
 20
200.4577716690964
 30
0.0000000000000000
 11
451.2195003697409
 21
200.9577716690964
 31
0.0000000000000000
 70
32
  3
MAIN001
100
AcDbAlignedDimension
 13
458.7195003697409
 23
220.1932140788164
 33
0.0000000000000000
 14
443.7195003697409
 24
192.1932140788164
 34
0.0000000000000000
100
AcDbRotatedDimension
1001
ACAD
1000
DSTYLE
1002
{
1070
   173
1070
     1
1070
     6
1000
_OPEN
1070
     7
1000
_OPEN
1070
    41
1040
2.000000
1002
}
  0
LINE
  5
AA
100
AcDbEntity
  8
MAIN0
  6
CONTINUOUS
 62
3
100
AcDbLine
 10
325.7195003697416
 20
278.1932140788163
 30
0.0000000000000000
 11
325.7195003697416
 21
331.2932140788166
 31
0.0000000000000000
  0
LINE
  5
AB
100
AcDbEntity
  8
MAIN0
  6
CONTINUOUS
 62
3
100
AcDbLine
 10
365.7195003697415
 20
326.6932140788164
 30
0.0000000000000000
 11
389.7195003697415
 21
326.6932140788164
 31
0.0000000000000000
  0
ARC
  5
AC
100
AcDbEntity
  8
MAIN0
  6
CONTINUOUS
 62
3
100
AcDbCircle
 10
367.7195003697414
 20
325.6932140788164
 30
0.0000000000000000
 40
1.000000000000000
100
AcDbArc
 50
90.00000000000000
 51
180.0000000000000
  0
LINE
  5
AD
100
AcDbEntity
  8
MAIN0
  6
CONTINUOUS
 62
3
100
AcDbLine
 10
362.7195003697415
 20
278.1932140788164
 30
0.0000000000000000
 11
362.7195003697415
 21
329.1932140788165
 31
0.0000000000000000
  0
LINE
  5
AE
100
AcDbEntity
  8
MAIN0
  6
CONTINUOUS
 62
3
100
AcDbLine
 10
389.7195003697415
 20
326.6932140788165
 30
0.0000000000000000
 11
389.7195003697415
 21
329.1932140788165
 31
0.0000000000000000
  0
LINE
  5
AF
100
AcDbEntity
  8
MAIN0
  6
CONTINUOUS
 62
3
100
AcDbLine
 10
362.7195003697415
 20
329.1932140788165
 30
0.0000000000000000
 11
389.7195003697415
 21
329.1932140788165
 31
0.0000000000000000
  0
LINE
  5
B0
100
AcDbEntity
  8
MAIN0
  6
CONTINUOUS
 62
3
100
AcDbLine
 10
389.7195003697415
 20
271.3339315694062
 30
0.0000000000000000
 11
389.7195003697415
 21
151.0932140788164
 31
0.0000000000000000
  0
LINE
  5
B1
100
AcDbEntity
  8
MAIN0
  6
CONTINUOUS
 62
3
100
AcDbLine
 10
315.7195003697416
 20
331.6932140788165
 30
0.0000000000000000
 11
325.3195003697416
 21
331.6932140788165
 31
0.0000000000000000
  0
LINE
  5
B2
100
AcDbEntity
  8
MAIN0
  6
CONTINUOUS
 62
3
100
AcDbLine
 10
316.0195003697452
 20
338.9932140788167
 30
0.0000000000000000
 11
400.7195003697414
 21
338.9932140788167
 31
0.0000000000000000
  0
LINE
  5
B3
100
AcDbEntity
  8
MAIN0
  6
CENTER
 62
3
100
AcDbLine
 10
361.7195003697414
 20
350.8817824825047
 30
0.0000000000000000
 11
361.7195003697414
 21
327.9890550363348
 31
0.0000000000000000
  0
LINE
  5
B4
100
AcDbEntity
  8
MAIN0
  6
CONTINUOUS
 62
3
100
AcDbLine
 10
316.0195003697452
 20
342.1932140788167
 30
0.0000000000000000
 11
400.7195003697414
 21
342.1932140788167
 31
0.0000000000000000
  0
LINE
  5
B5
100
AcDbEntity
  8
MAIN0
  6
CENTER
 62
3
100
AcDbLine
 10
299.2097657960862
 20
324.6932140788165
 30
0.0000000000000000
 11
324.8987861803014
 21
324.6932140788165
 31
0.0000000000000000
  0
LINE
  5
B6
100
AcDbEntity
  8
MAIN0
  6
CONTINUOUS
 62
3
100
AcDbLine
 10
325.3195003697417
 20
331.6932140788166
 30
0.0000000000000000
 11
325.7195003697417
 21
331.2932140788166
 31
0.0000000000000000
  0
LINE
  5
B7
100
AcDbEntity
  8
MAIN0
  6
CONTINUOUS
 62
3
100
AcDbLine
 10
400.7195003697414
 20
342.1932140788167
 30
0.0000000000000000
 11
400.7195003697414
 21
338.9932140788167
 31
0.0000000000000000
  0
ARC
  5
B8
100
AcDbEntity
  8
MAIN0
  6
CONTINUOUS
 62
3
100
AcDbCircle
 10
316.0195003697451
 20
338.6932140788167
 30
0.0000000000000000
 40
3.500000000000000
100
AcDbArc
 50
90.00000000000000
 51
180.0000000000000
  0
ARC
  5
B9
100
AcDbEntity
  8
MAIN0
  6
CONTINUOUS
 62
3
100
AcDbCircle
 10
316.0195003697452
 20
338.6932140788167
 30
0.0000000000000000
 40
0.3000000000000000
100
AcDbArc
 50
90.00000000000000
 51
180.0000000000000
  0
LINE
  5
BA
100
AcDbEntity
  8
MAIN0
  6
CONTINUOUS
 62
3
100
AcDbLine
 10
312.5195003697409
 20
329.6932140788165
 30
0.0000000000000000
 11
307.1195003697409
 21
329.6932140788165
 31
0.0000000000000000
  0
LINE
  5
BB
100
AcDbEntity
  8
MAIN0
  6
CONTINUOUS
 62
3
100
AcDbLine
 10
307.1195003697409
 20
329.6932140788166
 30
0.0000000000000000
 11
306.5195003697409
 21
328.6539835942753
 31
0.0000000000000000
  0
LINE
  5
BC
100
AcDbEntity
  8
MAIN0
  6
CONTINUOUS
 62
3
100
AcDbLine
 10
306.5195003697409
 20
328.6539835942752
 30
0.0000000000000000
 11
306.5195003697409
 21
320.7324445633578
 31
0.0000000000000000
  0
LINE
  5
BD
100
AcDbEntity
  8
MAIN0
  6
CONTINUOUS
 62
3
100
AcDbLine
 10
306.5195003697410
 20
320.7324445633579
 30
0.0000000000000000
 11
307.1195003697410
 21
319.6932140788166
 31
0.0000000000000000
  0
LINE
  5
BE
100
AcDbEntity
  8
MAIN0
  6
CONTINUOUS
 62
3
100
AcDbLine
 10
307.1195003697409
 20
319.6932140788165
 30
0.0000000000000000
 11
312.5195003697409
 21
319.6932140788165
 31
0.0000000000000000
  0
LINE
  5
BF
100
AcDbEntity
  8
MAIN0
  6
CONTINUOUS
 62
3
100
AcDbLine
 10
307.1195003697409
 20
329.6932140788165
 30
0.0000000000000000
 11
307.1195003697409
 21
319.6932140788165
 31
0.0000000000000000
  0
LINE
  5
C0
100
AcDbEntity
  8
MAIN0
  6
CONTINUOUS
 62
3
100
AcDbLine
 10
312.5195003697409
 20
327.6932140788165
 30
0.0000000000000000
 11
324.5195003697409
 21
327.6932140788165
 31
0.0000000000000000
  0
LINE
  5
C1
100
AcDbEntity
  8
MAIN0
  6
CONTINUOUS
 62
3
100
AcDbLine
 10
324.5195003697409
 20
327.6932140788165
 30
0.0000000000000000
 11
324.5195003697409
 21
321.6932140788165
 31
0.0000000000000000
  0
LINE
  5
C2
100
AcDbEntity
  8
MAIN0
  6
CONTINUOUS
 62
3
100
AcDbLine
 10
324.5195003697409
 20
321.6932140788165
 30
0.0000000000000000
 11
312.5195003697409
 21
321.6932140788165
 31
0.0000000000000000
  0
LINE
  5
C3
100
AcDbEntity
  8
MAIN0
  6
CONTINUOUS
 62
3
100
AcDbLine
 10
312.5195003697409
 20
327.1519480788165
 30
0.0000000000000000
 11
324.5195003697409
 21
327.1519480788165
 31
0.0000000000000000
  0
LINE
  5
C4
100
AcDbEntity
  8
MAIN0
  6
CONTINUOUS
 62
3
100
AcDbLine
 10
312.5195003697409
 20
322.2344800788166
 30
0.0000000000000000
 11
324.5195003697409
 21
322.2344800788166
 31
0.0000000000000000
  0
LINE
  5
C5
100
AcDbEntity
  8
MAIN0
  6
CENTER
 62
3
100
AcDbLine
 10
369.7195003697414
 20
366.6548684314582
 30
0.0000000000000000
 11
369.7195003697414
 21
327.9890550363350
 31
0.0000000000000000
  0
LINE
  5
C6
100
AcDbEntity
  8
MAIN0
  6
PHANTOM
 62
3
100
AcDbLine
 10
364.7195003697423
 20
330.6932140788167
 30
0.0000000000000000
 11
374.7195003697405
 21
330.6932140788167
 31
0.0000000000000000
  0
LINE
  5
C7
100
AcDbEntity
  8
MAIN0
  6
PHANTOM
 62
3
100
AcDbLine
 10
363.7195003697414
 20
331.6932140788167
 30
0.0000000000000000
 11
375.7195003697414
 21
331.6932140788167
 31
0.0000000000000000
  0
LINE
  5
C8
100
AcDbEntity
  8
MAIN0
  6
PHANTOM
 62
3
100
AcDbLine
 10
374.7195003697404
 20
330.6932140788167
 30
0.0000000000000000
 11
375.7195003697414
 21
331.6932140788177
 31
0.0000000000000000
  0
LINE
  5
C9
100
AcDbEntity
  8
MAIN0
  6
PHANTOM
 62
3
100
AcDbLine
 10
364.7195003697424
 20
330.6932140788167
 30
0.0000000000000000
 11
363.7195003697415
 21
331.6932140788176
 31
0.0000000000000000
  0
LINE
  5
CA
100
AcDbEntity
  8
MAIN0
  6
PHANTOM
 62
3
100
AcDbLine
 10
374.6269776577717
 20
349.5932140788166
 30
0.0000000000000000
 11
374.6269776577731
 21
347.1932140788171
 31
0.0000000000000000
  0
LINE
  5
CB
100
AcDbEntity
  8
MAIN0
  6
PHANTOM
 62
3
100
AcDbLine
 10
379.5344549460226
 20
349.6340247008992
 30
0.0000000000000000
 11
379.5344549460230
 21
347.1524034567343
 31
0.0000000000000000
  0
LINE
  5
CC
100
AcDbEntity
  8
MAIN0
  6
PHANTOM
 62
3
100
AcDbLine
 10
361.2195003685830
 20
350.3932140788166
 30
0.0000000000000000
 11
378.2195003708999
 21
350.3932140788166
 31
0.0000000000000000
  0
LINE
  5
CD
100
AcDbEntity
  8
MAIN0
  6
PHANTOM
 62
3
100
AcDbLine
 10
378.2195003709000
 20
350.3932140788165
 30
0.0000000000000000
 11
379.5344549460224
 21
349.6340247008993
 31
0.0000000000000000
  0
LINE
  5
CE
100
AcDbEntity
  8
MAIN0
  6
PHANTOM
 62
3
100
AcDbLine
 10
364.8120230817110
 20
349.5932140788167
 30
0.0000000000000000
 11
364.8120230817096
 21
347.1932140788172
 31
0.0000000000000000
  0
ARC
  5
CF
100
AcDbEntity
  8
MAIN0
  6
PHANTOM
 62
3
100
AcDbCircle
 10
369.7195003697413
 20
334.9411307459835
 30
0.0000000000000000
 40
15.45208333283322
100
AcDbArc
 50
71.48256317677496
 51
108.5174368232250
  0
ARC
  5
D0
100
AcDbEntity
  8
MAIN0
  6
PHANTOM
 62
3
100
AcDbCircle
 10
379.6590190133310
 20
335.4624476524709
 30
0.0000000000000000
 40
15.00000000000000
100
AcDbArc
 50
95.50703149208238
 51
109.6010858781950
  0
LINE
  5
D1
100
AcDbEntity
  8
MAIN0
  6
PHANTOM
 62
3
100
AcDbLine
 10
361.2195003685829
 20
350.3932140788166
 30
0.0000000000000000
 11
359.9045457934604
 21
349.6340247008993
 31
0.0000000000000000
  0
ARC
  5
D2
100
AcDbEntity
  8
MAIN0
  6
PHANTOM
 62
3
100
AcDbCircle
 10
359.7799817261518
 20
335.4624476524709
 30
0.0000000000000000
 40
15.00000000000000
100
AcDbArc
 50
70.39891412180502
 51
84.49296850791762
  0
LINE
  5
D3
100
AcDbEntity
  8
MAIN0
  6
PHANTOM
 62
3
100
AcDbLine
 10
359.9045457934602
 20
349.6340247008993
 30
0.0000000000000000
 11
359.9045457934598
 21
347.1524034567344
 31
0.0000000000000000
  0
LINE
  5
D4
100
AcDbEntity
  8
MAIN0
  6
PHANTOM
 62
3
100
AcDbLine
 10
361.2195003685828
 20
346.3932140788167
 30
0.0000000000000000
 11
359.9045457934603
 21
347.1524034567340
 31
0.0000000000000000
  0
ARC
  5
D5
100
AcDbEntity
  8
MAIN0
  6
PHANTOM
 62
3
100
AcDbCircle
 10
359.7799817261518
 20
361.3239805051625
 30
0.0000000000000000
 40
15.00000000000000
100
AcDbArc
 50
275.5070314920824
 51
289.6010858781950
  0
ARC
  5
D6
100
AcDbEntity
  8
MAIN0
  6
PHANTOM
 62
3
100
AcDbCircle
 10
369.7195003697413
 20
361.8452974116499
 30
0.0000000000000000
 40
15.45208333283322
100
AcDbArc
 50
251.4825631767750
 51
288.5174368232251
  0
ARC
  5
D7
100
AcDbEntity
  8
MAIN0
  6
PHANTOM
 62
3
100
AcDbCircle
 10
379.6590190133310
 20
361.3239805051624
 30
0.0000000000000000
 40
15.00000000000000
100
AcDbArc
 50
250.3989141218050
 51
264.4929685079176
  0
LINE
  5
D8
100
AcDbEntity
  8
MAIN0
  6
PHANTOM
 62
3
100
AcDbLine
 10
378.2195003709000
 20
346.3932140788168
 30
0.0000000000000000
 11
379.5344549460224
 21
347.1524034567341
 31
0.0000000000000000
  0
LINE
  5
D9
100
AcDbEntity
  8
MAIN0
  6
PHANTOM
 62
3
100
AcDbLine
 10
364.7195003697261
 20
361.6932140788167
 30
0.0000000000000000
 11
374.7195003696952
 21
361.6932140788167
 31
0.0000000000000000
  0
LINE
  5
DA
100
AcDbEntity
  8
MAIN0
  6
PHANTOM
 62
3
100
AcDbLine
 10
359.7195003697414
 20
346.3932140788166
 30
0.0000000000000000
 11
379.7195003697414
 21
346.3932140788166
 31
0.0000000000000000
  0
LINE
  5
DB
100
AcDbEntity
  8
MAIN0
  6
PHANTOM
 62
3
100
AcDbLine
 10
379.7195003697414
 20
346.3932140788166
 30
0.0000000000000000
 11
379.7195003697414
 21
345.3932140788166
 31
0.0000000000000000
  0
LINE
  5
DC
100
AcDbEntity
  8
MAIN0
  6
PHANTOM
 62
3
100
AcDbLine
 10
359.7195003697414
 20
346.3932140788166
 30
0.0000000000000000
 11
359.7195003697414
 21
345.3932140788166
 31
0.0000000000000000
  0
LINE
  5
DD
100
AcDbEntity
  8
MAIN0
  6
PHANTOM
 62
3
100
AcDbLine
 10
363.7195003697414
 20
360.6932140788167
 30
0.0000000000000000
 11
375.7195003697415
 21
360.6932140788167
 31
0.0000000000000000
  0
LINE
  5
DE
100
AcDbEntity
  8
MAIN0
  6
PHANTOM
 62
3
100
AcDbLine
 10
363.7195003697283
 20
360.6932140788167
 30
0.0000000000000000
 11
364.7195003697261
 21
361.6932140788167
 31
0.0000000000000000
  0
LINE
  5
DF
100
AcDbEntity
  8
MAIN0
  6
PHANTOM
 62
3
100
AcDbLine
 10
374.7195003696952
 20
361.6932140788167
 30
0.0000000000000000
 11
375.7195003697414
 21
360.6932140787716
 31
0.0000000000000000
  0
LINE
  5
E0
100
AcDbEntity
  8
MAIN0
  6
PHANTOM
 62
3
100
AcDbLine
 10
364.7195003697261
 20
363.6932140788167
 30
0.0000000000000000
 11
374.7195003696952
 21
363.6932140788167
 31
0.0000000000000000
  0
LINE
  5
E1
100
AcDbEntity
  8
MAIN0
  6
PHANTOM
 62
3
100
AcDbLine
 10
374.7195003696704
 20
363.6932140788167
 30
0.0000000000000000
 11
374.7195003696691
 21
361.6932140788167
 31
0.0000000000000000
  0
LINE
  5
E2
100
AcDbEntity
  8
MAIN0
  6
PHANTOM
 62
3
100
AcDbLine
 10
364.7195003697040
 20
363.6932140788168
 30
0.0000000000000000
 11
364.7195003697028
 21
361.6932140788168
 31
0.0000000000000000
  0
LINE
  5
E3
100
AcDbEntity
  8
MAIN0
  6
PHANTOM
 62
3
100
AcDbLine
 10
375.7195003697414
 20
338.9932140788167
 30
0.0000000000000000
 11
375.7195003697414
 21
331.6932140788167
 31
0.0000000000000000
  0
LINE
  5
E4
100
AcDbEntity
  8
MAIN0
  6
PHANTOM
 62
3
100
AcDbLine
 10
375.7195003697414
 20
360.6932140788167
 30
0.0000000000000000
 11
375.7195003697414
 21
350.3932140788166
 31
0.0000000000000000
  0
LINE
  5
E5
100
AcDbEntity
  8
MAIN0
  6
PHANTOM
 62
3
100
AcDbLine
 10
375.1780003697414
 20
338.9932140788167
 30
0.0000000000000000
 11
375.1780003697414
 21
331.1517140788176
 31
0.0000000000000000
  0
LINE
  5
E6
100
AcDbEntity
  8
MAIN0
  6
PHANTOM
 62
3
100
AcDbLine
 10
375.1780003697414
 20
361.2347140787709
 30
0.0000000000000000
 11
375.1780003697414
 21
350.3932140788166
 31
0.0000000000000000
  0
LINE
  5
E7
100
AcDbEntity
  8
MAIN0
  6
PHANTOM
 62
3
100
AcDbLine
 10
364.2610003697414
 20
338.9932140788167
 30
0.0000000000000000
 11
364.2610003697414
 21
331.1517140788176
 31
0.0000000000000000
  0
LINE
  5
E8
100
AcDbEntity
  8
MAIN0
  6
PHANTOM
 62
3
100
AcDbLine
 10
364.2610003697414
 20
361.2347140788310
 30
0.0000000000000000
 11
364.2610003697414
 21
350.3932140788166
 31
0.0000000000000000
  0
LINE
  5
E9
100
AcDbEntity
  8
MAIN0
  6
PHANTOM
 62
3
100
AcDbLine
 10
363.7195003697414
 20
338.9932140788167
 30
0.0000000000000000
 11
363.7195003697414
 21
331.6932140788176
 31
0.0000000000000000
  0
LINE
  5
EA
100
AcDbEntity
  8
MAIN0
  6
PHANTOM
 62
3
100
AcDbLine
 10
363.7195003697414
 20
360.6932140788167
 30
0.0000000000000000
 11
363.7195003697414
 21
350.3932140788166
 31
0.0000000000000000
  0
LINE
  5
EB
100
AcDbEntity
  8
MAIN0
  6
CONTINUOUS
 62
3
100
AcDbLine
 10
306.1195003697416
 20
318.6932140788165
 30
0.0000000000000000
 11
315.7195003697402
 21
318.6932140788165
 31
0.0000000000000000
  0
LINE
  5
EC
100
AcDbEntity
  8
MAIN0
  6
CONTINUOUS
 62
3
100
AcDbLine
 10
312.5195003697451
 20
338.6932140788172
 30
0.0000000000000000
 11
312.5195003697423
 21
318.6932140788165
 31
0.0000000000000000
  0
LINE
  5
ED
100
AcDbEntity
  8
MAIN0
  6
CENTER
 62
3
100
AcDbLine
 10
299.2097657960862
 20
324.6932140788165
 30
0.0000000000000000
 11
330.9567635533849
 21
324.6932140788165
 31
0.0000000000000000
  0
LINE
  5
EE
100
AcDbEntity
  8
MAIN0
  6
CONTINUOUS
 62
3
100
AcDbLine
 10
312.5195003697409
 20
329.6932140788165
 30
0.0000000000000000
 11
307.1195003697409
 21
329.6932140788165
 31
0.0000000000000000
  0
LINE
  5
EF
100
AcDbEntity
  8
MAIN0
  6
CONTINUOUS
 62
3
100
AcDbLine
 10
307.1195003697409
 20
329.6932140788166
 30
0.0000000000000000
 11
306.5195003697409
 21
328.6539835942753
 31
0.0000000000000000
  0
LINE
  5
F0
100
AcDbEntity
  8
MAIN0
  6
CONTINUOUS
 62
3
100
AcDbLine
 10
306.5195003697409
 20
328.6539835942752
 30
0.0000000000000000
 11
306.5195003697409
 21
320.7324445633578
 31
0.0000000000000000
  0
LINE
  5
F1
100
AcDbEntity
  8
MAIN0
  6
CONTINUOUS
 62
3
100
AcDbLine
 10
306.5195003697410
 20
320.7324445633579
 30
0.0000000000000000
 11
307.1195003697411
 21
319.6932140788166
 31
0.0000000000000000
  0
LINE
  5
F2
100
AcDbEntity
  8
MAIN0
  6
CONTINUOUS
 62
3
100
AcDbLine
 10
307.1195003697409
 20
319.6932140788165
 30
0.0000000000000000
 11
312.5195003697409
 21
319.6932140788165
 31
0.0000000000000000
  0
LINE
  5
F3
100
AcDbEntity
  8
MAIN0
  6
CONTINUOUS
 62
3
100
AcDbLine
 10
307.1195003697409
 20
329.6932140788165
 30
0.0000000000000000
 11
307.1195003697409
 21
319.6932140788165
 31
0.0000000000000000
  0
LINE
  5
F4
100
AcDbEntity
  8
MAIN0
  6
CONTINUOUS
 62
3
100
AcDbLine
 10
312.5195003697409
 20
327.6932140788165
 30
0.0000000000000000
 11
324.5195003697409
 21
327.6932140788165
 31
0.0000000000000000
  0
LINE
  5
F5
100
AcDbEntity
  8
MAIN0
  6
CONTINUOUS
 62
3
100
AcDbLine
 10
324.5195003697409
 20
327.6932140788165
 30
0.0000000000000000
 11
324.5195003697409
 21
321.6932140788165
 31
0.0000000000000000
  0
LINE
  5
F6
100
AcDbEntity
  8
MAIN0
  6
CONTINUOUS
 62
3
100
AcDbLine
 10
324.5195003697409
 20
321.6932140788165
 30
0.0000000000000000
 11
312.5195003697409
 21
321.6932140788165
 31
0.0000000000000000
  0
LINE
  5
F7
100
AcDbEntity
  8
MAIN0
  6
CONTINUOUS
 62
3
100
AcDbLine
 10
312.5195003697409
 20
327.1519480788165
 30
0.0000000000000000
 11
324.5195003697409
 21
327.1519480788165
 31
0.0000000000000000
  0
LINE
  5
F8
100
AcDbEntity
  8
MAIN0
  6
CONTINUOUS
 62
3
100
AcDbLine
 10
312.5195003697409
 20
322.2344800788166
 30
0.0000000000000000
 11
324.5195003697409
 21
322.2344800788166
 31
0.0000000000000000
  0
LINE
  5
F9
100
AcDbEntity
  8
MAIN0
  6
CONTINUOUS
 62
3
100
AcDbLine
 10
306.1195003697417
 20
318.6932140788166
 30
0.0000000000000000
 11
305.7195003697416
 21
318.2932140788166
 31
0.0000000000000000
  0
LINE
  5
FA
100
AcDbEntity
  8
MAIN0
  6
CONTINUOUS
 62
3
100
AcDbLine
 10
315.7195003697452
 20
338.6932140788168
 30
0.0000000000000000
 11
315.7195003697436
 21
327.6932140788165
 31
0.0000000000000000
  0
LINE
  5
FB
100
AcDbEntity
  8
MAIN0
  6
CONTINUOUS
 62
3
100
AcDbLine
 10
343.2195003697391
 20
345.3932140788167
 30
0.0000000000000000
 11
387.7195003697393
 21
345.3932140788167
 31
0.0000000000000000
  0
LINE
  5
FC
100
AcDbEntity
  8
MAIN0
  6
CONTINUOUS
 62
3
100
AcDbLine
 10
387.7195003697393
 20
345.3932140788167
 30
0.0000000000000000
 11
387.7195003697393
 21
342.1932140788167
 31
0.0000000000000000
  0
LINE
  5
FD
100
AcDbEntity
  8
MAIN0
  6
CONTINUOUS
 62
3
100
AcDbLine
 10
382.7195003697392
 20
345.3932140788166
 30
0.0000000000000000
 11
382.7195003697392
 21
342.1932140788168
 31
0.0000000000000000
  0
LINE
  5
FE
100
AcDbEntity
  8
MAIN0
  6
CONTINUOUS
 62
3
100
AcDbLine
 10
343.2195003697391
 20
345.3932140788168
 30
0.0000000000000000
 11
343.2195003697391
 21
342.1932140788167
 31
0.0000000000000000
  0
LINE
  5
FF
100
AcDbEntity
  8
MAIN0
  6
CONTINUOUS
 62
3
100
AcDbLine
 10
348.2195003697392
 20
345.3932140788166
 30
0.0000000000000000
 11
348.2195003697392
 21
342.1932140788166
 31
0.0000000000000000
  0
LINE
  5
100
100
AcDbEntity
  8
MAIN0
  6
HIDDEN
 62
3
100
AcDbLine
 10
305.7195003697416
 20
152.6932140788163
 30
0.0000000000000000
 11
325.7195003697416
 21
152.6932140788163
 31
0.0000000000000000
  0
LINE
  5
101
100
AcDbEntity
  8
MAIN0
  6
CONTINUOUS
 62
3
100
AcDbLine
 10
305.7195003697416
 20
151.0932140788164
 30
0.0000000000000000
 11
389.7195003697415
 21
151.0932140788164
 31
0.0000000000000000
  0
INSERT
  5
109
100
AcDbEntity
  8
MAIN0
  6
CONTINUOUS
 62
3
100
AcDbBlockReference
  2
D8
 10
507.0224725961455
 20
242.1932140788164
 30
0.0000000000000000
 50
0.0000000000000000
  0
MTEXT
  5
10A
100
AcDbEntity
  8
MAIN0
  6
CONTINUOUS
 62
3
100
AcDbMText
 10
410.6964394344972
 20
370.3860876632642
 30
0.0000000000000000
 40
3.099999904632568
 41
0.0000000000000000
 71
     1
 72
     1
  1
{\H0.70x;{MAX 75}}
 11
1.000000000000000
 21
0.0000000000000000
 31
0.0000000000000000
  7
STANDARD
  0
INSERT
  5
112
100
AcDbEntity
  8
MAIN0
  6
CONTINUOUS
 62
3
100
AcDbBlockReference
  2
D9
 10
290.6364981112029
 20
242.1932140788164
 30
0.0000000000000000
 50
0.0000000000000000
  0
LINE
  5
113
100
AcDbEntity
  8
MAIN0
  6
CENTER
 62
3
100
AcDbLine
 10
178.7970367582307
 20
178.7882039548086
 30
0.0000000000000000
 11
187.2598088182799
 21
155.5369288138349
 31
0.0000000000000000
  0
LINE
  5
114
100
AcDbEntity
  8
MAIN0
  6
CENTER
 62
3
100
AcDbLine
 10
390.7195003697414
 20
350.8817824825047
 30
0.0000000000000000
 11
390.7195003697414
 21
327.9890550363350
 31
0.0000000000000000
  0
LINE
  5
115
100
AcDbEntity
  8
MAIN0
  6
CENTER
 62
3
100
AcDbLine
 10
340.7195003697414
 20
350.8817824825047
 30
0.0000000000000000
 11
340.7195003697414
 21
327.9890550363348
 31
0.0000000000000000
  0
SPLINE
  5
116
100
AcDbEntity
  8
MAIN0
  6
CONTINUOUS
 62
3
100
AcDbSpline
210
0.0000000000000000
220
0.0000000000000000
230
1.000000000000000
 70
     8
 71
     3
 72
    15
 73
    11
 74
     0
 42
1.000000000000000e-007
 43
1.000000000000000e-007
 12
-0.9093275486316657
 22
-0.4079758684379158
 32
0.0000000000000000
 13
0.3933003335503429
 23
-0.9362360194515560
 33
0.0000000000000000
 40
0.0000000000000000
 40
0.0000000000000000
 40
0.0000000000000000
 40
0.0000000000000000
 40
4.203951949711976
 40
7.881165770234173
 40
14.85263430731868
 40
20.44827303503715
 40
22.61863775334680
 40
27.47174475756768
 40
30.97136104711186
 40
36.65785738316237
 40
36.65785738316237
 40
36.65785738316237
 40
36.65785738316237
 10
463.4270990607104
 20
257.1932140788164
 30
0.0000000000000000
 10
462.1528426203781
 20
256.6215104296314
 30
0.0000000000000000
 10
459.7639889036425
 20
255.5497352798266
 30
0.0000000000000000
 10
455.6343538728272
 20
252.5228260034271
 30
0.0000000000000000
 10
454.7680697226004
 20
246.3694436662129
 30
0.0000000000000000
 10
456.7581250437865
 20
241.9178869456587
 30
0.0000000000000000
 10
457.2570710657869
 20
237.6285263977483
 30
0.0000000000000000
 10
460.1121644655256
 20
235.1741419818447
 30
0.0000000000000000
 10
463.3605843206370
 20
231.8346381498532
 30
0.0000000000000000
 10
464.5648847071961
 20
228.9678483102464
 30
0.0000000000000000
 10
465.3103850090966
 20
227.1932140788164
 30
0.0000000000000000
  0
SPLINE
  5
117
100
AcDbEntity
  8
MAIN0
  6
CONTINUOUS
 62
3
100
AcDbSpline
210
0.0000000000000000
220
0.0000000000000000
230
1.000000000000000
 70
     8
 71
     3
 72
    17
 73
    13
 74
     0
 42
1.000000000000000e-007
 43
1.000000000000000e-007
 12
0.9649123371477799
 22
-0.2411279952231098
 32
0.0000000000000000
 13
1.002256637666335
 23
0.03372384232230274
 33
0.0000000000000000
 40
0.0000000000000000
 40
0.0000000000000000
 40
0.0000000000000000
 40
0.0000000000000000
 40
2.953915899287716
 40
11.94891299703848
 40
23.75701518020900
 40
35.63296684386648
 40
44.88310869442648
 40
51.88234489794400
 40
66.49483280311486
 40
70.21698928064649
 40
82.95742752345959
 40
86.88180953250958
 40
86.88180953250958
 40
86.88180953250958
 40
86.88180953250958
 10
305.7195003697416
 20
265.9194979380657
 30
0.0000000000000000
 10
306.6695903344481
 20
265.6820739984481
 30
0.0000000000000000
 10
310.5128081898973
 20
264.7216681864242
 30
0.0000000000000000
 10
318.7389920650183
 20
263.0090984816108
 30
0.0000000000000000
 10
328.1086625415880
 20
269.5575695028963
 30
0.0000000000000000
 10
339.0785560451242
 20
273.0012195263675
 30
0.0000000000000000
 10
348.2111295739634
 20
269.7447441034303
 30
0.0000000000000000
 10
357.6509830885690
 20
265.9752063807687
 30
0.0000000000000000
 10
366.6519907597625
 20
265.0204318929217
 30
0.0000000000000000
 10
376.3812116769780
 20
268.5997526087619
 30
0.0000000000000000
 10
382.8409454929896
 20
271.1024825658870
 30
0.0000000000000000
 10
388.4084210639718
 20
271.2898164893882
 30
0.0000000000000000
 10
389.7195003697415
 20
271.3339315694168
 30
0.0000000000000000
  0
LINE
  5
118
100
AcDbEntity
  8
MAIN0
  6
CONTINUOUS
 62
3
100
AcDbLine
 10
443.7195003697409
 20
160.1932140788164
 30
0.0000000000000000
 11
443.7195003697409
 21
325.1932140788164
 31
0.0000000000000000
  0
LINE
  5
119
100
AcDbEntity
  8
MAIN0
  6
CONTINUOUS
 62
3
100
AcDbLine
 10
387.7195003697412
 20
271.2529726372970
 30
0.0000000000000000
 11
387.7195003697412
 21
326.6932140788164
 31
0.0000000000000000
  0
LINE
  5
11A
100
AcDbEntity
  8
MAIN0
  6
CONTINUOUS
 62
3
100
AcDbLine
 10
365.7195003697415
 20
278.1932140788164
 30
0.0000000000000000
 11
365.7195003697415
 21
326.6932140788165
 31
0.0000000000000000
  0
LINE
  5
11B
100
AcDbEntity
  8
MAIN0
  6
CONTINUOUS
 62
3
100
AcDbLine
 10
366.7195003697414
 20
265.8128270286185
 30
0.0000000000000000
 11
366.7195003697414
 21
325.6932140788164
 31
0.0000000000000000
  0
DIMENSION
  5
124
100
AcDbEntity
  8
MAIN0
  6
CONTINUOUS
 62
3
100
AcDbDimension
  2
*D10
 10
443.7195003697409
 20
371.0954167980465
 30
0.0000000000000000
 11
416.7195003697412
 21
371.5954167980465
 31
0.0000000000000000
 70
32
  1
\A1;MIN 54
  3
MAIN001
100
AcDbAlignedDimension
 13
389.7195003697415
 23
329.1932140788165
 33
0.0000000000000000
 14
443.7195003697409
 24
325.1932140788164
 34
0.0000000000000000
100
AcDbRotatedDimension
1001
ACAD
1000
DSTYLE
1002
{
1070
   173
1070
     1
1070
     6
1000
_OPEN
1070
     7
1000
_OPEN
1070
    41
1040
2.000000
1002
}
  0
DIMENSION
  5
12D
100
AcDbEntity
  8
MAIN0
  6
CONTINUOUS
 62
3
100
AcDbDimension
  2
*D11
 10
389.7195003697415
 20
371.0954167980465
 30
0.0000000000000000
 11
376.2195003697415
 21
371.5954167980465
 31
0.0000000000000000
 70
32
  3
MAIN001
100
AcDbAlignedDimension
 13
362.7195003697415
 23
329.6932140788166
 33
0.0000000000000000
 14
389.7195003697415
 24
329.6932140788165
 34
0.0000000000000000
100
AcDbRotatedDimension
1001
ACAD
1000
DSTYLE
1002
{
1070
   173
1070
     1
1070
     6
1000
_OPEN
1070
     7
1000
_OPEN
1070
    41
1040
2.000000
1002
}
  0
LEADER
  5
12E
100
AcDbEntity
  8
MAIN0
  6
CONTINUOUS
 62
3
100
AcDbLeader
  3
MAIN001
 73
     0
 74
     0
 75
     1
 40
3.099999904632568
 41
37.90100087022780
 76
     3
 10
92.61215076051073
 20
361.6177350527083
 30
0.0000000000000000
 10
108.6796087949965
 20
381.6442287235302
 30
0.0000000000000000
 10
110.6046087392066
 20
381.6442287235302
 30
0.0000000000000000
340
12F
213
0.0000000000000000
223
-0.5000000000000000
233
0.0000000000000000
1001
ACAD
1000
DSTYLE
1002
{
1070
   147
1040
0.0
1070
    77
1070
     1
1070
   173
1070
     1
1070
     6
1000
_OPEN
1070
     7
1000
_OPEN
1002
}
  0
MTEXT
  5
12F
102
{ACAD_REACTORS
330
12E
102
}
100
AcDbEntity
  8
MAIN0
  6
CONTINUOUS
 62
3
100
AcDbMText
 10
110.6056087392066
 20
385.2442286281628
 30
0.0000000000000000
 40
3.099999904632568
 41
0.0000000000000000
 71
     1
 72
     1
  1
{\H0.94x;{ディテクタブルプレート}}
 11
1.000000000000000
 21
0.0000000000000000
 31
0.0000000000000000
  7
KNJYOKO
  0
DIMENSION
  5
137
100
AcDbEntity
  8
MAIN0
  6
CONTINUOUS
 62
3
100
AcDbDimension
  2
*D12
 10
187.2598088182799
 20
155.5369288138350
 30
0.0000000000000000
 11
175.3414677219349
 21
130.9115073692182
 31
0.0000000000000000
 70
162
  3
MAIN001
100
AcDb2LineAngularDimension
 13
155.7195003697465
 23
128.6948076698251
 33
0.0000000000000000
 14
155.7195003697416
 24
242.1932140788163
 34
0.0000000000000000
 15
186.9177886749542
 25
156.4766214346208
 35
0.0000000000000000
 16
175.4282918107683
 26
130.4191034927121
 36
0.0000000000000000
1001
ACAD
1000
DSTYLE
1002
{
1070
   173
1070
     1
1070
     6
1000
_OPEN
1070
     7
1000
_OPEN
1070
    41
1040
2.000000
1002
}
  0
DIMENSION
  5
140
100
AcDbEntity
  8
MAIN0
  6
CONTINUOUS
 62
3
100
AcDbDimension
  2
*D13
 10
230.0272770794994
 20
167.8854373690715
 30
0.0000000000000000
 11
216.4334998771140
 21
146.8913247229890
 31
0.0000000000000000
 70
162
  3
MAIN001
100
AcDb2LineAngularDimension
 13
187.2598088182799
 23
155.5369288138350
 33
0.0000000000000000
 14
186.9177886749542
 24
156.4766214346208
 34
0.0000000000000000
 15
229.3201702983128
 25
168.5925441502580
 35
0.0000000000000000
 16
216.7021496812874
 26
146.4696290000826
 36
0.0000000000000000
1001
ACAD
1000
DSTYLE
1002
{
1070
   173
1070
     1
1070
     6
1000
_OPEN
1070
     7
1000
_OPEN
1070
    41
1040
2.000000
1002
}
  0
DIMENSION
  5
149
100
AcDbEntity
  8
MAIN0
  6
CONTINUOUS
 62
3
100
AcDbDimension
  2
*D14
 10
260.4426604391285
 20
242.1932140788164
 30
0.0000000000000000
 11
260.1164152574028
 21
198.9505960624428
 31
0.0000000000000000
 70
162
  3
MAIN001
100
AcDb2LineAngularDimension
 13
230.0272770794994
 23
167.8854373690715
 33
0.0000000000000000
 14
229.3201702983128
 24
168.5925441502580
 34
0.0000000000000000
 15
259.4426604391285
 25
242.1932140788164
 35
0.0000000000000000
 16
260.5783550236585
 26
198.7592543462602
 36
0.0000000000000000
1001
ACAD
1000
DSTYLE
1002
{
1070
   173
1070
     1
1070
     6
1000
_OPEN
1070
     7
1000
_OPEN
1070
    41
1040
2.000000
1002
}
  0
DIMENSION
  5
151
100
AcDbEntity
  8
MAIN0
  6
CONTINUOUS
 62
3
100
AcDbDimension
  2
*D15
 10
201.9359621396212
 20
347.8047121794454
 30
0.0000000000000000
 11
251.3901024315594
 21
305.0730621734704
 31
0.0000000000000000
 70
162
  3
MAIN001
100
AcDb2LineAngularDimension
 13
260.4426604391285
 23
242.1932140788164
 33
0.0000000000000000
 14
259.4426604391285
 24
242.1932140788164
 34
0.0000000000000000
 15
188.8090775336191
 25
319.6540172972685
 35
0.0000000000000000
 16
250.9684067086527
 26
304.8044123692973
 36
0.0000000000000000
1001
ACAD
1000
DSTYLE
1002
{
1070
   173
1070
     1
1070
     6
1000
_OPEN
1070
     7
1000
_OPEN
1070
    41
1040
2.000000
1002
}
  0
DIMENSION
  5
158
100
AcDbEntity
  8
MAIN0
  6
CONTINUOUS
 62
3
100
AcDbDimension
  2
*D16
 10
155.7195003697367
 20
358.0506550801104
 30
0.0000000000000000
 11
179.4970076842068
 21
355.9465945117379
 31
0.0000000000000000
 70
162
  3
MAIN001
100
AcDb2LineAngularDimension
 13
201.9359621396212
 23
347.8047121794454
 33
0.0000000000000000
 14
188.8090775336191
 24
319.6540172972684
 34
0.0000000000000000
 15
155.7195003697414
 25
248.6931900729121
 35
0.0000000000000000
 16
179.3887878772374
 26
355.4584465081780
 36
0.0000000000000000
1001
ACAD
1000
DSTYLE
1002
{
1070
   173
1070
     1
1070
     6
1000
_OPEN
1070
     7
1000
_OPEN
1070
    41
1040
2.000000
1002
}
  0
LEADER
  5
159
100
AcDbEntity
  8
MAIN0
  6
CONTINUOUS
 62
3
100
AcDbLeader
  3
MAIN001
 73
     0
 75
     1
 40
3.099999904632568
 41
19.14900057220459
 76
     3
 10
70.69319090604870
 20
235.7232669080760
 30
0.0000000000000000
 10
56.02800951957105
 20
197.8166931146802
 30
0.0000000000000000
 10
54.10100957536100
 20
197.8166931146802
 30
0.0000000000000000
340
15A
213
0.0000000000000000
223
-0.5000000000000000
233
0.0000000000000000
1001
ACAD
1000
DSTYLE
1002
{
1070
   147
1040
0.0
1070
    77
1070
     1
1070
   173
1070
     1
1070
     6
1000
_OPEN
1070
     7
1000
_OPEN
1002
}
  0
MTEXT
  5
15A
102
{ACAD_REACTORS
330
159
102
}
100
AcDbEntity
  8
MAIN0
  6
CONTINUOUS
 62
3
100
AcDbMText
 10
34.95200900315641
 20
201.4166930193128
 30
0.0000000000000000
 40
3.099999904632568
 41
0.0000000000000000
 71
     1
 72
     1
  1
{\H0.92x;{3-Rc1/4}}
 11
1.000000000000000
 21
0.0000000000000000
 31
0.0000000000000000
  7
STANDARD
  0
LEADER
  5
15B
100
AcDbEntity
  8
MAIN0
  6
CONTINUOUS
 62
3
100
AcDbLeader
  3
MAIN001
 73
     0
 74
     0
 75
     1
 40
3.099999904632568
 41
23.29100055789948
 76
     3
 10
181.4104127829797
 20
162.8365991377794
 30
0.0000000000000000
 10
187.6073454048590
 20
127.0897447768764
 30
0.0000000000000000
 10
189.5323453490691
 20
127.0897447768764
 30
0.0000000000000000
340
15C
213
-0.001000000000004775
223
-0.5000000000000000
233
0.0000000000000000
1001
ACAD
1000
DSTYLE
1002
{
1070
   147
1040
0.0
1070
    77
1070
     1
1070
   173
1070
     1
1070
     6
1000
_OPEN
1070
     7
1000
_OPEN
1002
}
  0
MTEXT
  5
15C
102
{ACAD_REACTORS
330
15B
102
}
100
AcDbEntity
  8
MAIN0
  6
CONTINUOUS
 62
3
100
AcDbMText
 10
189.5333453490691
 20
130.6897446815090
 30
0.0000000000000000
 40
3.099999904632568
 41
0.0000000000000000
 71
     1
 72
     1
  1
{\H0.93x;{ M6\P ネジ深12\P マワリドメ用}}
 11
1.000000000000000
 21
0.0000000000000000
 31
0.0000000000000000
  7
KNJYOKO
  0
LEADER
  5
15D
100
AcDbEntity
  8
MAIN0
  6
CONTINUOUS
 62
3
100
AcDbLeader
  3
MAIN001
 73
     0
 75
     1
 40
3.099999904632568
 41
34.41900079154968
 76
     3
 10
85.73137587681737
 20
204.2100484706980
 30
0.0000000000000000
 10
66.15216801785388
 20
170.6236911137582
 30
0.0000000000000000
 10
64.22516807364383
 20
170.6236911137582
 30
0.0000000000000000
340
15E
213
0.0000000000000000
223
-0.5000000000000000
233
0.0000000000000000
1001
ACAD
1000
DSTYLE
1002
{
1070
   147
1040
0.0
1070
    77
1070
     1
1070
   173
1070
     1
1070
     6
1000
_OPEN
1070
     7
1000
_OPEN
1002
}
  0
MTEXT
  5
15E
102
{ACAD_REACTORS
330
15D
102
}
100
AcDbEntity
  8
MAIN0
  6
CONTINUOUS
 62
3
100
AcDbMText
 10
29.80616728209415
 20
174.2236910183908
 30
0.0000000000000000
 40
3.099999904632568
 41
0.0000000000000000
 71
     1
 72
     1
  1
{\H0.94x;{取付ボルト締めつけ用\P  (2-\U+220517)}}
 11
1.000000000000000
 21
0.0000000000000000
 31
0.0000000000000000
  7
KNJYOKO
  0
INSERT
  5
166
100
AcDbEntity
  8
MAIN0
  6
CONTINUOUS
 62
3
100
AcDbBlockReference
  2
D17
 10
507.0224725961455
 20
242.1932140788164
 30
0.0000000000000000
 50
0.0000000000000000
  0
MTEXT
  5
167
100
AcDbEntity
  8
MAIN0
  6
CONTINUOUS
 62
3
100
AcDbMText
 10
517.2826703431682
 20
203.0113417713439
 30
0.0000000000000000
 40
5.000000000000000
 41
0.0000000000000000
 71
     1
 72
     1
  1
{\H0.84x;{※}}
 11
1.000000000000000
 21
0.0000000000000000
 31
0.0000000000000000
  7
KNJYOKO
  0
MTEXT
  5
168
100
AcDbEntity
  8
MAIN0
  6
CONTINUOUS
 62
3
100
AcDbMText
 10
287.2006604402038
 20
43.45210511871926
 30
0.0000000000000000
 40
3.099999904632568
 41
0.0000000000000000
 71
     1
 72
     1
  1
{\H0.94x;{シリンダアダプタ内径寸法（※印）をＭＡＸ９５に設計して下さい}}
 11
1.000000000000000
 21
0.0000000000000000
 31
0.0000000000000000
  7
KNJYOKO
  0
INSERT
  5
16F
100
AcDbEntity
  8
MAIN0
  6
CONTINUOUS
 62
2
100
AcDbBlockReference
  2
M0
 10
0.0000000000000000
 20
0.0000000000000000
 30
0.0000000000000000
 50
0.0000000000000000
  0
INSERT
  5
176
100
AcDbEntity
  8
MAIN0
  6
CONTINUOUS
 62
2
100
AcDbBlockReference
  2
M1
 10
0.0000000000000000
 20
0.0000000000000000
 30
0.0000000000000000
 50
0.0000000000000000
  0
MTEXT
  5
177
100
AcDbEntity
  8
MAIN0
  6
CONTINUOUS
 62
3
100
AcDbMText
 10
496.1690649512869
 20
189.1233866848327
 30
0.0000000000000000
 40
5.000000000000000
 41
0.0000000000000000
 71
     1
 72
     1
  1
{\H0.84x;{Ｐ}}
 11
1.000000000000000
 21
0.0000000000000000
 31
0.0000000000000000
  7
KNJYOKO
  0
MTEXT
  5
178
100
AcDbEntity
  8
MAIN0
  6
CONTINUOUS
 62
3
100
AcDbMText
 10
496.1690649512869
 20
303.5586035306543
 30
0.0000000000000000
 40
5.000000000000000
 41
0.0000000000000000
 71
     1
 72
     1
  1
{\H0.84x;{Ｐ}}
 11
1.000000000000000
 21
0.0000000000000000
 31
0.0000000000000000
  7
KNJYOKO
  0
CIRCLE
  5
179
100
AcDbEntity
  8
MAIN0
  6
CONTINUOUS
 62
3
100
AcDbCircle
 10
155.7195003697416
 20
242.1932140788164
 30
0.0000000000000000
 40
19.50000000000000
  0
LEADER
  5
17A
100
AcDbEntity
  8
MAIN0
  6
CONTINUOUS
 62
3
100
AcDbLeader
  3
MAIN001
 73
     0
 74
     0
 75
     1
 40
3.099999904632568
 41
13.54100031948087
 76
     3
 10
174.2505373238099
 20
248.2636892996663
 30
0.0000000000000000
 10
270.7338276709448
 20
279.8700923698283
 30
0.0000000000000000
 10
272.6588276151549
 20
279.8700923698283
 30
0.0000000000000000
340
17B
213
0.0000000000000000
223
-0.5000000000000000
233
0.0000000000000000
1001
ACAD
1000
DSTYLE
1002
{
1070
   147
1040
0.0
1070
    77
1070
     1
1070
   173
1070
     1
1070
     6
1000
_OPEN
1070
     7
1000
_OPEN
1002
}
  0
MTEXT
  5
17B
102
{ACAD_REACTORS
330
17A
102
}
100
AcDbEntity
  8
MAIN0
  6
CONTINUOUS
 62
3
100
AcDbMText
 10
272.6598276151549
 20
283.4700922744609
 30
0.0000000000000000
 40
3.099999904632568
 41
0.0000000000000000
 71
     1
 72
     1
  1
{\H0.92x;{メイバン}}
 11
1.000000000000000
 21
0.0000000000000000
 31
0.0000000000000000
  7
KNJYOKO
  0
DIMENSION
  5
184
100
AcDbEntity
  8
MAIN0
  6
CONTINUOUS
 62
3
100
AcDbDimension
  2
*D18
 10
45.54926745606065
 20
255.1932140788130
 30
0.0000000000000000
 11
45.04926745606065
 21
239.0182139923862
 31
0.0000000000000000
 70
32
  3
MAIN001
100
AcDbAlignedDimension
 13
66.49252341921343
 23
229.1932140788129
 33
0.0000000000000000
 14
66.66940487667395
 24
255.1932140788130
 34
0.0000000000000000
 50
90.00000000000000
100
AcDbRotatedDimension
1001
ACAD
1000
DSTYLE
1002
{
1070
   173
1070
     1
1070
     6
1000
_OPEN
1070
     7
1000
_OPEN
1070
    41
1040
2.000000
1070
   272
1070
     1
1070
    47
1040
0.200000
1070
    48
1040
0.200000
1070
    71
1070
     1
1002
}
  0
DIMENSION
  5
18C
100
AcDbEntity
  8
MAIN0
  6
CONTINUOUS
 62
3
100
AcDbDimension
  2
*D19
 10
73.21950036974167
 20
269.8541978928816
 30
0.0000000000000000
 11
111.2945002833122
 21
270.3541978928816
 31
0.0000000000000000
 70
32
  3
MAIN001
100
AcDbAlignedDimension
 13
155.7195003697362
 23
370.8328085350690
 33
0.0000000000000000
 14
73.21950036974167
 24
261.9781589437808
 34
0.0000000000000000
100
AcDbRotatedDimension
1001
ACAD
1000
DSTYLE
1002
{
1070
   173
1070
     1
1070
     6
1000
_OPEN
1070
     7
1000
_OPEN
1070
    41
1040
2.000000
1070
   272
1070
     1
1070
    47
1040
0.100000
1070
    48
1040
0.100000
1070
    71
1070
     1
1002
}
  0
LEADER
  5
18D
100
AcDbEntity
  8
MAIN0
  6
CONTINUOUS
 62
3
100
AcDbLeader
  3
MAIN001
 73
     0
 75
     1
 40
3.099999904632568
 41
15.63900040292740
 76
     3
 10
71.94137619058643
 20
257.9073250902973
 30
0.0000000000000000
 10
62.27623917794000
 20
278.4313518017423
 30
0.0000000000000000
 10
60.34923923372995
 20
278.4313518017423
 30
0.0000000000000000
340
18E
213
0.0000000000000000
223
-0.5000000000000000
233
0.0000000000000000
1001
ACAD
1000
DSTYLE
1002
{
1070
   147
1040
0.0
1070
    77
1070
     1
1070
   173
1070
     1
1070
     6
1000
_OPEN
1070
     7
1000
_OPEN
1002
}
  0
MTEXT
  5
18E
102
{ACAD_REACTORS
330
18D
102
}
100
AcDbEntity
  8
MAIN0
  6
CONTINUOUS
 62
3
100
AcDbMText
 10
44.71023883080255
 20
282.0313517063748
 30
0.0000000000000000
 40
3.099999904632568
 41
0.0000000000000000
 71
     1
 72
     1
  1
{\H0.92x;{2-M6\Pネジ深12}}
 11
1.000000000000000
 21
0.0000000000000000
 31
0.0000000000000000
  7
KNJYOKO
  0
MTEXT
  5
18F
100
AcDbEntity
  8
MAIN0
  6
CONTINUOUS
 62
3
100
AcDbMText
 10
110.8450165214112
 20
379.7228878845625
 30
0.0000000000000000
 40
4.000000000000000
 41
0.0000000000000000
 71
     1
 72
     1
  1
{\H0.63x;{Detectable plate}}
 11
1.000000000000000
 21
0.0000000000000000
 31
0.0000000000000000
  7
STANDARD
  0
MTEXT
  5
190
100
AcDbEntity
  8
MAIN0
  6
CONTINUOUS
 62
3
100
AcDbMText
 10
104.5973705841331
 20
359.9799514913520
 30
0.0000000000000000
 40
3.000000000000000
 41
0.0000000000000000
 71
     1
 72
     1
  1
{\H0.63x;{Confirmation chuck open}}
 11
1.000000000000000
 21
0.0000000000000000
 31
0.0000000000000000
  7
STANDARD
  0
MTEXT
  5
191
100
AcDbEntity
  8
MAIN0
  6
CONTINUOUS
 62
3
100
AcDbMText
 10
193.8494551997308
 20
360.7237188986143
 30
0.0000000000000000
 40
3.000000000000000
 41
0.0000000000000000
 71
     1
 72
     1
  1
{\H0.63x;{Confirmation chuck close}}
 11
1.000000000000000
 21
0.0000000000000000
 31
0.0000000000000000
  7
STANDARD
  0
MTEXT
  5
192
100
AcDbEntity
  8
MAIN0
  6
CONTINUOUS
 62
3
100
AcDbMText
 10
272.9936111761714
 20
277.7965781161347
 30
0.0000000000000000
 40
3.000000000000000
 41
0.0000000000000000
 71
     1
 72
     1
  1
{\H0.63x;{Name plate}}
 11
1.000000000000000
 21
0.0000000000000000
 31
0.0000000000000000
  7
STANDARD
  0
MTEXT
  5
193
100
AcDbEntity
  8
MAIN0
  6
CONTINUOUS
 62
3
100
AcDbMText
 10
36.30555174901866
 20
273.5311995515580
 30
0.0000000000000000
 40
3.000000000000000
 41
0.0000000000000000
 71
     1
 72
     1
  1
{\H0.63x;{Thread depth 12}}
 11
1.000000000000000
 21
0.0000000000000000
 31
0.0000000000000000
  7
STANDARD
  0
MTEXT
  5
194
100
AcDbEntity
  8
MAIN0
  6
CONTINUOUS
 62
3
100
AcDbMText
 10
188.4400650309392
 20
118.5961480673157
 30
0.0000000000000000
 40
3.000000000000000
 41
0.0000000000000000
 71
     1
 72
     1
  1
{\H0.63x;{Thread depth 12}}
 11
1.000000000000000
 21
0.0000000000000000
 31
0.0000000000000000
  7
STANDARD
  0
MTEXT
  5
195
100
AcDbEntity
  8
MAIN0
  6
CONTINUOUS
 62
3
100
AcDbMText
 10
188.8068249002560
 20
113.7735915686874
 30
0.0000000000000000
 40
3.000000000000000
 41
0.0000000000000000
 71
     1
 72
     1
  1
{\H0.63x;{For preventing the rotation }}
 11
1.000000000000000
 21
0.0000000000000000
 31
0.0000000000000000
  7
STANDARD
  0
MTEXT
  5
196
100
AcDbEntity
  8
MAIN0
  6
CONTINUOUS
 62
3
100
AcDbMText
 10
30.82778121543373
 20
183.1848791169563
 30
0.0000000000000000
 40
3.000000000000000
 41
0.0000000000000000
 71
     1
 72
     1
  1
{\H0.63x;{For tightening the\P mounting bolts}}
 11
1.000000000000000
 21
0.0000000000000000
 31
0.0000000000000000
  7
STANDARD
  0
MTEXT
  5
197
100
AcDbEntity
  8
MAIN0
  6
CONTINUOUS
 62
3
100
AcDbMText
 10
532.4369465000498
 20
90.66260119667797
 30
0.0000000000000000
 40
4.000000000000000
 41
0.0000000000000000
 71
     1
 72
     1
  1
{\H0.63x;{Section}}
 11
1.000000000000000
 21
0.0000000000000000
 31
0.0000000000000000
  7
STANDARD
  0
INSERT
  5
1C2
100
AcDbEntity
  8
MAIN0
  6
CONTINUOUS
 62
3
100
AcDbBlockReference
  2
M2
 10
0.0000000000000000
 20
0.0000000000000000
 30
0.0000000000000000
 50
0.0000000000000000
  0
SPLINE
  5
1C3
100
AcDbEntity
  8
MAIN0
  6
CONTINUOUS
 62
3
100
AcDbSpline
210
0.0000000000000000
220
0.0000000000000000
230
1.000000000000000
 70
     8
 71
     3
 72
    12
 73
     8
 74
     0
 42
1.000000000000000e-007
 43
1.000000000000000e-007
 12
1.088657757375245
 22
-0.2454003001441265
 32
0.0000000000000000
 13
1.019329887020319
 23
0.2080119081591079
 33
0.0000000000000000
 40
0.0000000000000000
 40
0.0000000000000000
 40
0.0000000000000000
 40
0.0000000000000000
 40
1.630542417238351
 40
4.194692270786582
 40
6.948947427696034
 40
7.467909438373205
 40
8.161628223834228
 40
8.161628223834228
 40
8.161628223834228
 40
8.161628223834228
 10
96.65382200009270
 20
56.41967138363597
 30
0.0000000000000000
 10
97.24552288384467
 20
56.28629285077329
 30
0.0000000000000000
 10
98.76771764397620
 20
55.94316660335224
 30
0.0000000000000000
 10
99.67302525374157
 20
60.82179621831858
 30
0.0000000000000000
 10
97.02368197364166
 20
56.93932177932123
 30
0.0000000000000000
 10
98.23002127073369
 20
56.09409974996660
 30
0.0000000000000000
 10
98.64206186370666
 20
56.17818376543067
 30
0.0000000000000000
 10
98.87777129410927
 20
56.22628435486053
 30
0.0000000000000000
  0
ARC
  5
1C4
100
AcDbEntity
  8
MAIN0
  6
CONTINUOUS
 62
3
100
AcDbCircle
 10
155.7195003697416
 20
242.1932140788164
 30
0.0000000000000000
 40
89.50000000000000
100
AcDbArc
 50
102.9125472135449
 51
437.0874394596342
  0
ARC
  5
1C5
100
AcDbEntity
  8
MAIN0
  6
CONTINUOUS
 62
3
100
AcDbCircle
 10
155.7195003697416
 20
242.1932140788164
 30
0.0000000000000000
 40
91.10000000009313
100
AcDbArc
 50
105.0000000004186
 51
414.9999999997444
  0
LINE
  5
1C6
100
AcDbEntity
  8
MAIN0
  6
CONTINUOUS
 62
3
100
AcDbLine
 10
132.5551958324254
 20
328.6435755315143
 30
0.0000000000000000
 11
132.1410853602350
 21
330.1890568536683
 31
0.0000000000000000
  0
LINE
  5
1C7
100
AcDbEntity
  8
MAIN0
  6
PHANTOM
 62
3
100
AcDbLine
 10
355.7195003697414
 20
331.6932140788174
 30
0.0000000000000000
 11
356.7195003697423
 21
330.6932140788167
 31
0.0000000000000000
  0
LINE
  5
1C8
100
AcDbEntity
  8
MAIN0
  6
PHANTOM
 62
3
100
AcDbLine
 10
355.7195003697414
 20
331.6932140788176
 30
0.0000000000000000
 11
355.7195003697414
 21
338.9932140788167
 31
0.0000000000000000
  0
LINE
  5
1C9
100
AcDbEntity
  8
MAIN0
  6
PHANTOM
 62
3
100
AcDbLine
 10
356.2610003697414
 20
331.1517140788174
 30
0.0000000000000000
 11
356.2610003697414
 21
338.9932140788167
 31
0.0000000000000000
  0
LINE
  5
1CA
100
AcDbEntity
  8
MAIN0
  6
PHANTOM
 62
3
100
AcDbLine
 10
355.7195003697414
 20
331.6932140788165
 30
0.0000000000000000
 11
359.6118071118063
 21
331.6932140788165
 31
0.0000000000000000
  0
LINE
  5
1CB
100
AcDbEntity
  8
MAIN0
  6
PHANTOM
 62
3
100
AcDbLine
 10
356.7195003697423
 20
330.6932140788167
 30
0.0000000000000000
 11
359.6118071118063
 21
330.6932140788167
 31
0.0000000000000000
  0
LINE
  5
1CC
100
AcDbEntity
  8
MAIN0
  6
PHANTOM
 62
3
100
AcDbLine
 10
341.7195003697415
 20
329.1932140788165
 30
0.0000000000000000
 11
368.7195003697415
 21
329.1932140788165
 31
0.0000000000000000
  0
LINE
  5
1CD
100
AcDbEntity
  8
MAIN0
  6
PHANTOM
 62
3
100
AcDbLine
 10
344.7195003697415
 20
326.6932140788165
 30
0.0000000000000000
 11
367.7195003697415
 21
326.6932140788165
 31
0.0000000000000000
  0
LINE
  5
1CE
100
AcDbEntity
  8
MAIN0
  6
PHANTOM
 62
3
100
AcDbLine
 10
368.7195003697415
 20
326.6932140788165
 30
0.0000000000000000
 11
368.7195003697415
 21
329.1932140788166
 31
0.0000000000000000
  0
LINE
  5
1CF
100
AcDbEntity
  8
MAIN0
  6
PHANTOM
 62
3
100
AcDbLine
 10
344.7195003697415
 20
278.1932140788164
 30
0.0000000000000000
 11
344.7195003697415
 21
326.6932140788166
 31
0.0000000000000000
  0
LINE
  5
1D0
100
AcDbEntity
  8
MAIN0
  6
PHANTOM
 62
3
100
AcDbLine
 10
341.7195003697415
 20
278.5932140788164
 30
0.0000000000000000
 11
341.7195003697415
 21
329.1932140788165
 31
0.0000000000000000
  0
LINE
  5
1D1
100
AcDbEntity
  8
MAIN0
  6
CONTINUOUS
 62
3
100
AcDbLine
 10
315.7195003697405
 20
318.6932140788165
 30
0.0000000000000000
 11
315.7195003697426
 21
321.6932140788165
 31
0.0000000000000000
  0
LINE
  5
1D2
100
AcDbEntity
  8
MAIN0
  6
CENTER
 62
3
100
AcDbLine
 10
305.7195003697416
 20
331.2932140788166
 30
0.0000000000000000
 11
306.1195003697416
 21
331.6932140788166
 31
0.0000000000000000
  0
LINE
  5
1D3
100
AcDbEntity
  8
MAIN0
  6
CENTER
 62
3
100
AcDbLine
 10
306.1195003697416
 20
331.6932140788166
 30
0.0000000000000000
 11
312.5195003697409
 21
331.6932140788166
 31
0.0000000000000000
  0
LINE
  5
1D4
100
AcDbEntity
  8
MAIN0
  6
CENTER
 62
3
100
AcDbLine
 10
305.7195003697416
 20
318.6932140788165
 30
0.0000000000000000
 11
305.7195003697416
 21
331.2932140788166
 31
0.0000000000000000
  0
LINE
  5
1D5
100
AcDbEntity
  8
MAIN0
  6
CENTER
 62
3
100
AcDbLine
 10
443.7195003697409
 20
194.6932140788164
 30
0.0000000000000000
 11
507.0224725961455
 21
194.6932140788164
 31
0.0000000000000000
  0
LINE
  5
1D6
100
AcDbEntity
  8
MAIN0
  6
CENTER
 62
3
100
AcDbLine
 10
443.7195003697409
 20
289.6932140788164
 30
0.0000000000000000
 11
507.0224725961455
 21
289.6932140788164
 31
0.0000000000000000
  0
DIMENSION
  5
1DF
100
AcDbEntity
  8
MAIN0
  6
CONTINUOUS
 62
3
100
AcDbDimension
  2
*D20
 10
443.7195003697409
 20
135.8020635727746
 30
0.0000000000000000
 11
379.7195003697430
 21
136.3020635727746
 31
0.0000000000000000
 70
32
  3
MAIN001
100
AcDbAlignedDimension
 13
315.7195003697452
 23
149.9931604304184
 33
0.0000000000000000
 14
443.7195003697409
 24
160.1932140788164
 34
0.0000000000000000
100
AcDbRotatedDimension
1001
ACAD
1000
DSTYLE
1002
{
1070
   173
1070
     1
1070
     6
1000
_OPEN
1070
     7
1000
_OPEN
1070
    41
1040
2.000000
1002
}
  0
DIMENSION
  5
1E8
100
AcDbEntity
  8
MAIN0
  6
CONTINUOUS
 62
3
100
AcDbDimension
  2
*D21
 10
443.7195003697409
 20
126.8020635727745
 30
0.0000000000000000
 11
374.7195003697412
 21
127.3020635727745
 31
0.0000000000000000
 70
32
  3
MAIN001
100
AcDbAlignedDimension
 13
305.7195003697416
 23
151.0932140788164
 33
0.0000000000000000
 14
443.7195003697409
 24
160.1932140788164
 34
0.0000000000000000
100
AcDbRotatedDimension
1001
ACAD
1000
DSTYLE
1002
{
1070
   173
1070
     1
1070
     6
1000
_OPEN
1070
     7
1000
_OPEN
1070
    41
1040
2.000000
1002
}
  0
DIMENSION
  5
1F1
100
AcDbEntity
  8
MAIN0
  6
CONTINUOUS
 62
3
100
AcDbDimension
  2
*D22
 10
443.7195003697409
 20
135.8020635727746
 30
0.0000000000000000
 11
450.7195003697411
 21
136.3020635727746
 31
0.0000000000000000
 70
32
  3
MAIN001
100
AcDbAlignedDimension
 13
457.7195003697414
 23
164.6932140788164
 33
0.0000000000000000
 14
443.7195003697409
 24
160.1932140788164
 34
0.0000000000000000
100
AcDbRotatedDimension
1001
ACAD
1000
DSTYLE
1002
{
1070
   173
1070
     1
1070
     6
1000
_OPEN
1070
     7
1000
_OPEN
1070
    41
1040
2.000000
1002
}
  0
MTEXT
  5
1F2
100
AcDbEntity
  8
MAIN0
  6
CONTINUOUS
 62
3
100
AcDbMText
 10
82.75210210161907
 20
125.0515967978632
 30
0.0000000000000000
 40
3.099999904632568
 41
0.0000000000000000
 71
     1
 72
     1
  1
{\H0.88x;{39}}
 11
1.000000000000000
 21
0.0000000000000000
 31
0.0000000000000000
  7
STANDARD
  0
MTEXT
  5
1F3
100
AcDbEntity
  8
MAIN0
  6
CONTINUOUS
 62
3
100
AcDbMText
 10
82.75210210161907
 20
115.0515967978631
 30
0.0000000000000000
 40
3.099999904632568
 41
0.0000000000000000
 71
     1
 72
     1
  1
{\H0.88x;{38}}
 11
1.000000000000000
 21
0.0000000000000000
 31
0.0000000000000000
  7
STANDARD
  0
MTEXT
  5
1F4
100
AcDbEntity
  8
MAIN0
  6
CONTINUOUS
 62
3
100
AcDbMText
 10
45.66979505698771
 20
116.5515967978633
 30
0.0000000000000000
 40
3.099999904632568
 41
0.0000000000000000
 71
     1
 72
     1
  1
{\H0.76x;{4.0}}
 11
1.000000000000000
 21
0.0000000000000000
 31
0.0000000000000000
  7
STANDARD
  0
LINE
  5
1F5
100
AcDbEntity
  8
MAIN0
  6
CONTINUOUS
 62
3
100
AcDbLine
 10
305.7195003697416
 20
269.5932140788322
 30
0.0000000000000000
 11
306.4123206927968
 21
269.1932140788163
 31
0.0000000000000000
  0
LINE
  5
1F6
100
AcDbEntity
  8
MAIN0
  6
CONTINUOUS
 62
3
100
AcDbLine
 10
305.7195003697416
 20
268.7932140788006
 30
0.0000000000000000
 11
306.4123206927968
 21
269.1932140788164
 31
0.0000000000000000
  0
LINE
  5
1F7
100
AcDbEntity
  8
MAIN0
  6
CENTER
 62
3
100
AcDbLine
 10
307.2911667963479
 20
269.1932140788164
 30
0.0000000000000000
 11
304.9030137535845
 21
269.1932140788164
 31
0.0000000000000000
  0
LINE
  5
1F8
100
AcDbEntity
  8
MAIN0
  6
CONTINUOUS
 62
3
100
AcDbLine
 10
305.7195003697416
 20
214.7932140788006
 30
0.0000000000000000
 11
306.4123206927968
 21
215.1932140788164
 31
0.0000000000000000
  0
LINE
  5
1F9
100
AcDbEntity
  8
MAIN0
  6
CENTER
 62
3
100
AcDbLine
 10
307.2911667963479
 20
215.1932140788164
 30
0.0000000000000000
 11
304.9030137535845
 21
215.1932140788164
 31
0.0000000000000000
  0
LINE
  5
1FA
100
AcDbEntity
  8
MAIN0
  6
CONTINUOUS
 62
3
100
AcDbLine
 10
305.7195003697416
 20
215.5932140788322
 30
0.0000000000000000
 11
306.4123206927968
 21
215.1932140788163
 31
0.0000000000000000
  0
CIRCLE
  5
1FB
100
AcDbEntity
  8
MAIN1
  6
CENTER
 62
3
100
AcDbCircle
 10
155.7195003697416
 20
242.1932140788164
 30
0.0000000000000000
 40
27.00000000000005
  0
ARC
  5
1FC
100
AcDbEntity
  8
MAIN1
  6
CONTINUOUS
 62
3
100
AcDbCircle
 10
155.7195003697416
 20
242.1932140788164
 30
0.0000000000000000
 40
27.40000000002327
100
AcDbArc
 50
74.65441111112496
 51
150.3455888885251
  0
ARC
  5
1FD
100
AcDbEntity
  8
MAIN1
  6
CONTINUOUS
 62
3
100
AcDbCircle
 10
155.7195003697416
 20
242.1932140788164
 30
0.0000000000000000
 40
26.59999999997671
100
AcDbArc
 50
72.44599514240863
 51
152.5540048572414
  0
ARC
  5
1FE
100
AcDbEntity
  8
MAIN1
  6
CONTINUOUS
 62
3
100
AcDbCircle
 10
155.7195003697416
 20
242.1932140788164
 30
0.0000000000000000
 40
27.40000000002327
100
AcDbArc
 50
344.6544111111248
 51
420.3455888885250
  0
ARC
  5
1FF
100
AcDbEntity
  8
MAIN1
  6
CONTINUOUS
 62
3
100
AcDbCircle
 10
155.7195003697416
 20
242.1932140788164
 30
0.0000000000000000
 40
26.59999999997671
100
AcDbArc
 50
342.4459951424085
 51
422.5540048572413
  0
ARC
  5
200
100
AcDbEntity
  8
MAIN1
  6
CONTINUOUS
 62
3
100
AcDbCircle
 10
155.7195003697416
 20
242.1932140788164
 30
0.0000000000000000
 40
27.40000000002327
100
AcDbArc
 50
254.6544111111249
 51
330.3455888885251
  0
ARC
  5
201
100
AcDbEntity
  8
MAIN1
  6
CONTINUOUS
 62
3
100
AcDbCircle
 10
155.7195003697416
 20
242.1932140788164
 30
0.0000000000000000
 40
26.59999999997671
100
AcDbArc
 50
252.4459951424085
 51
332.5540048572414
  0
ARC
  5
202
100
AcDbEntity
  8
MAIN1
  6
CONTINUOUS
 62
3
100
AcDbCircle
 10
155.7195003697416
 20
242.1932140788164
 30
0.0000000000000000
 40
27.40000000002327
100
AcDbArc
 50
164.6544111111250
 51
240.3455888885252
  0
ARC
  5
203
100
AcDbEntity
  8
MAIN1
  6
CONTINUOUS
 62
3
100
AcDbCircle
 10
155.7195003697416
 20
242.1932140788164
 30
0.0000000000000000
 40
26.59999999997671
100
AcDbArc
 50
162.4459951424087
 51
242.5540048572416
  0
MTEXT
  5
204
100
AcDbEntity
  8
MAIN0
  6
CONTINUOUS
 62
3
100
AcDbMText
 10
520.5503750584043
 20
238.0434589809135
 30
0.0000000000000000
 40
5.000000000000000
 41
0.0000000000000000
 71
     1
 72
     1
  1
{\H0.84x;{★}}
 11
1.000000000000000
 21
0.0000000000000000
 31
0.0000000000000000
  7
KNJYOKO
  0
MTEXT
  5
205
100
AcDbEntity
  8
MAIN0
  6
CONTINUOUS
 62
3
100
AcDbMText
 10
530.3936018407469
 20
237.6574517398855
 30
0.0000000000000000
 40
5.000000000000000
 41
0.0000000000000000
 71
     1
 72
     1
  1
{\H0.84x;{★}}
 11
1.000000000000000
 21
0.0000000000000000
 31
0.0000000000000000
  7
KNJYOKO
  0
ARC
  5
206
100
AcDbEntity
  8
MAIN0
  6
CONTINUOUS
 62
3
100
AcDbCircle
 10
543.3434446716592
 20
133.9633656628423
 30
0.0000000000000000
 40
15.50000000000000
100
AcDbArc
 50
29.42870717687918
 51
150.5712928231441
  0
ARC
  5
207
100
AcDbEntity
  8
MAIN0
  6
CONTINUOUS
 62
3
100
AcDbCircle
 10
543.3434446716592
 20
133.9633656628423
 30
0.0000000000000000
 40
15.50000000000000
100
AcDbArc
 50
209.4287071768781
 51
330.5712928231431
  0
LINE
  5
208
100
AcDbEntity
  8
MAIN0
  6
PHANTOM
 62
3
100
AcDbLine
 10
351.7195003697414
 20
346.3932140788166
 30
0.0000000000000000
 11
351.7195003697414
 21
345.3932140788166
 31
0.0000000000000000
  0
LINE
  5
209
100
AcDbEntity
  8
MAIN0
  6
PHANTOM
 62
3
100
AcDbLine
 10
351.7195003697414
 20
346.3932140788166
 30
0.0000000000000000
 11
359.1215679190354
 21
346.3932140788166
 31
0.0000000000000000
  0
LINE
  5
20A
100
AcDbEntity
  8
MAIN0
  6
PHANTOM
 62
3
100
AcDbLine
 10
353.2195003685828
 20
346.3932140788167
 30
0.0000000000000000
 11
351.9045457934603
 21
347.1524034567340
 31
0.0000000000000000
  0
LINE
  5
20B
100
AcDbEntity
  8
MAIN0
  6
PHANTOM
 62
3
100
AcDbLine
 10
351.9045457934602
 20
349.6340247008993
 30
0.0000000000000000
 11
351.9045457934598
 21
347.1524034567344
 31
0.0000000000000000
  0
LINE
  5
20C
100
AcDbEntity
  8
MAIN0
  6
PHANTOM
 62
3
100
AcDbLine
 10
353.2195003685829
 20
350.3932140788166
 30
0.0000000000000000
 11
351.9045457934603
 21
349.6340247008993
 31
0.0000000000000000
  0
ARC
  5
20D
100
AcDbEntity
  8
MAIN0
  6
PHANTOM
 62
3
100
AcDbCircle
 10
351.7799817261518
 20
335.4624476524709
 30
0.0000000000000000
 40
15.00000000000000
100
AcDbArc
 50
70.39891412180502
 51
84.49296850791762
  0
ARC
  5
20E
100
AcDbEntity
  8
MAIN0
  6
PHANTOM
 62
3
100
AcDbCircle
 10
351.7799817261518
 20
361.3239805051625
 30
0.0000000000000000
 40
15.00000000000000
100
AcDbArc
 50
275.5070314920824
 51
289.6010858781950
  0
LINE
  5
20F
100
AcDbEntity
  8
MAIN0
  6
PHANTOM
 62
3
100
AcDbLine
 10
356.8120230817110
 20
349.5932140788167
 30
0.0000000000000000
 11
356.8120230817096
 21
347.1932140788172
 31
0.0000000000000000
  0
LINE
  5
210
100
AcDbEntity
  8
MAIN0
  6
PHANTOM
 62
3
100
AcDbLine
 10
353.2195003685830
 20
350.3932140788166
 30
0.0000000000000000
 11
359.1215679190354
 21
350.3932140788166
 31
0.0000000000000000
  0
ARC
  5
211
100
AcDbEntity
  8
MAIN0
  6
PHANTOM
 62
3
100
AcDbCircle
 10
361.7195003697413
 20
334.9411307459835
 30
0.0000000000000000
 40
15.45208333283322
100
AcDbArc
 50
99.67901206646465
 51
108.5174368232250
  0
ARC
  5
212
100
AcDbEntity
  8
MAIN0
  6
PHANTOM
 62
3
100
AcDbCircle
 10
361.7195003697413
 20
361.8452974116499
 30
0.0000000000000000
 40
15.45208333283322
100
AcDbArc
 50
251.4825631767750
 51
260.3209879335345
  0
LINE
  5
213
100
AcDbEntity
  8
MAIN0
  6
PHANTOM
 62
3
100
AcDbLine
 10
356.2610003697414
 20
361.2347140788310
 30
0.0000000000000000
 11
356.2610003697414
 21
350.3932140788166
 31
0.0000000000000000
  0
LINE
  5
214
100
AcDbEntity
  8
MAIN0
  6
PHANTOM
 62
3
100
AcDbLine
 10
355.7195003697414
 20
360.6932140788167
 30
0.0000000000000000
 11
355.7195003697414
 21
350.3932140788166
 31
0.0000000000000000
  0
LINE
  5
215
100
AcDbEntity
  8
MAIN0
  6
PHANTOM
 62
3
100
AcDbLine
 10
356.7195003697040
 20
363.6932140788168
 30
0.0000000000000000
 11
356.7195003697028
 21
361.6932140788168
 31
0.0000000000000000
  0
LINE
  5
216
100
AcDbEntity
  8
MAIN0
  6
PHANTOM
 62
3
100
AcDbLine
 10
355.7195003697283
 20
360.6932140788167
 30
0.0000000000000000
 11
356.7195003697261
 21
361.6932140788167
 31
0.0000000000000000
  0
LINE
  5
217
100
AcDbEntity
  8
MAIN0
  6
PHANTOM
 62
3
100
AcDbLine
 10
355.7195003697414
 20
360.6932140788167
 30
0.0000000000000000
 11
359.1215679190354
 21
360.6932140788167
 31
0.0000000000000000
  0
LINE
  5
218
100
AcDbEntity
  8
MAIN0
  6
PHANTOM
 62
3
100
AcDbLine
 10
356.7195003697261
 20
361.6932140788167
 30
0.0000000000000000
 11
359.1215679190354
 21
361.6932140788167
 31
0.0000000000000000
  0
LINE
  5
219
100
AcDbEntity
  8
MAIN0
  6
PHANTOM
 62
3
100
AcDbLine
 10
356.7195003697261
 20
363.6932140788167
 30
0.0000000000000000
 11
359.1215679190354
 21
363.6932140788167
 31
0.0000000000000000
  0
MTEXT
  5
21A
100
AcDbEntity
  8
MAIN4
  6
CONTINUOUS
 62
3
100
AcDbMText
 10
357.8434395724769
 20
389.6323119773171
 30
0.0000000000000000
 40
3.000000000000000
 41
0.0000000000000000
 71
     1
 72
     1
  1
{\H0.63x;{PROXIMITY　SWITCHES\PCustomer arrangements}}
 11
1.000000000000000
 21
0.0000000000000000
 31
0.0000000000000000
  7
KNJYOKO
  0
LEADER
  5
21B
100
AcDbEntity
  8
MAIN0
  6
CONTINUOUS
 62
3
100
AcDbLeader
  3
MAIN001
 73
     3
 74
     0
 75
     0
 76
     2
 10
358.6029535643401
 20
353.7514776475036
 30
0.0000000000000000
 10
349.8135482236992
 20
394.1932140788165
 30
0.0000000000000000
1001
ACAD
1000
DSTYLE
1002
{
1070
   173
1070
     1
1070
     6
1000
_DOT
1070
     7
1000
_DOT
1002
}
  0
LEADER
  5
21C
100
AcDbEntity
  8
MAIN0
  6
CONTINUOUS
 62
3
100
AcDbLeader
  3
MAIN001
 73
     0
 74
     0
 75
     1
 40
3.099999904632568
 41
20.96828528938238
 76
     3
 10
372.4304187358185
 20
353.7514776475037
 30
0.0000000000000000
 10
349.8135482236992
 20
394.1932140788165
 30
0.0000000000000000
 10
351.7385481679092
 20
394.1932140788165
 30
0.0000000000000000
340
21D
213
-0.4682848125452210
223
-0.5000000000000000
233
0.0000000000000000
1001
ACAD
1000
DSTYLE
1002
{
1070
   147
1040
0.0
1070
    77
1070
     1
1070
   173
1070
     1
1070
     6
1000
_DOT
1070
     7
1000
_DOT
1002
}
  0
MTEXT
  5
21D
102
{ACAD_REACTORS
330
21C
102
}
100
AcDbEntity
  8
MAIN0
  6
CONTINUOUS
 62
3
100
AcDbMText
 10
352.2068329804545
 20
397.7932139834491
 30
0.0000000000000000
 40
3.099999904632568
 41
0.0000000000000000
 71
     1
 72
     1
  1
{\H0.93x;{近接スイッチ\P客様殿手配品}}
 11
1.000000000000000
 21
0.0000000000000000
 31
0.0000000000000000
  7
KNJYOKO
  0
LINE
  5
21E
100
AcDbEntity
  8
MAIN0
  6
CONTINUOUS
 62
3
100
AcDbLine
 10
305.7195003697416
 20
269.5932140788322
 30
0.0000000000000000
 11
305.7195003697416
 21
318.2932140788166
 31
0.0000000000000000
  0
LINE
  5
21F
100
AcDbEntity
  8
MAIN0
  6
CONTINUOUS
 62
3
100
AcDbLine
 10
305.7195003697416
 20
267.5932140788323
 30
0.0000000000000000
 11
305.7195003697416
 21
268.7932140788006
 31
0.0000000000000000
  0
LINE
  5
220
100
AcDbEntity
  8
MAIN0
  6
CONTINUOUS
 62
3
100
AcDbLine
 10
305.7195003697416
 20
265.5932140788323
 30
0.0000000000000000
 11
305.7195003697416
 21
266.7932140788005
 31
0.0000000000000000
  0
LINE
  5
221
100
AcDbEntity
  8
MAIN0
  6
CONTINUOUS
 62
3
100
AcDbLine
 10
305.7195003697416
 20
219.5932140788322
 30
0.0000000000000000
 11
305.7195003697416
 21
264.7932140788005
 31
0.0000000000000000
  0
LINE
  5
222
100
AcDbEntity
  8
MAIN0
  6
CONTINUOUS
 62
3
100
AcDbLine
 10
305.7195003697416
 20
217.5932140788322
 30
0.0000000000000000
 11
305.7195003697416
 21
218.7932140788006
 31
0.0000000000000000
  0
LINE
  5
223
100
AcDbEntity
  8
MAIN0
  6
CONTINUOUS
 62
3
100
AcDbLine
 10
305.7195003697416
 20
151.0932140788164
 30
0.0000000000000000
 11
305.7195003697416
 21
214.7932140788006
 31
0.0000000000000000
  0
LINE
  5
224
100
AcDbEntity
  8
MAIN0
  6
CONTINUOUS
 62
3
100
AcDbLine
 10
305.7195003697416
 20
215.5932140788322
 30
0.0000000000000000
 11
305.7195003697416
 21
216.7932140788006
 31
0.0000000000000000
  0
SPLINE
  5
225
100
AcDbEntity
  8
MAIN0
  6
CONTINUOUS
 62
3
100
AcDbSpline
210
0.0000000000000000
220
0.0000000000000000
230
1.000000000000000
 70
     8
 71
     3
 72
     9
 73
     5
 74
     0
 42
1.000000000000000e-007
 43
1.000000000000000e-007
 12
0.1230168863521612
 22
-1.040546056955918
 32
0.0000000000000000
 13
-0.7688843352948425
 23
-0.7465776530696076
 33
0.0000000000000000
 40
0.0000000000000000
 40
0.0000000000000000
 40
0.0000000000000000
 40
0.0000000000000000
 40
0.4674879486228285
 40
1.129799018780225
 40
1.129799018780225
 40
1.129799018780225
 40
1.129799018780225
 10
463.8209097624328
 20
258.1932140788164
 30
0.0000000000000000
 10
463.8400793997150
 20
258.0310664982784
 30
0.0000000000000000
 10
463.8864075188797
 20
257.6391971935636
 30
0.0000000000000000
 10
463.5968459296892
 20
257.3580362936031
 30
0.0000000000000000
 10
463.4270990607104
 20
257.1932140788164
 30
0.0000000000000000
  0
SPLINE
  5
226
100
AcDbEntity
  8
MAIN0
  6
CONTINUOUS
 62
3
100
AcDbSpline
210
0.0000000000000000
220
0.0000000000000000
230
1.000000000000000
 70
     8
 71
     3
 72
     9
 73
     5
 74
     0
 42
1.000000000000000e-007
 43
1.000000000000000e-007
 12
-0.03655710507018739
 22
1.000527140136910
 32
0.0000000000000000
 13
-0.1663333354604220
 23
0.9872535477409201
 33
0.0000000000000000
 40
0.0000000000000000
 40
0.0000000000000000
 40
0.0000000000000000
 40
0.0000000000000000
 40
0.5079078584508052
 40
1.006125644631252
 40
1.006125644631252
 40
1.006125644631252
 40
1.006125644631252
 10
465.4122420565557
 20
226.1932140788164
 30
0.0000000000000000
 10
465.4060528429067
 20
226.3626059445060
 30
0.0000000000000000
 10
465.3937924959386
 20
226.6981579491198
 30
0.0000000000000000
 10
465.3380084178170
 20
227.0292583198316
 30
0.0000000000000000
 10
465.3103850090966
 20
227.1932140788164
 30
0.0000000000000000
  0
LINE
  5
227
100
AcDbEntity
  8
MAIN0
  6
CONTINUOUS
 62
3
100
AcDbLine
 10
365.7195003697415
 20
289.1932140788164
 30
0.0000000000000000
 11
366.7195003697414
 21
289.1932140788164
 31
0.0000000000000000
  0
LINE
  5
228
100
AcDbEntity
  8
MAIN0
  6
CONTINUOUS
 62
3
100
AcDbLine
 10
365.7195003697415
 20
280.1932140788164
 30
0.0000000000000000
 11
366.7195003697414
 21
280.1932140788164
 31
0.0000000000000000
  0
LINE
  5
229
100
AcDbEntity
  8
MAIN1
  6
CONTINUOUS
 62
3
100
AcDbLine
 10
362.7195003697415
 20
279.1932140788164
 30
0.0000000000000000
 11
365.7195003697415
 21
279.1932140788164
 31
0.0000000000000000
  0
LINE
  5
22A
100
AcDbEntity
  8
MAIN1
  6
CONTINUOUS
 62
3
100
AcDbLine
 10
362.7195003697415
 20
280.0932140788162
 30
0.0000000000000000
 11
361.4195003697415
 21
280.0932140788162
 31
0.0000000000000000
  0
LINE
  5
22B
100
AcDbEntity
  8
MAIN1
  6
CONTINUOUS
 62
3
100
AcDbLine
 10
356.9195003697415
 20
280.4432140788163
 30
0.0000000000000000
 11
361.4195003697415
 21
280.4432140788163
 31
0.0000000000000000
  0
LINE
  5
22C
100
AcDbEntity
  8
MAIN1
  6
CONTINUOUS
 62
3
100
AcDbLine
 10
361.4195003697415
 20
280.0932140788162
 30
0.0000000000000000
 11
361.4195003697415
 21
289.2932140788163
 31
0.0000000000000000
  0
LINE
  5
22D
100
AcDbEntity
  8
MAIN1
  6
CONTINUOUS
 62
3
100
AcDbLine
 10
356.4195003697415
 20
281.3092394826007
 30
0.0000000000000000
 11
356.9195003697415
 21
280.4432140788163
 31
0.0000000000000000
  0
LINE
  5
22E
100
AcDbEntity
  8
MAIN1
  6
CONTINUOUS
 62
3
100
AcDbLine
 10
356.4195003697415
 20
288.0771886750318
 30
0.0000000000000000
 11
356.4195003697415
 21
281.3092394826007
 31
0.0000000000000000
  0
LINE
  5
22F
100
AcDbEntity
  8
MAIN1
  6
CONTINUOUS
 62
3
100
AcDbLine
 10
356.9195003697415
 20
288.9432140788163
 30
0.0000000000000000
 11
356.9195003697415
 21
280.4432140788163
 31
0.0000000000000000
  0
LINE
  5
230
100
AcDbEntity
  8
MAIN1
  6
CONTINUOUS
 62
3
100
AcDbLine
 10
356.9195003697415
 20
288.9432140788163
 30
0.0000000000000000
 11
356.4195003697415
 21
288.0771886750318
 31
0.0000000000000000
  0
LINE
  5
231
100
AcDbEntity
  8
MAIN1
  6
CONTINUOUS
 62
3
100
AcDbLine
 10
361.4195003697415
 20
288.9432140788163
 30
0.0000000000000000
 11
356.9195003697415
 21
288.9432140788163
 31
0.0000000000000000
  0
LINE
  5
232
100
AcDbEntity
  8
MAIN1
  6
CONTINUOUS
 62
3
100
AcDbLine
 10
361.4195003697415
 20
289.2932140788163
 30
0.0000000000000000
 11
362.7195003697415
 21
289.2932140788163
 31
0.0000000000000000
  0
LINE
  5
233
100
AcDbEntity
  8
MAIN1
  6
CONTINUOUS
 62
3
100
AcDbLine
 10
362.7195003697415
 20
284.0432140788163
 30
0.0000000000000000
 11
361.4195003697415
 21
285.3432140788163
 31
0.0000000000000000
  0
LINE
  5
234
100
AcDbEntity
  8
MAIN1
  6
PHANTOM
 62
3
100
AcDbLine
 10
341.7195003697415
 20
279.1932140788164
 30
0.0000000000000000
 11
344.7195003697415
 21
279.1932140788164
 31
0.0000000000000000
  0
LINE
  5
235
100
AcDbEntity
  8
MAIN1
  6
PHANTOM
 62
3
100
AcDbLine
 10
335.9195003697415
 20
280.4432140788163
 30
0.0000000000000000
 11
340.4195003697415
 21
280.4432140788163
 31
0.0000000000000000
  0
LINE
  5
236
100
AcDbEntity
  8
MAIN1
  6
PHANTOM
 62
3
100
AcDbLine
 10
341.7195003697415
 20
280.0932140788162
 30
0.0000000000000000
 11
340.4195003697415
 21
280.0932140788162
 31
0.0000000000000000
  0
LINE
  5
237
100
AcDbEntity
  8
MAIN1
  6
PHANTOM
 62
3
100
AcDbLine
 10
340.4195003697415
 20
280.0932140788162
 30
0.0000000000000000
 11
340.4195003697415
 21
289.2932140788163
 31
0.0000000000000000
  0
LINE
  5
238
100
AcDbEntity
  8
MAIN1
  6
PHANTOM
 62
3
100
AcDbLine
 10
335.4195003697415
 20
288.0771886750318
 30
0.0000000000000000
 11
335.4195003697415
 21
281.3092394826007
 31
0.0000000000000000
  0
LINE
  5
239
100
AcDbEntity
  8
MAIN1
  6
PHANTOM
 62
3
100
AcDbLine
 10
335.4195003697415
 20
281.3092394826007
 30
0.0000000000000000
 11
335.9195003697415
 21
280.4432140788163
 31
0.0000000000000000
  0
LINE
  5
23A
100
AcDbEntity
  8
MAIN1
  6
PHANTOM
 62
3
100
AcDbLine
 10
335.9195003697415
 20
288.9432140788163
 30
0.0000000000000000
 11
335.9195003697415
 21
280.4432140788163
 31
0.0000000000000000
  0
LINE
  5
23B
100
AcDbEntity
  8
MAIN1
  6
PHANTOM
 62
3
100
AcDbLine
 10
340.4195003697415
 20
288.9432140788163
 30
0.0000000000000000
 11
335.9195003697415
 21
288.9432140788163
 31
0.0000000000000000
  0
LINE
  5
23C
100
AcDbEntity
  8
MAIN1
  6
PHANTOM
 62
3
100
AcDbLine
 10
335.9195003697415
 20
288.9432140788163
 30
0.0000000000000000
 11
335.4195003697415
 21
288.0771886750318
 31
0.0000000000000000
  0
LINE
  5
23D
100
AcDbEntity
  8
MAIN1
  6
PHANTOM
 62
3
100
AcDbLine
 10
340.4195003697415
 20
289.2932140788163
 30
0.0000000000000000
 11
341.7195003697415
 21
289.2932140788163
 31
0.0000000000000000
  0
LINE
  5
23E
100
AcDbEntity
  8
MAIN1
  6
PHANTOM
 62
3
100
AcDbLine
 10
341.7195003697415
 20
284.0432140788163
 30
0.0000000000000000
 11
340.4195003697415
 21
285.3432140788162
 31
0.0000000000000000
  0
LINE
  5
23F
100
AcDbEntity
  8
MAIN0
  6
CONTINUOUS
 62
3
100
AcDbLine
 10
458.7195003697409
 20
258.1932140788164
 30
0.0000000000000000
 11
486.8534749665187
 21
258.1932140788164
 31
0.0000000000000000
  0
LINE
  5
240
100
AcDbEntity
  8
MAIN0
  6
CONTINUOUS
 62
3
100
AcDbLine
 10
458.7195003697409
 20
226.1932140788164
 30
0.0000000000000000
 11
486.8534749665187
 21
226.1932140788164
 31
0.0000000000000000
  0
LINE
  5
241
100
AcDbEntity
  8
MAIN0
  6
CONTINUOUS
 62
3
100
AcDbLine
 10
503.7195003697409
 20
256.6932140788164
 30
0.0000000000000000
 11
503.7195003697409
 21
227.6932140788164
 31
0.0000000000000000
  0
LINE
  5
242
100
AcDbEntity
  8
MAIN0
  6
CONTINUOUS
 62
3
100
AcDbLine
 10
498.7195003697408
 20
253.1932140788164
 30
0.0000000000000000
 11
498.7195003697408
 21
231.1932140788164
 31
0.0000000000000000
  0
LINE
  5
243
100
AcDbEntity
  8
MAIN0
  6
CONTINUOUS
 62
3
100
AcDbLine
 10
502.8534749653787
 20
253.1932140788164
 30
0.0000000000000000
 11
502.8534749654031
 21
231.1932140788164
 31
0.0000000000000000
  0
LINE
  5
244
100
AcDbEntity
  8
MAIN0
  6
CONTINUOUS
 62
3
100
AcDbLine
 10
497.4204622640973
 20
250.9432140788164
 30
0.0000000000000000
 11
497.4204622640973
 21
233.4432140788164
 31
0.0000000000000000
  0
LINE
  5
245
100
AcDbEntity
  8
MAIN0
  6
CONTINUOUS
 62
3
100
AcDbLine
 10
502.8534749654028
 20
253.1932140788421
 30
0.0000000000000000
 11
503.7195003697407
 21
253.6932140791610
 31
0.0000000000000000
  0
LINE
  5
246
100
AcDbEntity
  8
MAIN0
  6
CONTINUOUS
 62
3
100
AcDbLine
 10
500.7195003697409
 20
253.1932140788164
 30
0.0000000000000000
 11
502.8534749654031
 21
253.1932140788164
 31
0.0000000000000000
  0
LINE
  5
247
100
AcDbEntity
  8
MAIN0
  6
CONTINUOUS
 62
3
100
AcDbLine
 10
497.4204622639425
 20
250.9432140788163
 30
0.0000000000000000
 11
498.7195003696152
 21
253.1932140788163
 31
0.0000000000000000
  0
LINE
  5
248
100
AcDbEntity
  8
MAIN0
  6
CONTINUOUS
 62
3
100
AcDbLine
 10
487.7195003703060
 20
226.6932140788164
 30
0.0000000000000000
 11
502.7195003697409
 21
226.6932140788164
 31
0.0000000000000000
  0
LINE
  5
249
100
AcDbEntity
  8
MAIN0
  6
CONTINUOUS
 62
3
100
AcDbLine
 10
486.8534749665187
 20
226.1932140788164
 30
0.0000000000000000
 11
487.7195003703060
 21
226.6932140788165
 31
0.0000000000000000
  0
LINE
  5
24A
100
AcDbEntity
  8
MAIN0
  6
CONTINUOUS
 62
3
100
AcDbLine
 10
502.7195003697409
 20
226.6932140788164
 30
0.0000000000000000
 11
503.7195003697408
 21
227.6932140788164
 31
0.0000000000000000
  0
LINE
  5
24B
100
AcDbEntity
  8
MAIN0
  6
CONTINUOUS
 62
3
100
AcDbLine
 10
487.7195003703060
 20
257.6932140788164
 30
0.0000000000000000
 11
502.7195003697409
 21
257.6932140788164
 31
0.0000000000000000
  0
LINE
  5
24C
100
AcDbEntity
  8
MAIN0
  6
CONTINUOUS
 62
3
100
AcDbLine
 10
486.8534749665188
 20
258.1932140788164
 30
0.0000000000000000
 11
487.7195003703060
 21
257.6932140788163
 31
0.0000000000000000
  0
LINE
  5
24D
100
AcDbEntity
  8
MAIN0
  6
CONTINUOUS
 62
3
100
AcDbLine
 10
502.7195003697407
 20
257.6932140788164
 30
0.0000000000000000
 11
503.7195003697408
 21
256.6932140788164
 31
0.0000000000000000
  0
LINE
  5
24E
100
AcDbEntity
  8
MAIN0
  6
CONTINUOUS
 62
3
100
AcDbLine
 10
473.7195003697409
 20
252.1932140788164
 30
0.0000000000000000
 11
473.7195003697409
 21
232.1932140788164
 31
0.0000000000000000
  0
LINE
  5
24F
100
AcDbEntity
  8
MAIN0
  6
CONTINUOUS
 62
3
100
AcDbLine
 10
498.1421501004273
 20
232.1932140788164
 30
0.0000000000000000
 11
473.7195003697409
 21
232.1932140788164
 31
0.0000000000000000
  0
LINE
  5
250
100
AcDbEntity
  8
MAIN0
  6
CONTINUOUS
 62
3
100
AcDbLine
 10
473.7195003697409
 20
252.1932140788164
 30
0.0000000000000000
 11
498.1421501004273
 21
252.1932140788164
 31
0.0000000000000000
  0
LINE
  5
251
100
AcDbEntity
  8
MAIN0
  6
CONTINUOUS
 62
3
100
AcDbLine
 10
497.4204622639425
 20
233.4432140788164
 30
0.0000000000000000
 11
461.7504636548576
 21
233.4432140788164
 31
0.0000000000000000
  0
LINE
  5
252
100
AcDbEntity
  8
MAIN0
  6
CONTINUOUS
 62
3
100
AcDbLine
 10
455.7821477967864
 20
250.9432140788164
 30
0.0000000000000000
 11
497.4204622640973
 21
250.9432140788164
 31
0.0000000000000000
  0
LINE
  5
253
100
AcDbEntity
  8
MAIN0
  6
PHANTOM
 62
3
100
AcDbLine
 10
377.7195003697414
 20
174.6932140788164
 30
0.0000000000000000
 11
457.7195003697414
 21
174.6932140788164
 31
0.0000000000000000
  0
LINE
  5
254
100
AcDbEntity
  8
MAIN0
  6
PHANTOM
 62
3
100
AcDbLine
 10
425.7195003697414
 20
173.8813150788164
 30
0.0000000000000000
 11
457.7195003697414
 21
173.8813150788164
 31
0.0000000000000000
  0
LINE
  5
255
100
AcDbEntity
  8
MAIN0
  6
PHANTOM
 62
3
100
AcDbLine
 10
457.7195003697414
 20
164.6932140788164
 30
0.0000000000000000
 11
457.7195003697414
 21
174.6932140788164
 31
0.0000000000000000
  0
LINE
  5
256
100
AcDbEntity
  8
MAIN0
  6
PHANTOM
 62
3
100
AcDbLine
 10
425.7195003697414
 20
165.5051130788164
 30
0.0000000000000000
 11
457.7195003697414
 21
165.5051130788164
 31
0.0000000000000000
  0
LINE
  5
257
100
AcDbEntity
  8
MAIN0
  6
PHANTOM
 62
3
100
AcDbLine
 10
377.7195003697414
 20
164.6932140788164
 30
0.0000000000000000
 11
457.7195003697414
 21
164.6932140788164
 31
0.0000000000000000
  0
LINE
  5
258
100
AcDbEntity
  8
MAIN0
  6
HIDDEN
 62
3
100
AcDbLine
 10
309.1410003697450
 20
152.6932140788164
 30
0.0000000000000000
 11
309.4347503697450
 21
162.0932140788164
 31
0.0000000000000000
  0
LINE
  5
259
100
AcDbEntity
  8
MAIN0
  6
HIDDEN
 62
3
100
AcDbLine
 10
309.4347503697450
 20
162.0932140788164
 30
0.0000000000000000
 11
322.0042503697450
 21
162.0932140788164
 31
0.0000000000000000
  0
LINE
  5
25A
100
AcDbEntity
  8
MAIN0
  6
HIDDEN
 62
3
100
AcDbLine
 10
322.0042503697450
 20
162.0932140788163
 30
0.0000000000000000
 11
322.2980003697450
 21
152.6932140788163
 31
0.0000000000000000
  0
LINE
  5
25B
100
AcDbEntity
  8
MAIN0
  6
HIDDEN
 62
3
100
AcDbLine
 10
309.9970003697451
 20
152.6932140788164
 30
0.0000000000000000
 11
310.2907503697451
 21
162.0932140788164
 31
0.0000000000000000
  0
LINE
  5
25C
100
AcDbEntity
  8
MAIN0
  6
HIDDEN
 62
3
100
AcDbLine
 10
321.4420003697450
 20
152.6932140788163
 30
0.0000000000000000
 11
321.1482503697450
 21
162.0932140788163
 31
0.0000000000000000
  0
LINE
  5
25D
100
AcDbEntity
  8
MAIN0
  6
HIDDEN
 62
3
100
AcDbLine
 10
310.3195003697450
 20
162.0932140788164
 30
0.0000000000000000
 11
310.3195003697450
 21
176.6451837343806
 31
0.0000000000000000
  0
LINE
  5
25E
100
AcDbEntity
  8
MAIN0
  6
HIDDEN
 62
3
100
AcDbLine
 10
321.1195003697450
 20
176.6451837343806
 30
0.0000000000000000
 11
321.1195003697450
 21
162.0932140788164
 31
0.0000000000000000
  0
LINE
  5
25F
100
AcDbEntity
  8
MAIN0
  6
HIDDEN
 62
3
100
AcDbLine
 10
183.2647906647430
 20
157.0381303881378
 30
0.0000000000000000
 11
183.7074555307672
 21
157.9874282567933
 31
0.0000000000000000
  0
LINE
  5
260
100
AcDbEntity
  8
MAIN0
  6
HIDDEN
 62
3
100
AcDbLine
 10
183.7074555307672
 20
157.9874282567933
 30
0.0000000000000000
 11
188.4059186346967
 21
159.6975289734218
 31
0.0000000000000000
  0
LINE
  5
261
100
AcDbEntity
  8
MAIN0
  6
HIDDEN
 62
3
100
AcDbLine
 10
188.4059186346966
 20
159.6975289734218
 30
0.0000000000000000
 11
189.3552165033521
 21
159.2548641073976
 31
0.0000000000000000
  0
LINE
  5
262
100
AcDbEntity
  8
MAIN0
  6
HIDDEN
 62
3
100
AcDbLine
 10
183.4086192920371
 20
157.3465718747375
 30
0.0000000000000000
 11
179.4069836151263
 21
168.3409755379324
 31
0.0000000000000000
  0
LINE
  5
263
100
AcDbEntity
  8
MAIN0
  6
HIDDEN
 62
3
100
AcDbLine
 10
179.4069836151263
 20
168.3409755379325
 30
0.0000000000000000
 11
185.0451393398416
 21
170.3930963978867
 31
0.0000000000000000
  0
LINE
  5
264
100
AcDbEntity
  8
MAIN0
  6
HIDDEN
 62
3
100
AcDbLine
 10
185.0451393398416
 20
170.3930963978867
 30
0.0000000000000000
 11
189.0467750167525
 21
159.3986927346917
 31
0.0000000000000000
  0
LINE
  5
265
100
AcDbEntity
  8
MAIN0
  6
HIDDEN
 62
3
100
AcDbLine
 10
183.7074555307672
 20
157.9874282567933
 30
0.0000000000000000
 11
178.5087493522164
 21
172.2707560927389
 31
0.0000000000000000
  0
LINE
  5
266
100
AcDbEntity
  8
MAIN0
  6
HIDDEN
 62
3
100
AcDbLine
 10
178.5087493522164
 20
172.2707560927389
 30
0.0000000000000000
 11
183.2072124561459
 21
173.9808568093674
 31
0.0000000000000000
  0
LINE
  5
267
100
AcDbEntity
  8
MAIN0
  6
HIDDEN
 62
3
100
AcDbLine
 10
183.2072124561459
 20
173.9808568093674
 30
0.0000000000000000
 11
188.4059186346967
 21
159.6975289734218
 31
0.0000000000000000
  0
LINE
  5
268
100
AcDbEntity
  8
MAIN0
  6
HIDDEN
 62
3
100
AcDbLine
 10
178.5087493522164
 20
172.2707560927389
 30
0.0000000000000000
 11
180.3643173496377
 21
174.4821359199688
 31
0.0000000000000000
  0
LINE
  5
269
100
AcDbEntity
  8
MAIN0
  6
HIDDEN
 62
3
100
AcDbLine
 10
180.3643173496377
 20
174.4821359199688
 30
0.0000000000000000
 11
183.2072124561459
 21
173.9808568093675
 31
0.0000000000000000
  0
LINE
  5
26A
100
AcDbEntity
  8
MAIN0
  6
CENTER
 62
3
100
AcDbLine
 10
73.21950036974167
 20
222.4665472938292
 30
0.0000000000000000
 11
73.21950036974167
 21
261.9781589437808
 31
0.0000000000000000
  0
LINE
  5
26B
100
AcDbEntity
  8
MAIN0
  6
CENTER
 62
3
100
AcDbLine
 10
66.66940487667395
 20
255.1932140788130
 30
0.0000000000000000
 11
79.75858380962919
 21
255.1932140788135
 31
0.0000000000000000
  0
LINE
  5
26C
100
AcDbEntity
  8
MAIN0
  6
CENTER
 62
3
100
AcDbLine
 10
66.49252341921343
 20
229.1932140788129
 30
0.0000000000000000
 11
80.77564797286132
 21
229.1932140788135
 31
0.0000000000000000
  0
CIRCLE
  5
26D
100
AcDbEntity
  8
MAIN0
  6
CONTINUOUS
 62
3
100
AcDbCircle
 10
73.21950036974164
 20
255.1932140788132
 30
0.0000000000000000
 40
2.500000000000000
  0
CIRCLE
  5
26E
100
AcDbEntity
  8
MAIN0
  6
CONTINUOUS
 62
3
100
AcDbCircle
 10
73.21950036974164
 20
255.1932140788132
 30
0.0000000000000000
 40
3.000000000000000
  0
CIRCLE
  5
26F
100
AcDbEntity
  8
MAIN0
  6
CONTINUOUS
 62
3
100
AcDbCircle
 10
73.21950036974164
 20
229.1932140788132
 30
0.0000000000000000
 40
2.500000000000000
  0
CIRCLE
  5
270
100
AcDbEntity
  8
MAIN0
  6
CONTINUOUS
 62
3
100
AcDbCircle
 10
73.21950036974164
 20
229.1932140788132
 30
0.0000000000000000
 40
3.000000000000000
  0
CIRCLE
  5
271
100
AcDbEntity
  8
MAIN0
  6
CENTER
 62
3
100
AcDbCircle
 10
155.7195003697416
 20
242.1932140788164
 30
0.0000000000000000
 40
22.99999999999999
  0
CIRCLE
  5
272
100
AcDbEntity
  8
MAIN0
  6
CONTINUOUS
 62
3
100
AcDbCircle
 10
155.7195003697416
 20
242.1932140788164
 30
0.0000000000000000
 40
22.59999999999999
  0
CIRCLE
  5
273
100
AcDbEntity
  8
MAIN0
  6
CONTINUOUS
 62
3
100
AcDbCircle
 10
155.7195003697416
 20
242.1932140788164
 30
0.0000000000000000
 40
23.39999999999998
  0
CIRCLE
  5
274
100
AcDbEntity
  8
MAIN0
  6
CONTINUOUS
 62
3
100
AcDbCircle
 10
155.7195003697416
 20
242.1932140788164
 30
0.0000000000000000
 40
24.60000000000000
  0
CIRCLE
  5
275
100
AcDbEntity
  8
MAIN0
  6
CENTER
 62
3
100
AcDbCircle
 10
155.7195003697416
 20
242.1932140788164
 30
0.0000000000000000
 40
25.00000000000000
  0
CIRCLE
  5
276
100
AcDbEntity
  8
MAIN0
  6
CONTINUOUS
 62
3
100
AcDbCircle
 10
155.7195003697416
 20
242.1932140788164
 30
0.0000000000000000
 40
25.40000000000000
  0
LINE
  5
277
100
AcDbEntity
  8
MAIN0
  6
CONTINUOUS
 62
3
100
AcDbLine
 10
458.7195003697409
 20
236.4540635955276
 30
0.0000000000000000
 11
458.7195003697409
 21
220.1932140788164
 31
0.0000000000000000
  0
LINE
  5
278
100
AcDbEntity
  8
MAIN0
  6
CONTINUOUS
 62
3
100
AcDbLine
 10
443.7195003697409
 20
220.1932140788164
 30
0.0000000000000000
 11
458.7195003697409
 21
220.1932140788164
 31
0.0000000000000000
  0
LINE
  5
279
100
AcDbEntity
  8
MAIN0
  6
CONTINUOUS
 62
3
100
AcDbLine
 10
443.7195003697409
 20
264.1932140788164
 30
0.0000000000000000
 11
458.7195003697409
 21
264.1932140788164
 31
0.0000000000000000
  0
LINE
  5
27A
100
AcDbEntity
  8
MAIN0
  6
CONTINUOUS
 62
3
100
AcDbLine
 10
458.7195003697409
 20
254.7218015641238
 30
0.0000000000000000
 11
458.7195003697409
 21
264.1932140788164
 31
0.0000000000000000
  0
MTEXT
  5
27B
100
AcDbEntity
  8
MAIN2
  6
CONTINUOUS
 62
3
100
AcDbMText
 10
286.1564675095039
 20
27.02893154403205
 30
0.0000000000000000
 40
3.000000000000000
 41
0.0000000000000000
 71
     1
 72
     1
  1
{\H0.62x;{Design the inner dia.(mark ※) of cylinder adapter should be max.\U+220595}}
 11
1.000000000000000
 21
0.0000000000000000
 31
0.0000000000000000
  7
KNJYOKO
  0
MTEXT
  5
27C
100
AcDbEntity
  8
MAIN2
  6
CONTINUOUS
 62
3
100
AcDbMText
 10
277.6564675095039
 20
33.52893154403233
 30
0.0000000000000000
 40
5.000000000000000
 41
0.0000000000000000
 71
     1
 72
     1
  1
{\H0.63x;{NOTE}}
 11
1.000000000000000
 21
0.0000000000000000
 31
0.0000000000000000
  7
STANDARD
  0
INSERT
  5
282
100
AcDbEntity
  8
MAIN0
  6
CONTINUOUS
 62
3
100
AcDbBlockReference
  2
M3
 10
0.0000000000000000
 20
0.0000000000000000
 30
0.0000000000000000
 50
0.0000000000000000
  0
LINE
  5
283
100
AcDbEntity
  8
MAIN0
  6
CONTINUOUS
 62
3
100
AcDbLine
 10
325.7195003697416
 20
267.5927390895946
 30
0.0000000000000000
 11
325.7195003697416
 21
278.1932140788163
 31
0.0000000000000000
  0
LINE
  5
284
100
AcDbEntity
  8
MAIN0
  6
CONTINUOUS
 62
3
100
AcDbLine
 10
325.7195003697416
 20
278.1932140788163
 30
0.0000000000000000
 11
365.3195003697417
 21
278.1932140788163
 31
0.0000000000000000
  0
LINE
  5
285
100
AcDbEntity
  8
MAIN0
  6
CENTER
 62
3
100
AcDbLine
 10
315.7195003697452
 20
149.9931604304184
 30
0.0000000000000000
 11
315.7195003697433
 21
186.5498318227948
 31
0.0000000000000000
  0
ARC
  5
286
100
AcDbEntity
  8
MAIN0
  6
HIDDEN
 62
3
100
AcDbCircle
 10
155.7195003697416
 20
242.1932140788164
 30
0.0000000000000000
 40
87.50000000000017
100
AcDbArc
 50
55.94484441583074
 51
78.12645416477500
  0
CIRCLE
  5
287
100
AcDbEntity
  8
MAIN0
  6
CENTER
 62
3
100
AcDbCircle
 10
155.7195003697416
 20
242.1932140788164
 30
0.0000000000000000
 40
72.49999999999999
  0
LINE
  5
288
100
AcDbEntity
  8
MAIN0
  6
CENTER
 62
3
100
AcDbLine
 10
171.2997104141670
 20
300.3393495586033
 30
0.0000000000000000
 11
177.8150633407357
 21
324.6549777098248
 31
0.0000000000000000
  0
CIRCLE
  5
289
100
AcDbEntity
  8
MAIN0
  6
HIDDEN
 62
3
100
AcDbCircle
 10
174.4838811393223
 20
312.2228364848681
 30
0.0000000000000000
 40
8.000000000000000
  0
LINE
  5
28A
100
AcDbEntity
  8
MAIN0
  6
HIDDEN
 62
3
100
AcDbLine
 10
171.2178948156114
 20
315.4888228085791
 30
0.0000000000000000
 11
170.0224608527207
 21
311.0274025219774
 31
0.0000000000000000
  0
LINE
  5
28B
100
AcDbEntity
  8
MAIN0
  6
HIDDEN
 62
3
100
AcDbLine
 10
170.0224608527206
 20
311.0274025219775
 30
0.0000000000000000
 11
173.2884471764315
 21
307.7614161982666
 31
0.0000000000000000
  0
LINE
  5
28C
100
AcDbEntity
  8
MAIN0
  6
HIDDEN
 62
3
100
AcDbLine
 10
173.2884471764315
 20
307.7614161982665
 30
0.0000000000000000
 11
177.7498674630332
 21
308.9568501611573
 31
0.0000000000000000
  0
LINE
  5
28D
100
AcDbEntity
  8
MAIN0
  6
HIDDEN
 62
3
100
AcDbLine
 10
177.7498674630332
 20
308.9568501611573
 30
0.0000000000000000
 11
178.9453014259240
 21
313.4182704477589
 31
0.0000000000000000
  0
LINE
  5
28E
100
AcDbEntity
  8
MAIN0
  6
HIDDEN
 62
3
100
AcDbLine
 10
178.9453014259239
 20
313.4182704477589
 30
0.0000000000000000
 11
175.6793151022130
 21
316.6842567714699
 31
0.0000000000000000
  0
LINE
  5
28F
100
AcDbEntity
  8
MAIN0
  6
HIDDEN
 62
3
100
AcDbLine
 10
175.6793151022130
 20
316.6842567714698
 30
0.0000000000000000
 11
171.2178948156114
 21
315.4888228085791
 31
0.0000000000000000
  0
LINE
  5
290
100
AcDbEntity
  8
MAIN0
  6
CENTER
 62
3
100
AcDbLine
 10
113.1535749345672
 20
284.7591395134797
 30
0.0000000000000000
 11
95.35329970991768
 21
302.5594147381202
 31
0.0000000000000000
  0
CIRCLE
  5
291
100
AcDbEntity
  8
MAIN0
  6
HIDDEN
 62
3
100
AcDbCircle
 10
104.4542587334591
 20
293.4584557145833
 30
0.0000000000000000
 40
8.000000000000000
  0
LINE
  5
292
100
AcDbEntity
  8
MAIN0
  6
HIDDEN
 62
3
100
AcDbLine
 10
99.99283844685755
 20
292.2630217516926
 30
0.0000000000000000
 11
103.2588247705684
 21
288.9970354279817
 31
0.0000000000000000
  0
LINE
  5
293
100
AcDbEntity
  8
MAIN0
  6
HIDDEN
 62
3
100
AcDbLine
 10
103.2588247705684
 20
288.9970354279817
 30
0.0000000000000000
 11
107.7202450571700
 21
290.1924693908724
 31
0.0000000000000000
  0
LINE
  5
294
100
AcDbEntity
  8
MAIN0
  6
HIDDEN
 62
3
100
AcDbLine
 10
107.7202450571700
 20
290.1924693908725
 30
0.0000000000000000
 11
108.9156790200607
 21
294.6538896774741
 31
0.0000000000000000
  0
LINE
  5
295
100
AcDbEntity
  8
MAIN0
  6
HIDDEN
 62
3
100
AcDbLine
 10
108.9156790200608
 20
294.6538896774741
 30
0.0000000000000000
 11
105.6496926963499
 21
297.9198760011850
 31
0.0000000000000000
  0
LINE
  5
296
100
AcDbEntity
  8
MAIN0
  6
HIDDEN
 62
3
100
AcDbLine
 10
105.6496926963499
 20
297.9198760011850
 30
0.0000000000000000
 11
101.1882724097482
 21
296.7244420382942
 31
0.0000000000000000
  0
LINE
  5
297
100
AcDbEntity
  8
MAIN0
  6
HIDDEN
 62
3
100
AcDbLine
 10
101.1882724097482
 20
296.7244420382942
 30
0.0000000000000000
 11
99.99283844685746
 21
292.2630217516926
 31
0.0000000000000000
  0
LINE
  5
298
100
AcDbEntity
  8
MAIN0
  6
CENTER
 62
3
100
AcDbLine
 10
97.57336489014179
 20
226.6130040336928
 30
0.0000000000000000
 11
73.25773673892354
 21
220.0976511071119
 31
0.0000000000000000
  0
LINE
  5
299
100
AcDbEntity
  8
MAIN0
  6
HIDDEN
 62
3
100
AcDbLine
 10
84.49444400098776
 20
218.9674130219299
 30
0.0000000000000000
 11
88.95586428758941
 21
220.1628469848206
 31
0.0000000000000000
  0
LINE
  5
29A
100
AcDbEntity
  8
MAIN0
  6
HIDDEN
 62
3
100
AcDbLine
 10
88.95586428758938
 20
220.1628469848206
 30
0.0000000000000000
 11
90.15129825048012
 21
224.6242672714223
 31
0.0000000000000000
  0
LINE
  5
29B
100
AcDbEntity
  8
MAIN0
  6
HIDDEN
 62
3
100
AcDbLine
 10
90.15129825048012
 20
224.6242672714223
 30
0.0000000000000000
 11
86.88531192676919
 21
227.8902535951332
 31
0.0000000000000000
  0
LINE
  5
29C
100
AcDbEntity
  8
MAIN0
  6
HIDDEN
 62
3
100
AcDbLine
 10
86.88531192676922
 20
227.8902535951332
 30
0.0000000000000000
 11
82.42389164016760
 21
226.6948196322425
 31
0.0000000000000000
  0
LINE
  5
29D
100
AcDbEntity
  8
MAIN0
  6
HIDDEN
 62
3
100
AcDbLine
 10
82.42389164016757
 20
226.6948196322425
 30
0.0000000000000000
 11
81.22845767727682
 21
222.2333993456408
 31
0.0000000000000000
  0
LINE
  5
29E
100
AcDbEntity
  8
MAIN0
  6
HIDDEN
 62
3
100
AcDbLine
 10
81.22845767727682
 20
222.2333993456408
 30
0.0000000000000000
 11
84.49444400098770
 21
218.9674130219299
 31
0.0000000000000000
  0
LINE
  5
29F
100
AcDbEntity
  8
MAIN0
  6
CENTER
 62
3
100
AcDbLine
 10
140.1392903253162
 20
184.0470785990295
 30
0.0000000000000000
 11
133.6239373987475
 21
159.7314504478080
 31
0.0000000000000000
  0
CIRCLE
  5
2A0
100
AcDbEntity
  8
MAIN0
  6
HIDDEN
 62
3
100
AcDbCircle
 10
136.9551196001609
 20
172.1635916727646
 30
0.0000000000000000
 40
8.000000000000000
  0
LINE
  5
2A1
100
AcDbEntity
  8
MAIN0
  6
HIDDEN
 62
3
100
AcDbLine
 10
140.2211059238719
 20
168.8976053490537
 30
0.0000000000000000
 11
141.4165398867626
 21
173.3590256356553
 31
0.0000000000000000
  0
LINE
  5
2A2
100
AcDbEntity
  8
MAIN0
  6
HIDDEN
 62
3
100
AcDbLine
 10
141.4165398867626
 20
173.3590256356553
 30
0.0000000000000000
 11
138.1505535630517
 21
176.6250119593662
 31
0.0000000000000000
  0
LINE
  5
2A3
100
AcDbEntity
  8
MAIN0
  6
HIDDEN
 62
3
100
AcDbLine
 10
138.1505535630517
 20
176.6250119593663
 30
0.0000000000000000
 11
133.6891332764500
 21
175.4295779964755
 31
0.0000000000000000
  0
LINE
  5
2A4
100
AcDbEntity
  8
MAIN0
  6
HIDDEN
 62
3
100
AcDbLine
 10
133.6891332764500
 20
175.4295779964755
 30
0.0000000000000000
 11
132.4936993135593
 21
170.9681577098739
 31
0.0000000000000000
  0
LINE
  5
2A5
100
AcDbEntity
  8
MAIN0
  6
HIDDEN
 62
3
100
AcDbLine
 10
132.4936993135593
 20
170.9681577098739
 30
0.0000000000000000
 11
135.7596856372702
 21
167.7021713861630
 31
0.0000000000000000
  0
LINE
  5
2A6
100
AcDbEntity
  8
MAIN0
  6
HIDDEN
 62
3
100
AcDbLine
 10
135.7596856372702
 20
167.7021713861630
 30
0.0000000000000000
 11
140.2211059238718
 21
168.8976053490537
 31
0.0000000000000000
  0
CIRCLE
  5
2A7
100
AcDbEntity
  8
MAIN0
  6
HIDDEN
 62
3
100
AcDbCircle
 10
206.9847420060240
 20
190.9279724430494
 30
0.0000000000000000
 40
8.000000000000000
  0
LINE
  5
2A8
100
AcDbEntity
  8
MAIN0
  6
HIDDEN
 62
3
100
AcDbLine
 10
211.4461622926257
 20
192.1234064059402
 30
0.0000000000000000
 11
208.1801759689148
 21
195.3893927296511
 31
0.0000000000000000
  0
LINE
  5
2A9
100
AcDbEntity
  8
MAIN0
  6
HIDDEN
 62
3
100
AcDbLine
 10
208.1801759689147
 20
195.3893927296510
 30
0.0000000000000000
 11
203.7187556823131
 21
194.1939587667603
 31
0.0000000000000000
  0
LINE
  5
2AA
100
AcDbEntity
  8
MAIN0
  6
HIDDEN
 62
3
100
AcDbLine
 10
203.7187556823131
 20
194.1939587667604
 30
0.0000000000000000
 11
202.5233217194224
 21
189.7325384801587
 31
0.0000000000000000
  0
LINE
  5
2AB
100
AcDbEntity
  8
MAIN0
  6
HIDDEN
 62
3
100
AcDbLine
 10
202.5233217194224
 20
189.7325384801587
 30
0.0000000000000000
 11
205.7893080431333
 21
186.4665521564478
 31
0.0000000000000000
  0
LINE
  5
2AC
100
AcDbEntity
  8
MAIN0
  6
HIDDEN
 62
3
100
AcDbLine
 10
205.7893080431333
 20
186.4665521564478
 30
0.0000000000000000
 11
210.2507283297349
 21
187.6619861193385
 31
0.0000000000000000
  0
LINE
  5
2AD
100
AcDbEntity
  8
MAIN0
  6
HIDDEN
 62
3
100
AcDbLine
 10
210.2507283297349
 20
187.6619861193385
 30
0.0000000000000000
 11
211.4461622926256
 21
192.1234064059402
 31
0.0000000000000000
  0
LINE
  5
2AE
100
AcDbEntity
  8
MAIN0
  6
CENTER
 62
3
100
AcDbLine
 10
101.1622104237372
 20
216.7527319684131
 30
0.0000000000000000
 11
78.34737046361329
 21
206.1139973754196
 31
0.0000000000000000
  0
CIRCLE
  5
2AF
100
AcDbEntity
  8
MAIN0
  6
CONTINUOUS
 62
3
100
AcDbCircle
 10
90.01218580973853
 20
211.5533901022853
 30
0.0000000000000000
 40
8.500000000000000
  0
CIRCLE
  5
2B0
100
AcDbEntity
  8
MAIN0
  6
CONTINUOUS
 62
3
100
AcDbCircle
 10
221.4268149297446
 20
272.8330380553475
 30
0.0000000000000000
 40
8.500000000000000
  0
LINE
  5
2B1
100
AcDbEntity
  8
MAIN0
  6
CENTER
 62
3
100
AcDbLine
 10
210.2767903157460
 20
267.6336961892197
 30
0.0000000000000000
 11
233.0916302758700
 21
278.2724307822132
 31
0.0000000000000000
  0
ARC
  5
2B2
100
AcDbEntity
  8
MAIN0
  6
HIDDEN
 62
3
100
AcDbCircle
 10
85.68987796387847
 20
223.4288333085315
 30
0.0000000000000000
 40
8.000000000000000
100
AcDbArc
 50
331.4920202368147
 51
608.5079797637617
  0
ARC
  5
2B3
100
AcDbEntity
  8
MAIN0
  6
CONTINUOUS
 62
3
100
AcDbCircle
 10
85.68987796387847
 20
223.4288333085315
 30
0.0000000000000000
 40
8.000000000000000
100
AcDbArc
 50
248.5079797637617
 51
331.4920202368147
  0
LINE
  5
2B4
100
AcDbEntity
  8
MAIN0
  6
CENTER
 62
3
100
AcDbLine
 10
524.4071478030368
 20
133.9633656628520
 30
0.0000000000000000
 11
562.9316887743621
 21
133.9633656628323
 31
0.0000000000000000
  0
LINE
  5
2B5
100
AcDbEntity
  8
MAIN0
  6
CENTER
 62
3
100
AcDbLine
 10
543.3434446716630
 20
114.2389530582179
 30
0.0000000000000000
 11
543.3434446716551
 21
155.1998302360353
 31
0.0000000000000000
  0
CIRCLE
  5
2B6
100
AcDbEntity
  8
MAIN0
  6
CONTINUOUS
 62
3
100
AcDbCircle
 10
543.3434446716592
 20
133.9633656628423
 30
0.0000000000000000
 40
8.750000000070429
  0
CIRCLE
  5
2B7
100
AcDbEntity
  8
MAIN0
  6
CONTINUOUS
 62
3
100
AcDbCircle
 10
543.3434446716592
 20
133.9633656628423
 30
0.0000000000000000
 40
10.00000000007040
  0
LINE
  5
2B8
100
AcDbEntity
  8
MAIN0
  6
CONTINUOUS
 62
3
100
AcDbLine
 10
529.8434446716606
 20
126.3475925569757
 30
0.0000000000000000
 11
529.8434446716576
 21
141.5791387687037
 31
0.0000000000000000
  0
LINE
  5
2B9
100
AcDbEntity
  8
MAIN0
  6
CONTINUOUS
 62
3
100
AcDbLine
 10
556.8434446716605
 20
126.3475925569808
 30
0.0000000000000000
 11
556.8434446716575
 21
141.5791387687090
 31
0.0000000000000000
  0
MTEXT
  5
2BA
100
AcDbEntity
  8
MAIN0
  6
CONTINUOUS
 62
3
100
AcDbMText
 10
532.9328784976160
 20
97.45367443466836
 30
0.0000000000000000
 40
4.000000000000000
 41
0.0000000000000000
 71
     1
 72
     1
  1
{\H0.93x;{断面Ｐ－Ｐ}}
 11
1.000000000000000
 21
0.0000000000000000
 31
0.0000000000000000
  7
KNJYOKO
  0
LINE
  5
2BB
100
AcDbEntity
  8
MAIN0
  6
CONTINUOUS
 62
3
100
AcDbLine
 10
531.3846559175541
 20
92.45367443464065
 30
0.0000000000000000
 11
556.1562494131399
 21
92.45367443463579
 31
0.0000000000000000
  0
INSERT
  5
2C5
100
AcDbEntity
  8
MAIN0
  6
CONTINUOUS
 62
3
100
AcDbBlockReference
  2
M4
 10
0.0000000000000000
 20
0.0000000000000000
 30
0.0000000000000000
 50
0.0000000000000000
  0
DIMENSION
  5
2CE
100
AcDbEntity
  8
MAIN0
  6
CONTINUOUS
 62
3
100
AcDbDimension
  2
*D23
 10
529.8434446716606
 20
105.3110393080567
 30
0.0000000000000000
 11
539.2684445606469
 21
105.8110393080567
 31
0.0000000000000000
 70
32
  3
MAIN001
100
AcDbAlignedDimension
 13
556.8434446716605
 23
126.3475925569808
 33
0.0000000000000000
 14
529.8434446716606
 24
126.3475925569757
 34
0.0000000000000000
100
AcDbRotatedDimension
1001
ACAD
1000
DSTYLE
1002
{
1070
   173
1070
     1
1070
     6
1000
_OPEN
1070
     7
1000
_OPEN
1070
    41
1040
2.000000
1070
   272
1070
     2
1070
    47
1040
0.000000
1070
    48
1040
0.350000
1070
    71
1070
     1
1070
   340
1005
2CF
1002
}
  0
LINE
  5
2D0
100
AcDbEntity
  8
MAIN0
  6
CONTINUOUS
 62
3
100
AcDbLine
 10
50.22223547133700
 20
399.6177350527078
 30
0.0000000000000000
 11
90.22223547133675
 21
399.6177350527082
 31
0.0000000000000000
  0
LINE
  5
2D1
100
AcDbEntity
  8
MAIN0
  6
CENTER
 62
3
100
AcDbLine
 10
58.88248950806388
 20
351.6177350527103
 30
0.0000000000000000
 11
81.47935964885130
 21
351.6177350527105
 31
0.0000000000000000
  0
LINE
  5
2D2
100
AcDbEntity
  8
MAIN0
  6
CENTER
 62
3
100
AcDbLine
 10
58.88248950806340
 20
389.6177350527079
 30
0.0000000000000000
 11
81.47935964885079
 21
389.6177350527081
 31
0.0000000000000000
  0
ARC
  5
2D3
100
AcDbEntity
  8
MAIN0
  6
CONTINUOUS
 62
3
100
AcDbCircle
 10
70.22223547133646
 20
389.6177350527080
 30
0.0000000000000000
 40
6.500000000000000
100
AcDbArc
 50
0.0000000000000000
 51
180.0000000000000
  0
LINE
  5
2D4
100
AcDbEntity
  8
MAIN0
  6
CENTER
 62
3
100
AcDbLine
 10
274.8971903699463
 20
333.8631013070210
 30
0.0000000000000000
 11
258.6045415705821
 21
341.4604882137944
 31
0.0000000000000000
  0
ARC
  5
2D5
100
AcDbEntity
  8
MAIN0
  6
CONTINUOUS
 62
3
100
AcDbCircle
 10
266.5277207948355
 20
337.7658490645904
 30
0.0000000000000000
 40
6.500000000000000
100
AcDbArc
 50
155.0000000000000
 51
335.0000000000000
  0
LINE
  5
2D6
100
AcDbEntity
  8
MAIN0
  6
CENTER
 62
3
100
AcDbLine
 10
290.9566843160928
 20
368.3027972144137
 30
0.0000000000000000
 11
274.6640355167288
 21
375.9001841211871
 31
0.0000000000000000
  0
LINE
  5
2D7
100
AcDbEntity
  8
MAIN0
  6
CONTINUOUS
 62
3
100
AcDbLine
 10
260.6367201790973
 20
340.5128677659050
 30
0.0000000000000000
 11
261.9045749643193
 21
343.2317911270147
 31
0.0000000000000000
  0
LINE
  5
2D8
100
AcDbEntity
  8
MAIN0
  6
HIDDEN
 62
3
100
AcDbLine
 10
261.9045749643193
 20
343.2317911270147
 30
0.0000000000000000
 11
276.6962141252438
 21
374.9525636732976
 31
0.0000000000000000
  0
LINE
  5
2D9
100
AcDbEntity
  8
MAIN0
  6
CONTINUOUS
 62
3
100
AcDbLine
 10
272.4187214105737
 20
335.0188303632759
 30
0.0000000000000000
 11
273.6865761957957
 21
337.7377537243856
 31
0.0000000000000000
  0
LINE
  5
2DA
100
AcDbEntity
  8
MAIN0
  6
HIDDEN
 62
3
100
AcDbLine
 10
273.6865761957957
 20
337.7377537243856
 30
0.0000000000000000
 11
288.4782153567202
 21
369.4585262706686
 31
0.0000000000000000
  0
LINE
  5
2DB
100
AcDbEntity
  8
MAIN0
  6
PHANTOM
 62
3
100
AcDbLine
 10
310.3411647141293
 20
371.4008226640412
 30
0.0000000000000000
 11
263.6015913538409
 21
393.1958436608410
 31
0.0000000000000000
  0
LINE
  5
2DC
100
AcDbEntity
  8
MAIN0
  6
PHANTOM
 62
3
100
AcDbLine
 10
298.9304716471304
 20
346.9305124140517
 30
0.0000000000000000
 11
252.1908982868420
 21
368.7255334108515
 31
0.0000000000000000
  0
CIRCLE
  5
2DD
100
AcDbEntity
  8
MAIN0
  6
CONTINUOUS
 62
3
100
AcDbCircle
 10
85.22223547133666
 20
370.6177350527106
 30
0.0000000000000000
 40
5.000000000000000
  0
CIRCLE
  5
2DE
100
AcDbEntity
  8
MAIN0
  6
CONTINUOUS
 62
3
100
AcDbCircle
 10
55.22223547133672
 20
370.6177350527103
 30
0.0000000000000000
 40
5.000000000000000
  0
LINE
  5
2DF
100
AcDbEntity
  8
MAIN0
  6
CONTINUOUS
 62
3
100
AcDbLine
 10
90.22223547246054
 20
399.6177350527082
 30
0.0000000000000000
 11
90.22223547246114
 21
337.4456285436203
 31
0.0000000000000000
  0
MTEXT
  5
2E0
100
AcDbEntity
  8
MAIN0
  6
CONTINUOUS
 62
3
100
AcDbMText
 10
128.5344613662745
 20
369.3798147954137
 30
0.0000000000000000
 40
3.099999904632568
 41
0.0000000000000000
 71
     1
 72
     1
  1
{\H0.92x;{(SQ60)}}
 11
1.000000000000000
 21
0.0000000000000000
 31
0.0000000000000000
  7
STANDARD
  0
MTEXT
  5
2E1
100
AcDbEntity
  8
MAIN0
  6
CONTINUOUS
 62
3
100
AcDbMText
 10
195.5344613662745
 20
369.3798147954137
 30
0.0000000000000000
 40
3.099999904632568
 41
0.0000000000000000
 71
     1
 72
     1
  1
{\H0.92x;{(SQ61)}}
 11
1.000000000000000
 21
0.0000000000000000
 31
0.0000000000000000
  7
STANDARD
  0
MTEXT
  5
2E2
100
AcDbEntity
  8
MAIN0
  6
CONTINUOUS
 62
3
100
AcDbMText
 10
121.0458451962218
 20
364.9556094428881
 30
0.0000000000000000
 40
3.099999904632568
 41
0.0000000000000000
 71
     1
 72
     1
  1
{\H0.93x;{チャック開確認}}
 11
1.000000000000000
 21
0.0000000000000000
 31
0.0000000000000000
  7
KNJYOKO
  0
MTEXT
  5
2E3
100
AcDbEntity
  8
MAIN0
  6
CONTINUOUS
 62
3
100
AcDbMText
 10
193.0458451962218
 20
364.9556094428881
 30
0.0000000000000000
 40
3.099999904632568
 41
0.0000000000000000
 71
     1
 72
     1
  1
{\H0.93x;{チャック閉確認}}
 11
1.000000000000000
 21
0.0000000000000000
 31
0.0000000000000000
  7
KNJYOKO
  0
DIMENSION
  5
2EC
100
AcDbEntity
  8
MAIN0
  6
CONTINUOUS
 62
3
100
AcDbDimension
  2
*D24
 10
33.74493279107918
 20
399.6177350527078
 30
0.0000000000000000
 11
33.24493279107918
 21
384.1177350527078
 31
0.0000000000000000
 70
32
  3
MAIN001
100
AcDbAlignedDimension
 13
58.08366009863210
 23
368.6177350527079
 33
0.0000000000000000
 14
50.22223547133700
 24
399.6177350527078
 34
0.0000000000000000
 50
90.00000000000000
100
AcDbRotatedDimension
1001
ACAD
1000
DSTYLE
1002
{
1070
   173
1070
     1
1070
     6
1000
_OPEN
1070
     7
1000
_OPEN
1070
    41
1040
2.000000
1002
}
  0
DIMENSION
  5
2F5
100
AcDbEntity
  8
MAIN0
  6
CONTINUOUS
 62
3
100
AcDbDimension
  2
*D25
 10
41.74493279107918
 20
389.6177350527079
 30
0.0000000000000000
 11
41.24493279107918
 21
379.1177350527079
 31
0.0000000000000000
 70
32
  3
MAIN001
100
AcDbAlignedDimension
 13
58.08366009863210
 23
368.6177350527079
 33
0.0000000000000000
 14
58.88248950806340
 24
389.6177350527079
 34
0.0000000000000000
 50
90.00000000000000
100
AcDbRotatedDimension
1001
ACAD
1000
DSTYLE
1002
{
1070
   173
1070
     1
1070
     6
1000
_OPEN
1070
     7
1000
_OPEN
1070
    41
1040
2.000000
1002
}
  0
DIMENSION
  5
2FE
100
AcDbEntity
  8
MAIN0
  6
CONTINUOUS
 62
3
100
AcDbDimension
  2
*D26
 10
41.74493279107918
 20
368.6177350527079
 30
0.0000000000000000
 11
41.24493279107918
 21
360.1177350527090
 31
0.0000000000000000
 70
32
  3
MAIN001
100
AcDbAlignedDimension
 13
58.88248950806388
 23
351.6177350527103
 33
0.0000000000000000
 14
58.08366009863210
 24
368.6177350527079
 34
0.0000000000000000
 50
90.00000000000000
100
AcDbRotatedDimension
1001
ACAD
1000
DSTYLE
1002
{
1070
   173
1070
     1
1070
     6
1000
_OPEN
1070
     7
1000
_OPEN
1070
    41
1040
2.000000
1002
}
  0
DIMENSION
  5
307
100
AcDbEntity
  8
MAIN0
  6
CONTINUOUS
 62
3
100
AcDbDimension
  2
*D27
 10
102.7090923634853
 20
370.6177350527107
 30
0.0000000000000000
 11
102.2090923634853
 21
385.1177350527095
 31
0.0000000000000000
 70
32
  3
MAIN001
100
AcDbAlignedDimension
 13
90.22223547133675
 23
399.6177350527082
 33
0.0000000000000000
 14
92.09283293097508
 24
370.6177350527107
 34
0.0000000000000000
 50
90.00000000000000
100
AcDbRotatedDimension
1001
ACAD
1000
DSTYLE
1002
{
1070
   173
1070
     1
1070
     6
1000
_OPEN
1070
     7
1000
_OPEN
1070
    41
1040
2.000000
1002
}
  0
DIMENSION
  5
310
100
AcDbEntity
  8
MAIN0
  6
CONTINUOUS
 62
3
100
AcDbDimension
  2
*D28
 10
242.5637241378343
 20
372.1113805239630
 30
0.0000000000000000
 11
250.3516263482597
 21
389.9956915020481
 31
0.0000000000000000
 70
32
  3
MAIN001
100
AcDbAlignedDimension
 13
273.7586607585445
 23
400.5966815216033
 33
0.0000000000000000
 14
265.7141950710258
 24
361.3161386379211
 34
0.0000000000000000
 50
65.00000000000003
100
AcDbRotatedDimension
1001
ACAD
1000
DSTYLE
1002
{
1070
   173
1070
     1
1070
     6
1000
_OPEN
1070
     7
1000
_OPEN
1070
    41
1040
2.000000
1002
}
  0
DIMENSION
  5
319
100
AcDbEntity
  8
MAIN0
  6
CONTINUOUS
 62
3
100
AcDbDimension
  2
*D29
 10
257.4489120727284
 20
383.9277280192078
 30
0.0000000000000000
 11
253.4035029544142
 21
376.4354209602665
 31
0.0000000000000000
 70
32
  3
MAIN001
100
AcDbAlignedDimension
 13
265.7141950710258
 23
361.3161386379210
 33
0.0000000000000000
 14
274.6640355167288
 24
375.9001841211870
 34
0.0000000000000000
 50
65.00000000000054
100
AcDbRotatedDimension
1001
ACAD
1000
DSTYLE
1002
{
1070
   173
1070
     1
1070
     6
1000
_OPEN
1070
     7
1000
_OPEN
1070
    41
1040
2.000000
1002
}
  0
DIMENSION
  5
322
100
AcDbEntity
  8
MAIN0
  6
CONTINUOUS
 62
3
100
AcDbDimension
  2
*D30
 10
250.2644016231366
 20
368.5204956395845
 30
0.0000000000000000
 11
245.3737559813411
 21
359.2155730065701
 31
0.0000000000000000
 70
32
  3
MAIN001
100
AcDbAlignedDimension
 13
258.6045415705821
 23
341.4604882137944
 33
0.0000000000000000
 14
265.7141950710258
 24
361.3161386379210
 34
0.0000000000000000
 50
65.00000000000054
100
AcDbRotatedDimension
1001
ACAD
1000
DSTYLE
1002
{
1070
   173
1070
     1
1070
     6
1000
_OPEN
1070
     7
1000
_OPEN
1070
    41
1040
2.000000
1002
}
  0
DIMENSION
  5
32B
100
AcDbEntity
  8
MAIN0
  6
CONTINUOUS
 62
3
100
AcDbDimension
  2
*D31
 10
303.3469345987550
 20
341.5609481608640
 30
0.0000000000000000
 11
311.5574550709208
 21
360.3515669259858
 31
0.0000000000000000
 70
32
  3
MAIN001
100
AcDbAlignedDimension
 13
305.4794333048272
 23
385.8050423606788
 33
0.0000000000000000
 14
294.4059550111538
 24
345.7301954139698
 34
0.0000000000000000
 50
65.00000000000068
100
AcDbRotatedDimension
1001
ACAD
1000
DSTYLE
1002
{
1070
   173
1070
     1
1070
     6
1000
_OPEN
1070
     7
1000
_OPEN
1070
    41
1040
2.000000
1002
}
  0
INSERT
  5
343
100
AcDbEntity
  8
MAIN0
  6
CONTINUOUS
 62
3
100
AcDbBlockReference
  2
*X0
 10
0.0000000000000000
 20
0.0000000000000000
 30
0.0000000000000000
 50
0.0000000000000000
  0
INSERT
  5
35B
100
AcDbEntity
  8
MAIN0
  6
CONTINUOUS
 62
3
100
AcDbBlockReference
  2
*X1
 10
0.0000000000000000
 20
0.0000000000000000
 30
0.0000000000000000
 50
0.0000000000000000
  0
LINE
  5
35C
100
AcDbEntity
  8
MAIN0
  6
CONTINUOUS
 62
3
100
AcDbLine
 10
305.7195003697417
 20
267.5932140788322
 30
0.0000000000000000
 11
306.4123206927969
 21
267.1932140788164
 31
0.0000000000000000
  0
LINE
  5
35D
100
AcDbEntity
  8
MAIN0
  6
CENTER
 62
3
100
AcDbLine
 10
307.2911667963480
 20
267.1932140788164
 30
0.0000000000000000
 11
304.9030137535846
 21
267.1932140788164
 31
0.0000000000000000
  0
LINE
  5
35E
100
AcDbEntity
  8
MAIN0
  6
CONTINUOUS
 62
3
100
AcDbLine
 10
305.7195003697417
 20
266.7932140788006
 30
0.0000000000000000
 11
306.4123206927969
 21
267.1932140788164
 31
0.0000000000000000
  0
LINE
  5
35F
100
AcDbEntity
  8
MAIN0
  6
CONTINUOUS
 62
3
100
AcDbLine
 10
305.7195003697417
 20
265.5932140788322
 30
0.0000000000000000
 11
306.4123206927969
 21
265.1932140788164
 31
0.0000000000000000
  0
LINE
  5
360
100
AcDbEntity
  8
MAIN0
  6
CONTINUOUS
 62
3
100
AcDbLine
 10
305.7195003697417
 20
264.7932140788006
 30
0.0000000000000000
 11
306.4123206927969
 21
265.1932140788164
 31
0.0000000000000000
  0
LINE
  5
361
100
AcDbEntity
  8
MAIN0
  6
CENTER
 62
3
100
AcDbLine
 10
307.2911667963480
 20
265.1932140788164
 30
0.0000000000000000
 11
304.9030137535846
 21
265.1932140788164
 31
0.0000000000000000
  0
LINE
  5
362
100
AcDbEntity
  8
MAIN0
  6
CONTINUOUS
 62
3
100
AcDbLine
 10
305.7195003697417
 20
216.7932140788006
 30
0.0000000000000000
 11
306.4123206927969
 21
217.1932140788165
 31
0.0000000000000000
  0
LINE
  5
363
100
AcDbEntity
  8
MAIN0
  6
CENTER
 62
3
100
AcDbLine
 10
307.2911667963480
 20
217.1932140788164
 30
0.0000000000000000
 11
304.9030137535846
 21
217.1932140788164
 31
0.0000000000000000
  0
LINE
  5
364
100
AcDbEntity
  8
MAIN0
  6
CONTINUOUS
 62
3
100
AcDbLine
 10
305.7195003697417
 20
217.5932140788322
 30
0.0000000000000000
 11
306.4123206927969
 21
217.1932140788164
 31
0.0000000000000000
  0
LINE
  5
365
100
AcDbEntity
  8
MAIN0
  6
CONTINUOUS
 62
3
100
AcDbLine
 10
305.7195003697417
 20
218.7932140788006
 30
0.0000000000000000
 11
306.4123206927969
 21
219.1932140788165
 31
0.0000000000000000
  0
LINE
  5
366
100
AcDbEntity
  8
MAIN0
  6
CENTER
 62
3
100
AcDbLine
 10
307.2911667963480
 20
219.1932140788164
 30
0.0000000000000000
 11
304.9030137535846
 21
219.1932140788164
 31
0.0000000000000000
  0
LINE
  5
367
100
AcDbEntity
  8
MAIN0
  6
CONTINUOUS
 62
3
100
AcDbLine
 10
305.7195003697417
 20
219.5932140788322
 30
0.0000000000000000
 11
306.4123206927969
 21
219.1932140788164
 31
0.0000000000000000
  0
LINE
  5
368
100
AcDbEntity
  8
MAIN0
  6
HIDDEN
 62
3
100
AcDbLine
 10
226.9445567384954
 20
265.4190151357029
 30
0.0000000000000000
 11
222.4831364518938
 21
264.2235811728121
 31
0.0000000000000000
  0
LINE
  5
369
100
AcDbEntity
  8
MAIN0
  6
HIDDEN
 62
3
100
AcDbLine
 10
222.4831364518938
 20
264.2235811728122
 30
0.0000000000000000
 11
221.2877024890031
 21
259.7621608862105
 31
0.0000000000000000
  0
LINE
  5
36A
100
AcDbEntity
  8
MAIN0
  6
HIDDEN
 62
3
100
AcDbLine
 10
221.2877024890030
 20
259.7621608862105
 30
0.0000000000000000
 11
224.5536888127139
 21
256.4961745624996
 31
0.0000000000000000
  0
LINE
  5
36B
100
AcDbEntity
  8
MAIN0
  6
HIDDEN
 62
3
100
AcDbLine
 10
224.5536888127140
 20
256.4961745624996
 30
0.0000000000000000
 11
229.0151090993156
 21
257.6916085253903
 31
0.0000000000000000
  0
LINE
  5
36C
100
AcDbEntity
  8
MAIN0
  6
HIDDEN
 62
3
100
AcDbLine
 10
229.0151090993156
 20
257.6916085253903
 30
0.0000000000000000
 11
230.2105430622063
 21
262.1530288119919
 31
0.0000000000000000
  0
LINE
  5
36D
100
AcDbEntity
  8
MAIN0
  6
HIDDEN
 62
3
100
AcDbLine
 10
230.2105430622063
 20
262.1530288119919
 30
0.0000000000000000
 11
226.9445567384954
 21
265.4190151357029
 31
0.0000000000000000
  0
ARC
  5
36E
100
AcDbEntity
  8
MAIN0
  6
CONTINUOUS
 62
3
100
AcDbCircle
 10
225.7491227756047
 20
260.9575948491012
 30
0.0000000000000000
 40
8.000000000000000
100
AcDbArc
 50
68.50797976376165
 51
151.4920202368146
  0
ARC
  5
36F
100
AcDbEntity
  8
MAIN0
  6
HIDDEN
 62
3
100
AcDbCircle
 10
225.7491227756047
 20
260.9575948491012
 30
0.0000000000000000
 40
8.000000000000000
100
AcDbArc
 50
151.4920202368146
 51
428.5079797637617
  0
LINE
  5
370
100
AcDbEntity
  8
MAIN0
  6
CENTER
 62
3
100
AcDbLine
 10
155.7195003697362
 20
370.8328085350690
 30
0.0000000000000000
 11
155.7195003697466
 21
126.4713530812963
 31
0.0000000000000000
  0
LINE
  5
371
100
AcDbEntity
  8
MAIN0
  6
HIDDEN
 62
3
100
AcDbLine
 10
66.46377130357095
 20
235.6223475454985
 30
0.0000000000000000
 11
75.61950036974156
 21
235.9084640788164
 31
0.0000000000000000
  0
LINE
  5
372
100
AcDbEntity
  8
MAIN0
  6
HIDDEN
 62
3
100
AcDbLine
 10
75.61950036974162
 20
235.9084640788164
 30
0.0000000000000000
 11
75.61950036974162
 21
248.4779640788164
 31
0.0000000000000000
  0
LINE
  5
373
100
AcDbEntity
  8
MAIN0
  6
HIDDEN
 62
3
100
AcDbLine
 10
75.61950036974162
 20
248.4779640788164
 30
0.0000000000000000
 11
66.46377130357095
 21
248.7640806121342
 31
0.0000000000000000
  0
LINE
  5
374
100
AcDbEntity
  8
MAIN0
  6
HIDDEN
 62
3
100
AcDbLine
 10
66.40433142142894
 20
236.4764900491816
 30
0.0000000000000000
 11
75.61950036974147
 21
236.7644640788164
 31
0.0000000000000000
  0
LINE
  5
375
100
AcDbEntity
  8
MAIN0
  6
HIDDEN
 62
3
100
AcDbLine
 10
66.40433142142905
 20
247.9099381084511
 30
0.0000000000000000
 11
75.61950036974173
 21
247.6219640788164
 31
0.0000000000000000
  0
LINE
  5
376
100
AcDbEntity
  8
MAIN0
  6
HIDDEN
 62
3
100
AcDbLine
 10
75.61950036974162
 20
236.7932140788164
 30
0.0000000000000000
 11
126.7195003697416
 21
236.7932140788164
 31
0.0000000000000000
  0
LINE
  5
377
100
AcDbEntity
  8
MAIN0
  6
HIDDEN
 62
3
100
AcDbLine
 10
126.7195003697416
 20
236.7932140788164
 30
0.0000000000000000
 11
126.7195003697416
 21
247.5932140788164
 31
0.0000000000000000
  0
LINE
  5
378
100
AcDbEntity
  8
MAIN0
  6
HIDDEN
 62
3
100
AcDbLine
 10
126.7195003697411
 20
247.5932140788164
 30
0.0000000000000000
 11
75.61950036974159
 21
247.5932140788164
 31
0.0000000000000000
  0
LINE
  5
379
100
AcDbEntity
  8
MAIN0
  6
CENTER
 62
3
100
AcDbLine
 10
163.7195003697382
 20
331.2433095718840
 30
0.0000000000000000
 11
163.7195003697387
 21
318.1541306389288
 31
0.0000000000000000
  0
LINE
  5
37A
100
AcDbEntity
  8
MAIN0
  6
CENTER
 62
3
100
AcDbLine
 10
147.7195003697381
 20
331.4201910293446
 30
0.0000000000000000
 11
147.7195003697387
 21
317.1370664756967
 31
0.0000000000000000
  0
MTEXT
  5
37B
100
AcDbEntity
  8
MAIN0
  6
CONTINUOUS
 62
3
100
AcDbMText
 10
72.38462014369793
 20
244.4760640748487
 30
0.0000000000000000
 40
5.000000000000000
 41
0.0000000000000000
 71
     1
 72
     1
  1
{\H0.84x;{Ａ}}
 11
-1.836970198721030e-016
 21
-1.000000000000000
 31
0.0000000000000000
  7
KNJYOKO
  0
MTEXT
  5
37C
100
AcDbEntity
  8
MAIN0
  6
CONTINUOUS
 62
3
100
AcDbMText
 10
151.8423997388757
 20
158.2109612667908
 30
0.0000000000000000
 40
5.000000000000000
 41
0.0000000000000000
 71
     1
 72
     1
  1
{\H0.84x;{Ｄ}}
 11
1.000000000000000
 21
0.0000000000000000
 31
0.0000000000000000
  7
KNJYOKO
  0
MTEXT
  5
37D
100
AcDbEntity
  8
MAIN0
  6
CONTINUOUS
 62
3
100
AcDbMText
 10
155.8423997388757
 20
158.2109612667908
 30
0.0000000000000000
 40
5.000000000000000
 41
0.0000000000000000
 71
     1
 72
     1
  1
{\H0.84x;{ｒ}}
 11
1.000000000000000
 21
0.0000000000000000
 31
0.0000000000000000
  7
KNJYOKO
  0
LINE
  5
37E
100
AcDbEntity
  8
MAIN0
  6
CENTER
 62
3
100
AcDbLine
 10
121.5087164042242
 20
148.1998576316012
 30
0.0000000000000000
 11
127.2208673140127
 21
163.8938632727873
 31
0.0000000000000000
  0
LINE
  5
37F
100
AcDbEntity
  8
MAIN0
  6
CENTER
 62
12
100
AcDbLine
 10
51.13144261997536
 20
242.1932140788164
 30
0.0000000000000000
 11
260.4426604391285
 21
242.1932140788164
 31
0.0000000000000000
  0
LINE
  5
380
100
AcDbEntity
  8
MAIN0
  6
HIDDEN
 62
3
100
AcDbLine
 10
244.9752294359122
 20
235.6223475454985
 30
0.0000000000000000
 11
235.8195003697419
 21
235.9084640788156
 31
0.0000000000000000
  0
LINE
  5
381
100
AcDbEntity
  8
MAIN0
  6
HIDDEN
 62
3
100
AcDbLine
 10
235.8195003697420
 20
235.9084640788156
 30
0.0000000000000000
 11
235.8195003697409
 21
248.4779640788156
 31
0.0000000000000000
  0
LINE
  5
382
100
AcDbEntity
  8
MAIN0
  6
HIDDEN
 62
3
100
AcDbLine
 10
235.8195003697407
 20
248.4779640788156
 30
0.0000000000000000
 11
244.9752294359122
 21
248.7640806121342
 31
0.0000000000000000
  0
LINE
  5
383
100
AcDbEntity
  8
MAIN0
  6
HIDDEN
 62
3
100
AcDbLine
 10
245.0346693180541
 20
236.4764900491816
 30
0.0000000000000000
 11
235.8195003697418
 21
236.7644640788156
 31
0.0000000000000000
  0
LINE
  5
384
100
AcDbEntity
  8
MAIN0
  6
HIDDEN
 62
3
100
AcDbLine
 10
245.0346693180541
 20
247.9099381084511
 30
0.0000000000000000
 11
235.8195003697409
 21
247.6219640788156
 31
0.0000000000000000
  0
LINE
  5
385
100
AcDbEntity
  8
MAIN0
  6
HIDDEN
 62
3
100
AcDbLine
 10
235.8195003697419
 20
236.7932140788188
 30
0.0000000000000000
 11
184.7195003697420
 21
236.7932140788145
 31
0.0000000000000000
  0
LINE
  5
386
100
AcDbEntity
  8
MAIN0
  6
HIDDEN
 62
3
100
AcDbLine
 10
184.7195003697420
 20
236.7932140788152
 30
0.0000000000000000
 11
184.7195003697411
 21
247.5932140788152
 31
0.0000000000000000
  0
LINE
  5
387
100
AcDbEntity
  8
MAIN0
  6
HIDDEN
 62
3
100
AcDbLine
 10
184.7195003697411
 20
247.5932140788145
 30
0.0000000000000000
 11
235.8195003697410
 21
247.5932140788188
 31
0.0000000000000000
  0
LINE
  5
388
100
AcDbEntity
  8
MAIN0
  6
HIDDEN
 62
3
100
AcDbLine
 10
184.7195003697420
 20
236.7932140788152
 30
0.0000000000000000
 11
183.1428090901092
 21
239.5241234829895
 31
0.0000000000000000
  0
LINE
  5
389
100
AcDbEntity
  8
MAIN0
  6
HIDDEN
 62
3
100
AcDbLine
 10
183.1428090901108
 20
244.8623046746441
 30
0.0000000000000000
 11
184.7195003697411
 21
247.5932140788152
 31
0.0000000000000000
  0
MTEXT
  5
38A
100
AcDbEntity
  8
MAIN0
  6
CONTINUOUS
 62
3
100
AcDbMText
 10
239.0945575783498
 20
239.9618854218635
 30
0.0000000000000000
 40
5.000000000000000
 41
0.0000000000000000
 71
     1
 72
     1
  1
{\H0.84x;{Ｂ}}
 11
6.123233995736766e-017
 21
1.000000000000000
 31
0.0000000000000000
  7
KNJYOKO
  0
MTEXT
  5
38B
100
AcDbEntity
  8
MAIN0
  6
CONTINUOUS
 62
3
100
AcDbMText
 10
51.21400635356298
 20
247.5322397287912
 30
0.0000000000000000
 40
4.000000000000000
 41
0.0000000000000000
 71
     1
 72
     1
  1
{\H0.81x;{A}}
 11
1.000000000000000
 21
0.0000000000000000
 31
0.0000000000000000
  7
STANDARD
  0
MTEXT
  5
38C
100
AcDbEntity
  8
MAIN0
  6
CONTINUOUS
 62
3
100
AcDbMText
 10
148.9796454310253
 20
141.9242742363441
 30
0.0000000000000000
 40
4.000000000000000
 41
0.0000000000000000
 71
     1
 72
     1
  1
{\H0.88x;{Dr}}
 11
1.000000000000000
 21
0.0000000000000000
 31
0.0000000000000000
  7
STANDARD
  0
MTEXT
  5
38D
100
AcDbEntity
  8
MAIN0
  6
CONTINUOUS
 62
3
100
AcDbMText
 10
255.4354417957302
 20
247.9561592076390
 30
0.0000000000000000
 40
4.000000000000000
 41
0.0000000000000000
 71
     1
 72
     1
  1
{\H0.81x;{B}}
 11
1.000000000000000
 21
0.0000000000000000
 31
0.0000000000000000
  7
STANDARD
  0
LINE
  5
38E
100
AcDbEntity
  8
MAIN0
  6
CENTER
 62
3
100
AcDbLine
 10
135.9928335847544
 20
324.6932140788163
 30
0.0000000000000000
 11
175.5044452347061
 21
324.6932140788163
 31
0.0000000000000000
  0
LINE
  5
38F
100
AcDbEntity
  8
MAIN0
  6
CONTINUOUS
 62
3
100
AcDbLine
 10
86.88265522116205
 20
302.1912244625530
 30
0.0000000000000000
 11
95.72148998598931
 21
311.0300592273893
 31
0.0000000000000000
  0
LINE
  5
390
100
AcDbEntity
  8
MAIN0
  6
CONTINUOUS
 62
3
100
AcDbLine
 10
130.4345441926872
 20
154.4495904293382
 30
0.0000000000000000
 11
118.6883864328611
 21
158.7248422209030
 31
0.0000000000000000
  0
LINE
  5
391
100
AcDbEntity
  8
MAIN0
  6
CONTINUOUS
 62
3
100
AcDbLine
 10
215.7175107537709
 20
311.0300592271030
 30
0.0000000000000000
 11
224.5563455186074
 21
302.1912244622758
 31
0.0000000000000000
  0
ARC
  5
392
100
AcDbEntity
  8
MAIN0
  6
CENTER
 62
3
100
AcDbCircle
 10
155.7195003697416
 20
242.1932140788164
 30
0.0000000000000000
 40
31.50000000000000
100
AcDbArc
 50
323.5580371514689
 51
349.7128422633253
  0
ARC
  5
393
100
AcDbEntity
  8
MAIN0
  6
CENTER
 62
3
100
AcDbCircle
 10
155.7195003697416
 20
242.1932140788164
 30
0.0000000000000000
 40
31.50000000000000
100
AcDbArc
 50
233.3979261393764
 51
262.9024233382525
  0
ARC
  5
394
100
AcDbEntity
  8
MAIN0
  6
CENTER
 62
3
100
AcDbCircle
 10
155.7195003697416
 20
242.1932140788164
 30
0.0000000000000000
 40
31.50000000000000
100
AcDbArc
 50
52.83055480326748
 51
81.83476640732306
  0
ARC
  5
395
100
AcDbEntity
  8
MAIN0
  6
CENTER
 62
3
100
AcDbCircle
 10
155.7195003697416
 20
242.1932140788164
 30
0.0000000000000000
 40
31.50000000000000
100
AcDbArc
 50
141.8765199234130
 51
171.2831241414582
  0
CIRCLE
  5
396
100
AcDbEntity
  8
MAIN0
  6
HIDDEN
 62
3
100
AcDbCircle
 10
184.7195003697416
 20
242.1932140788164
 30
0.0000000000000000
 40
3.100000000000000
  0
CIRCLE
  5
397
100
AcDbEntity
  8
MAIN0
  6
HIDDEN
 62
3
100
AcDbCircle
 10
184.7195003697416
 20
242.1932140788164
 30
0.0000000000000000
 40
5.000000000000000
  0
CIRCLE
  5
398
100
AcDbEntity
  8
MAIN0
  6
HIDDEN
 62
3
100
AcDbCircle
 10
155.7195003697416
 20
213.1932140788164
 30
0.0000000000000000
 40
3.100000000000000
  0
CIRCLE
  5
399
100
AcDbEntity
  8
MAIN0
  6
HIDDEN
 62
3
100
AcDbCircle
 10
155.7195003697416
 20
213.1932140788164
 30
0.0000000000000000
 40
5.000000000000000
  0
LINE
  5
39A
100
AcDbEntity
  8
MAIN0
  6
HIDDEN
 62
3
100
AcDbLine
 10
158.3885909655679
 20
214.7699053584497
 30
0.0000000000000000
 11
161.1195003697441
 21
213.1932140788164
 31
0.0000000000000000
  0
LINE
  5
39B
100
AcDbEntity
  8
MAIN0
  6
HIDDEN
 62
3
100
AcDbLine
 10
150.3195003697440
 20
213.1932140788154
 30
0.0000000000000000
 11
153.0504097739126
 21
214.7699053584450
 31
0.0000000000000000
  0
CIRCLE
  5
39C
100
AcDbEntity
  8
MAIN0
  6
HIDDEN
 62
3
100
AcDbCircle
 10
126.7195003697416
 20
242.1932140788164
 30
0.0000000000000000
 40
3.100000000000000
  0
CIRCLE
  5
39D
100
AcDbEntity
  8
MAIN0
  6
HIDDEN
 62
3
100
AcDbCircle
 10
126.7195003697416
 20
242.1932140788164
 30
0.0000000000000000
 40
5.000000000000000
  0
LINE
  5
39E
100
AcDbEntity
  8
MAIN0
  6
HIDDEN
 62
3
100
AcDbLine
 10
128.2961916493726
 20
239.5241234829887
 30
0.0000000000000000
 11
126.7195003697422
 21
236.7932140788175
 31
0.0000000000000000
  0
LINE
  5
39F
100
AcDbEntity
  8
MAIN0
  6
HIDDEN
 62
3
100
AcDbLine
 10
126.7195003697411
 20
247.5932140788175
 30
0.0000000000000000
 11
128.2961916493739
 21
244.8623046746432
 31
0.0000000000000000
  0
ARC
  5
3A0
100
AcDbEntity
  8
MAIN0
  6
CENTER
 62
3
100
AcDbCircle
 10
155.7195003697416
 20
242.1932140788164
 30
0.0000000000000000
 40
29.00000000000000
100
AcDbArc
 50
346.6277526519326
 51
370.7857646382471
  0
ARC
  5
3A1
100
AcDbEntity
  8
MAIN0
  6
CENTER
 62
3
100
AcDbCircle
 10
155.7195003697416
 20
242.1932140788164
 30
0.0000000000000000
 40
29.00000000000000
100
AcDbArc
 50
256.1831449408456
 51
285.5779229292725
  0
ARC
  5
3A2
100
AcDbEntity
  8
MAIN0
  6
CENTER
 62
3
100
AcDbCircle
 10
155.7195003697416
 20
242.1932140788164
 30
0.0000000000000000
 40
29.00000000000000
100
AcDbArc
 50
166.6824044398644
 51
191.6828824953155
  0
LINE
  5
3A3
100
AcDbEntity
  8
MAIN0
  6
CONTINUOUS
 62
3
100
AcDbLine
 10
109.2652217723939
 20
318.6932140788164
 30
0.0000000000000000
 11
202.1737789670893
 21
318.6932140788164
 31
0.0000000000000000
  0
LINE
  5
3A4
100
AcDbEntity
  8
MAIN0
  6
CONTINUOUS
 62
3
100
AcDbLine
 10
207.0545914234925
 20
315.5073220424484
 30
0.0000000000000000
 11
207.9723137217081
 21
316.8179653133868
 31
0.0000000000000000
  0
LINE
  5
3A5
100
AcDbEntity
  8
MAIN0
  6
CENTER
 62
3
100
AcDbLine
 10
188.8090775336191
 20
319.6540172972684
 30
0.0000000000000000
 11
205.9571683487122
 21
356.4282167235990
 31
0.0000000000000000
  0
LINE
  5
3A6
100
AcDbEntity
  8
MAIN0
  6
PHANTOM
 62
3
100
AcDbLine
 10
206.1444902277802
 20
333.2952156033559
 30
0.0000000000000000
 11
205.7218719660379
 21
332.3889078163200
 31
0.0000000000000000
  0
LINE
  5
3A7
100
AcDbEntity
  8
MAIN0
  6
CONTINUOUS
 62
3
100
AcDbLine
 10
188.0670921977647
 20
341.7248164347091
 30
0.0000000000000000
 11
187.6444739360237
 21
340.8185086476725
 31
0.0000000000000000
  0
LINE
  5
3A8
100
AcDbEntity
  8
MAIN0
  6
PHANTOM
 62
3
100
AcDbLine
 10
188.0183344870619
 20
341.7475808382014
 30
0.0000000000000000
 11
206.1444902277802
 21
333.2952156033559
 31
0.0000000000000000
  0
LINE
  5
3A9
100
AcDbEntity
  8
MAIN0
  6
PHANTOM
 62
3
100
AcDbLine
 10
190.7789339640604
 20
343.9911015014873
 30
0.0000000000000000
 11
189.4265555265496
 21
341.0909165831103
 31
0.0000000000000000
  0
ARC
  5
3AA
100
AcDbEntity
  8
MAIN0
  6
PHANTOM
 62
3
100
AcDbCircle
 10
190.0288253941264
 20
332.3261317537748
 30
0.0000000000000000
 40
11.68906249798220
100
AcDbArc
 50
43.67930340697411
 51
86.32069659283603
  0
LINE
  5
3AB
100
AcDbEntity
  8
MAIN0
  6
PHANTOM
 62
3
100
AcDbLine
 10
198.4825501538659
 20
340.3988462766786
 30
0.0000000000000000
 11
197.1301717163548
 21
337.4986613583010
 31
0.0000000000000000
  0
LINE
  5
3AC
100
AcDbEntity
  8
MAIN0
  6
PHANTOM
 62
3
100
AcDbLine
 10
194.9688366684317
 20
342.9200201188480
 30
0.0000000000000000
 11
202.6724528582334
 21
339.3277648940330
 31
0.0000000000000000
  0
LINE
  5
3AD
100
AcDbEntity
  8
MAIN0
  6
PHANTOM
 62
3
100
AcDbLine
 10
206.1861663436712
 20
336.8065910518692
 30
0.0000000000000000
 11
204.8337879061600
 21
333.9064061334917
 31
0.0000000000000000
  0
ARC
  5
3AE
100
AcDbEntity
  8
MAIN0
  6
PHANTOM
 62
3
100
AcDbCircle
 10
197.7324415839310
 20
328.7338765289662
 30
0.0000000000000000
 40
11.68906249798220
100
AcDbArc
 50
43.67930340696933
 51
86.32069659283125
  0
LINE
  5
3AF
100
AcDbEntity
  8
MAIN0
  6
PHANTOM
 62
3
100
AcDbLine
 10
208.7297479358619
 20
348.1768233370134
 30
0.0000000000000000
 11
204.2028153673898
 21
338.4687851152891
 31
0.0000000000000000
  0
LINE
  5
3B0
100
AcDbEntity
  8
MAIN0
  6
PHANTOM
 62
3
100
AcDbLine
 10
208.4678300578958
 20
348.8964367923845
 30
0.0000000000000000
 11
203.7412531877956
 21
338.7602599841805
 31
0.0000000000000000
  0
LINE
  5
3B1
100
AcDbEntity
  8
MAIN0
  6
PHANTOM
 62
3
100
AcDbLine
 10
197.8540544914303
 20
353.2482424779210
 30
0.0000000000000000
 11
208.7297479358612
 21
348.1768233370137
 31
0.0000000000000000
  0
LINE
  5
3B2
100
AcDbEntity
  8
MAIN0
  6
PHANTOM
 62
3
100
AcDbLine
 10
198.5736679468506
 20
353.5101603558808
 30
0.0000000000000000
 11
193.8470910767251
 21
343.3739835476225
 31
0.0000000000000000
  0
LINE
  5
3B3
100
AcDbEntity
  8
MAIN0
  6
PHANTOM
 62
3
100
AcDbLine
 10
197.8540544914309
 20
353.2482424779207
 30
0.0000000000000000
 11
193.3271219229598
 21
343.5402042561987
 31
0.0000000000000000
  0
LINE
  5
3B4
100
AcDbEntity
  8
MAIN0
  6
PHANTOM
 62
3
100
AcDbLine
 10
197.8540544914185
 20
353.2482424779265
 30
0.0000000000000000
 11
199.1829805401946
 21
353.7319320032210
 31
0.0000000000000000
  0
LINE
  5
3B5
100
AcDbEntity
  8
MAIN0
  6
PHANTOM
 62
3
100
AcDbLine
 10
200.0282170636589
 20
355.5445475773024
 30
0.0000000000000000
 11
199.1829805401733
 21
353.7319320032311
 31
0.0000000000000000
  0
LINE
  5
3B6
100
AcDbEntity
  8
MAIN0
  6
PHANTOM
 62
3
100
AcDbLine
 10
199.1829805401946
 20
353.7319320032211
 30
0.0000000000000000
 11
208.2460584105257
 21
349.5057493858114
 31
0.0000000000000000
  0
LINE
  5
3B7
100
AcDbEntity
  8
MAIN0
  6
PHANTOM
 62
3
100
AcDbLine
 10
200.0282170636791
 20
355.5445475772929
 30
0.0000000000000000
 11
209.0912949340103
 21
351.3183649598832
 31
0.0000000000000000
  0
LINE
  5
3B8
100
AcDbEntity
  8
MAIN0
  6
PHANTOM
 62
3
100
AcDbLine
 10
209.0912949339877
 20
351.3183649598938
 30
0.0000000000000000
 11
208.2460584105019
 21
349.5057493858224
 31
0.0000000000000000
  0
LINE
  5
3B9
100
AcDbEntity
  8
MAIN0
  6
PHANTOM
 62
3
100
AcDbLine
 10
208.2460584105257
 20
349.5057493858113
 30
0.0000000000000000
 11
208.7297479358420
 21
348.1768233369729
 31
0.0000000000000000
  0
LINE
  5
3BA
100
AcDbEntity
  8
MAIN0
  6
PHANTOM
 62
3
100
AcDbLine
 10
186.0818144261840
 20
325.6363906051078
 30
0.0000000000000000
 11
195.1448922965151
 21
321.4102079876981
 31
0.0000000000000000
  0
LINE
  5
3BB
100
AcDbEntity
  8
MAIN0
  6
PHANTOM
 62
3
100
AcDbLine
 10
186.0818052310483
 20
325.6363948928818
 30
0.0000000000000000
 11
185.5981157057571
 21
326.9653209416624
 31
0.0000000000000000
  0
LINE
  5
3BC
100
AcDbEntity
  8
MAIN0
  6
CENTER
 62
3
100
AcDbLine
 10
214.4091337857305
 20
300.8828474942350
 30
0.0000000000000000
 11
226.2825085438145
 21
312.7562222523100
 31
0.0000000000000000
  0
LINE
  5
3BD
100
AcDbEntity
  8
MAIN0
  6
CENTER
 62
3
100
AcDbLine
 10
84.53989314017582
 20
313.3728213083607
 30
0.0000000000000000
 11
96.62053370973882
 21
301.2921807385685
 31
0.0000000000000000
  0
LINE
  5
3BE
100
AcDbEntity
  8
MAIN0
  6
CENTER
 62
12
100
AcDbLine
 10
230.0272770794994
 20
167.8854373690715
 30
0.0000000000000000
 11
197.7230184992262
 21
200.1896959493391
 31
0.0000000000000000
  0
LINE
  5
3BF
100
AcDbEntity
  8
MAIN0
  6
CENTER
 62
3
100
AcDbLine
 10
213.8656358493414
 20
257.7734241239400
 30
0.0000000000000000
 11
238.1812640005596
 21
264.2887770505209
 31
0.0000000000000000
  0
LINE
  5
3C0
100
AcDbEntity
  8
MAIN0
  6
PHANTOM
 62
3
100
AcDbLine
 10
47.38199978150090
 20
388.6177350527071
 30
0.0000000000000000
 11
95.71932541066363
 21
388.6177350527078
 31
0.0000000000000000
  0
LINE
  5
3C1
100
AcDbEntity
  8
MAIN0
  6
PHANTOM
 62
3
100
AcDbLine
 10
46.85192133068546
 20
361.6177350527078
 30
0.0000000000000000
 11
95.18924695984813
 21
361.6177350527084
 31
0.0000000000000000
  0
LINE
  5
3C2
100
AcDbEntity
  8
MAIN0
  6
CENTER
 62
3
100
AcDbLine
 10
89.89584078683831
 20
349.6177350527107
 30
0.0000000000000000
 11
80.89949549527131
 21
349.6177350527105
 31
0.0000000000000000
  0
LINE
  5
3C3
100
AcDbEntity
  8
MAIN0
  6
CENTER
 62
3
100
AcDbLine
 10
49.36009467908042
 20
370.6177350527103
 30
0.0000000000000000
 11
60.94863382701058
 21
370.6177350527104
 31
0.0000000000000000
  0
INSERT
  5
3D8
100
AcDbEntity
  8
MAIN0
  6
CONTINUOUS
 62
3
100
AcDbBlockReference
  2
*X2
 10
0.0000000000000000
 20
0.0000000000000000
 30
0.0000000000000000
 50
0.0000000000000000
  0
INSERT
  5
3ED
100
AcDbEntity
  8
MAIN0
  6
CONTINUOUS
 62
3
100
AcDbBlockReference
  2
*X3
 10
0.0000000000000000
 20
0.0000000000000000
 30
0.0000000000000000
 50
0.0000000000000000
  0
LINE
  5
3EE
100
AcDbEntity
  8
MAIN0
  6
HIDDEN
 62
3
100
AcDbLine
 10
162.2778958909704
 20
152.9365573996337
 30
0.0000000000000000
 11
162.0042503697459
 21
161.6932140788165
 31
0.0000000000000000
  0
LINE
  5
3EF
100
AcDbEntity
  8
MAIN0
  6
HIDDEN
 62
3
100
AcDbLine
 10
162.0042503697459
 20
161.6932140788165
 30
0.0000000000000000
 11
149.4347503697458
 21
161.6932140788165
 31
0.0000000000000000
  0
LINE
  5
3F0
100
AcDbEntity
  8
MAIN0
  6
HIDDEN
 62
3
100
AcDbLine
 10
149.4347503697459
 20
161.6932140788165
 30
0.0000000000000000
 11
149.1611048485214
 21
152.9365573996331
 31
0.0000000000000000
  0
LINE
  5
3F1
100
AcDbEntity
  8
MAIN0
  6
HIDDEN
 62
3
100
AcDbLine
 10
161.4237496062671
 20
152.8772385101368
 30
0.0000000000000000
 11
161.1482503697458
 21
161.6932140788165
 31
0.0000000000000000
  0
LINE
  5
3F2
100
AcDbEntity
  8
MAIN0
  6
HIDDEN
 62
3
100
AcDbLine
 10
150.0152511332247
 20
152.8772385101363
 30
0.0000000000000000
 11
150.2907503697459
 21
161.6932140788165
 31
0.0000000000000000
  0
LINE
  5
3F3
100
AcDbEntity
  8
MAIN0
  6
HIDDEN
 62
3
100
AcDbLine
 10
161.1195003697441
 20
161.6932140788165
 30
0.0000000000000000
 11
161.1195003697441
 21
213.1932140788164
 31
0.0000000000000000
  0
LINE
  5
3F4
100
AcDbEntity
  8
MAIN0
  6
HIDDEN
 62
3
100
AcDbLine
 10
161.1195003697437
 20
213.1932140788164
 30
0.0000000000000000
 11
150.3195003697437
 21
213.1932140788164
 31
0.0000000000000000
  0
LINE
  5
3F5
100
AcDbEntity
  8
MAIN0
  6
HIDDEN
 62
3
100
AcDbLine
 10
150.3195003697441
 20
213.1932140788164
 30
0.0000000000000000
 11
150.3195003697441
 21
161.6932140788165
 31
0.0000000000000000
  0
CIRCLE
  5
3F6
100
AcDbEntity
  8
MAIN0
  6
CONTINUOUS
 62
3
100
AcDbCircle
 10
147.7195003697384
 20
324.6932140788163
 30
0.0000000000000000
 40
5.000000000000000
  0
LINE
  5
3F7
100
AcDbEntity
  8
MAIN0
  6
CONTINUOUS
 62
3
100
AcDbLine
 10
147.7195003697383
 20
327.5799654247644
 30
0.0000000000000000
 11
145.2195003697384
 21
326.1365897517903
 31
0.0000000000000000
  0
LINE
  5
3F8
100
AcDbEntity
  8
MAIN0
  6
CONTINUOUS
 62
3
100
AcDbLine
 10
145.2195003697384
 20
326.1365897517903
 30
0.0000000000000000
 11
145.2195003697384
 21
323.2498384058422
 31
0.0000000000000000
  0
LINE
  5
3F9
100
AcDbEntity
  8
MAIN0
  6
CONTINUOUS
 62
3
100
AcDbLine
 10
145.2195003697384
 20
323.2498384058422
 30
0.0000000000000000
 11
147.7195003697384
 21
321.8064627328681
 31
0.0000000000000000
  0
LINE
  5
3FA
100
AcDbEntity
  8
MAIN0
  6
CONTINUOUS
 62
3
100
AcDbLine
 10
147.7195003697383
 20
321.8064627328681
 30
0.0000000000000000
 11
150.2195003697383
 21
323.2498384058422
 31
0.0000000000000000
  0
LINE
  5
3FB
100
AcDbEntity
  8
MAIN0
  6
CONTINUOUS
 62
3
100
AcDbLine
 10
150.2195003697384
 20
323.2498384058422
 30
0.0000000000000000
 11
150.2195003697384
 21
326.1365897517903
 31
0.0000000000000000
  0
LINE
  5
3FC
100
AcDbEntity
  8
MAIN0
  6
CONTINUOUS
 62
3
100
AcDbLine
 10
150.2195003697384
 20
326.1365897517903
 30
0.0000000000000000
 11
147.7195003697384
 21
327.5799654247644
 31
0.0000000000000000
  0
LINE
  5
3FD
100
AcDbEntity
  8
MAIN0
  6
CENTER
 62
3
100
AcDbLine
 10
171.4848755461149
 20
280.2541966452589
 30
0.0000000000000000
 11
164.2508866939347
 21
262.7898026482823
 31
0.0000000000000000
  0
LINE
  5
3FE
100
AcDbEntity
  8
MAIN0
  6
CENTER
 62
3
100
AcDbLine
 10
118.7867471325720
 20
257.4912613655374
 30
0.0000000000000000
 11
134.3137914174479
 21
251.0597490391694
 31
0.0000000000000000
  0
LINE
  5
3FF
100
AcDbEntity
  8
MAIN0
  6
CENTER
 62
3
100
AcDbLine
 10
140.5339022405356
 20
205.5319371227969
 30
0.0000000000000000
 11
147.1881140455485
 21
221.5966255093504
 31
0.0000000000000000
  0
LINE
  5
400
100
AcDbEntity
  8
MAIN0
  6
CENTER
 62
3
100
AcDbLine
 10
191.8777684436699
 20
227.2159690505668
 30
0.0000000000000000
 11
176.3160889392076
 21
233.6618277546232
 31
0.0000000000000000
  0
CIRCLE
  5
401
100
AcDbEntity
  8
MAIN0
  6
CONTINUOUS
 62
3
100
AcDbCircle
 10
167.7740284893308
 20
271.2954193528851
 30
0.0000000000000000
 40
5.000000000000000
  0
LINE
  5
402
100
AcDbEntity
  8
MAIN0
  6
CONTINUOUS
 62
3
100
AcDbLine
 10
167.7740284893309
 20
274.1821706988332
 30
0.0000000000000000
 11
165.2740284893309
 21
272.7387950258591
 31
0.0000000000000000
  0
LINE
  5
403
100
AcDbEntity
  8
MAIN0
  6
CONTINUOUS
 62
3
100
AcDbLine
 10
165.2740284893308
 20
272.7387950258591
 30
0.0000000000000000
 11
165.2740284893308
 21
269.8520436799110
 31
0.0000000000000000
  0
LINE
  5
404
100
AcDbEntity
  8
MAIN0
  6
CONTINUOUS
 62
3
100
AcDbLine
 10
165.2740284893309
 20
269.8520436799110
 30
0.0000000000000000
 11
167.7740284893309
 21
268.4086680069369
 31
0.0000000000000000
  0
LINE
  5
405
100
AcDbEntity
  8
MAIN0
  6
CONTINUOUS
 62
3
100
AcDbLine
 10
167.7740284893309
 20
268.4086680069369
 30
0.0000000000000000
 11
170.2740284893309
 21
269.8520436799110
 31
0.0000000000000000
  0
LINE
  5
406
100
AcDbEntity
  8
MAIN0
  6
CONTINUOUS
 62
3
100
AcDbLine
 10
170.2740284893308
 20
269.8520436799110
 30
0.0000000000000000
 11
170.2740284893308
 21
272.7387950258591
 31
0.0000000000000000
  0
LINE
  5
407
100
AcDbEntity
  8
MAIN0
  6
CONTINUOUS
 62
3
100
AcDbLine
 10
170.2740284893309
 20
272.7387950258591
 30
0.0000000000000000
 11
167.7740284893309
 21
274.1821706988332
 31
0.0000000000000000
  0
CIRCLE
  5
408
100
AcDbEntity
  8
MAIN0
  6
CONTINUOUS
 62
3
100
AcDbCircle
 10
167.7740284893309
 20
271.2954193528851
 30
0.0000000000000000
 40
5.500000000000000
  0
CIRCLE
  5
409
100
AcDbEntity
  8
MAIN0
  6
CONTINUOUS
 62
3
100
AcDbCircle
 10
126.6172950956729
 20
254.2477421984056
 30
0.0000000000000000
 40
5.000000000000000
  0
LINE
  5
40A
100
AcDbEntity
  8
MAIN0
  6
CONTINUOUS
 62
3
100
AcDbLine
 10
126.6172950956729
 20
257.1344935443537
 30
0.0000000000000000
 11
124.1172950956729
 21
255.6911178713797
 31
0.0000000000000000
  0
LINE
  5
40B
100
AcDbEntity
  8
MAIN0
  6
CONTINUOUS
 62
3
100
AcDbLine
 10
124.1172950956729
 20
255.6911178713797
 30
0.0000000000000000
 11
124.1172950956729
 21
252.8043665254316
 31
0.0000000000000000
  0
LINE
  5
40C
100
AcDbEntity
  8
MAIN0
  6
CONTINUOUS
 62
3
100
AcDbLine
 10
124.1172950956729
 20
252.8043665254315
 30
0.0000000000000000
 11
126.6172950956729
 21
251.3609908524575
 31
0.0000000000000000
  0
LINE
  5
40D
100
AcDbEntity
  8
MAIN0
  6
CONTINUOUS
 62
3
100
AcDbLine
 10
126.6172950956729
 20
251.3609908524575
 30
0.0000000000000000
 11
129.1172950956729
 21
252.8043665254315
 31
0.0000000000000000
  0
LINE
  5
40E
100
AcDbEntity
  8
MAIN0
  6
CONTINUOUS
 62
3
100
AcDbLine
 10
129.1172950956729
 20
252.8043665254316
 30
0.0000000000000000
 11
129.1172950956729
 21
255.6911178713797
 31
0.0000000000000000
  0
LINE
  5
40F
100
AcDbEntity
  8
MAIN0
  6
CONTINUOUS
 62
3
100
AcDbLine
 10
129.1172950956729
 20
255.6911178713797
 30
0.0000000000000000
 11
126.6172950956729
 21
257.1344935443538
 31
0.0000000000000000
  0
CIRCLE
  5
410
100
AcDbEntity
  8
MAIN0
  6
CONTINUOUS
 62
3
100
AcDbCircle
 10
126.6172950956729
 20
254.2477421984056
 30
0.0000000000000000
 40
5.500000000000000
  0
CIRCLE
  5
411
100
AcDbEntity
  8
MAIN0
  6
CONTINUOUS
 62
3
100
AcDbCircle
 10
143.6649722501522
 20
213.0910088047477
 30
0.0000000000000000
 40
5.000000000000000
  0
LINE
  5
412
100
AcDbEntity
  8
MAIN0
  6
CONTINUOUS
 62
3
100
AcDbLine
 10
143.6649722501523
 20
215.9777601506958
 30
0.0000000000000000
 11
141.1649722501522
 21
214.5343844777217
 31
0.0000000000000000
  0
LINE
  5
413
100
AcDbEntity
  8
MAIN0
  6
CONTINUOUS
 62
3
100
AcDbLine
 10
141.1649722501522
 20
214.5343844777218
 30
0.0000000000000000
 11
141.1649722501522
 21
211.6476331317737
 31
0.0000000000000000
  0
LINE
  5
414
100
AcDbEntity
  8
MAIN0
  6
CONTINUOUS
 62
3
100
AcDbLine
 10
141.1649722501522
 20
211.6476331317737
 30
0.0000000000000000
 11
143.6649722501523
 21
210.2042574587996
 31
0.0000000000000000
  0
LINE
  5
415
100
AcDbEntity
  8
MAIN0
  6
CONTINUOUS
 62
3
100
AcDbLine
 10
143.6649722501523
 20
210.2042574587995
 30
0.0000000000000000
 11
146.1649722501523
 21
211.6476331317736
 31
0.0000000000000000
  0
LINE
  5
416
100
AcDbEntity
  8
MAIN0
  6
CONTINUOUS
 62
3
100
AcDbLine
 10
146.1649722501522
 20
211.6476331317737
 30
0.0000000000000000
 11
146.1649722501522
 21
214.5343844777218
 31
0.0000000000000000
  0
LINE
  5
417
100
AcDbEntity
  8
MAIN0
  6
CONTINUOUS
 62
3
100
AcDbLine
 10
146.1649722501523
 20
214.5343844777218
 30
0.0000000000000000
 11
143.6649722501522
 21
215.9777601506959
 31
0.0000000000000000
  0
CIRCLE
  5
418
100
AcDbEntity
  8
MAIN0
  6
CONTINUOUS
 62
3
100
AcDbCircle
 10
143.6649722501524
 20
213.0910088047477
 30
0.0000000000000000
 40
5.500000000000000
  0
CIRCLE
  5
419
100
AcDbEntity
  8
MAIN0
  6
CONTINUOUS
 62
3
100
AcDbCircle
 10
184.8217056438102
 20
230.1386859592271
 30
0.0000000000000000
 40
5.000000000000000
  0
LINE
  5
41A
100
AcDbEntity
  8
MAIN0
  6
CONTINUOUS
 62
3
100
AcDbLine
 10
184.8217056438102
 20
233.0254373051752
 30
0.0000000000000000
 11
182.3217056438103
 21
231.5820616322012
 31
0.0000000000000000
  0
LINE
  5
41B
100
AcDbEntity
  8
MAIN0
  6
CONTINUOUS
 62
3
100
AcDbLine
 10
182.3217056438102
 20
231.5820616322012
 30
0.0000000000000000
 11
182.3217056438102
 21
228.6953102862530
 31
0.0000000000000000
  0
LINE
  5
41C
100
AcDbEntity
  8
MAIN0
  6
CONTINUOUS
 62
3
100
AcDbLine
 10
182.3217056438103
 20
228.6953102862530
 30
0.0000000000000000
 11
184.8217056438103
 21
227.2519346132790
 31
0.0000000000000000
  0
LINE
  5
41D
100
AcDbEntity
  8
MAIN0
  6
CONTINUOUS
 62
3
100
AcDbLine
 10
184.8217056438103
 20
227.2519346132790
 30
0.0000000000000000
 11
187.3217056438103
 21
228.6953102862530
 31
0.0000000000000000
  0
LINE
  5
41E
100
AcDbEntity
  8
MAIN0
  6
CONTINUOUS
 62
3
100
AcDbLine
 10
187.3217056438102
 20
228.6953102862530
 30
0.0000000000000000
 11
187.3217056438102
 21
231.5820616322012
 31
0.0000000000000000
  0
LINE
  5
41F
100
AcDbEntity
  8
MAIN0
  6
CONTINUOUS
 62
3
100
AcDbLine
 10
187.3217056438103
 20
231.5820616322012
 30
0.0000000000000000
 11
184.8217056438103
 21
233.0254373051752
 31
0.0000000000000000
  0
CIRCLE
  5
420
100
AcDbEntity
  8
MAIN0
  6
CONTINUOUS
 62
3
100
AcDbCircle
 10
184.8217056438103
 20
230.1386859592272
 30
0.0000000000000000
 40
5.500000000000000
  0
ARC
  5
421
100
AcDbEntity
  8
MAIN0
  6
CONTINUOUS
 62
3
100
AcDbCircle
 10
122.1818324729211
 20
155.7506474113470
 30
0.0000000000000000
 40
3.300000000000007
100
AcDbArc
 50
160.0000000000293
 51
250.0000000000291
  0
LINE
  5
422
100
AcDbEntity
  8
MAIN0
  6
CONTINUOUS
 62
3
100
AcDbLine
 10
121.0531659999480
 20
152.6496617627529
 30
0.0000000000000000
 11
124.7179672210137
 21
151.3157832037847
 31
0.0000000000000000
  0
ARC
  5
423
100
AcDbEntity
  8
MAIN0
  6
CONTINUOUS
 62
3
100
AcDbCircle
 10
125.8466336939868
 20
154.4167688523788
 30
0.0000000000000000
 40
3.300000000000004
100
AcDbArc
 50
250.0000000000291
 51
340.0000000000293
  0
ARC
  5
424
100
AcDbEntity
  8
MAIN0
  6
CONTINUOUS
 62
3
100
AcDbCircle
 10
91.54955997698957
 20
309.1208709181835
 30
0.0000000000000000
 40
3.299999999999994
100
AcDbArc
 50
45.00000000003026
 51
135.0000000000302
  0
LINE
  5
425
100
AcDbEntity
  8
MAIN0
  6
CONTINUOUS
 62
3
100
AcDbLine
 10
89.21610759907287
 20
311.4543232960979
 30
0.0000000000000000
 11
86.45839115244681
 21
308.6966068494689
 31
0.0000000000000000
  0
ARC
  5
426
100
AcDbEntity
  8
MAIN0
  6
CONTINUOUS
 62
3
100
AcDbCircle
 10
88.79184353036348
 20
306.3631544715545
 30
0.0000000000000000
 40
3.300000000000008
100
AcDbArc
 50
135.0000000000302
 51
225.0000000000303
  0
ARC
  5
427
100
AcDbEntity
  8
MAIN0
  6
CONTINUOUS
 62
3
100
AcDbCircle
 10
222.6471572094015
 20
306.3631544712755
 30
0.0000000000000000
 40
3.299999999999994
100
AcDbArc
 50
315.0000000000298
 51
405.0000000000298
  0
LINE
  5
428
100
AcDbEntity
  8
MAIN0
  6
CONTINUOUS
 62
3
100
AcDbLine
 10
224.9806095873159
 20
308.6966068491923
 30
0.0000000000000000
 11
222.2228931406870
 21
311.4543232958184
 31
0.0000000000000000
  0
ARC
  5
429
100
AcDbEntity
  8
MAIN0
  6
CONTINUOUS
 62
3
100
AcDbCircle
 10
219.8894407627726
 20
309.1208709179016
 30
0.0000000000000000
 40
3.300000000000003
100
AcDbArc
 50
45.00000000002975
 51
135.0000000000297
  0
CIRCLE
  5
42A
100
AcDbEntity
  8
MAIN0
  6
CONTINUOUS
 62
3
100
AcDbCircle
 10
163.7195003697384
 20
324.6932140788163
 30
0.0000000000000000
 40
5.000000000000000
  0
LINE
  5
42B
100
AcDbEntity
  8
MAIN0
  6
CONTINUOUS
 62
3
100
AcDbLine
 10
163.7195003697383
 20
327.5799654247644
 30
0.0000000000000000
 11
161.2195003697383
 21
326.1365897517903
 31
0.0000000000000000
  0
LINE
  5
42C
100
AcDbEntity
  8
MAIN0
  6
CONTINUOUS
 62
3
100
AcDbLine
 10
161.2195003697384
 20
326.1365897517903
 30
0.0000000000000000
 11
161.2195003697384
 21
323.2498384058422
 31
0.0000000000000000
  0
LINE
  5
42D
100
AcDbEntity
  8
MAIN0
  6
CONTINUOUS
 62
3
100
AcDbLine
 10
161.2195003697383
 20
323.2498384058422
 30
0.0000000000000000
 11
163.7195003697383
 21
321.8064627328682
 31
0.0000000000000000
  0
LINE
  5
42E
100
AcDbEntity
  8
MAIN0
  6
CONTINUOUS
 62
3
100
AcDbLine
 10
163.7195003697383
 20
321.8064627328682
 30
0.0000000000000000
 11
166.2195003697383
 21
323.2498384058422
 31
0.0000000000000000
  0
LINE
  5
42F
100
AcDbEntity
  8
MAIN0
  6
CONTINUOUS
 62
3
100
AcDbLine
 10
166.2195003697384
 20
323.2498384058422
 30
0.0000000000000000
 11
166.2195003697384
 21
326.1365897517903
 31
0.0000000000000000
  0
LINE
  5
430
100
AcDbEntity
  8
MAIN0
  6
CONTINUOUS
 62
3
100
AcDbLine
 10
166.2195003697383
 20
326.1365897517903
 30
0.0000000000000000
 11
163.7195003697383
 21
327.5799654247644
 31
0.0000000000000000
  0
LINE
  5
431
100
AcDbEntity
  8
MAIN0
  6
CONTINUOUS
 62
3
100
AcDbLine
 10
86.88265522116205
 20
302.1912244625529
 30
0.0000000000000000
 11
85.75128437126296
 21
303.3225953124508
 31
0.0000000000000000
  0
LINE
  5
432
100
AcDbEntity
  8
MAIN0
  6
CONTINUOUS
 62
3
100
AcDbLine
 10
85.75128437126290
 20
303.3225953124507
 30
0.0000000000000000
 11
94.59011913609021
 21
312.1614300772871
 31
0.0000000000000000
  0
LINE
  5
433
100
AcDbEntity
  8
MAIN0
  6
CONTINUOUS
 62
3
100
AcDbLine
 10
94.59011913609027
 20
312.1614300772872
 30
0.0000000000000000
 11
95.72148998598931
 21
311.0300592273893
 31
0.0000000000000000
  0
LINE
  5
434
100
AcDbEntity
  8
MAIN0
  6
CONTINUOUS
 62
3
100
AcDbLine
 10
130.4345441926873
 20
154.4495904293382
 30
0.0000000000000000
 11
129.8873119633670
 21
152.9460822360805
 31
0.0000000000000000
  0
LINE
  5
435
100
AcDbEntity
  8
MAIN0
  6
CONTINUOUS
 62
3
100
AcDbLine
 10
129.8873119633670
 20
152.9460822360805
 30
0.0000000000000000
 11
118.1411542035409
 21
157.2213340276453
 31
0.0000000000000000
  0
LINE
  5
436
100
AcDbEntity
  8
MAIN0
  6
CONTINUOUS
 62
3
100
AcDbLine
 10
118.1411542035410
 20
157.2213340276452
 30
0.0000000000000000
 11
118.6883864328613
 21
158.7248422209030
 31
0.0000000000000000
  0
LINE
  5
437
100
AcDbEntity
  8
MAIN0
  6
CONTINUOUS
 62
3
100
AcDbLine
 10
215.7175107537709
 20
311.0300592271030
 30
0.0000000000000000
 11
216.8488816036688
 21
312.1614300770021
 31
0.0000000000000000
  0
LINE
  5
438
100
AcDbEntity
  8
MAIN0
  6
CONTINUOUS
 62
3
100
AcDbLine
 10
216.8488816036688
 20
312.1614300770021
 30
0.0000000000000000
 11
225.6877163685053
 21
303.3225953121749
 31
0.0000000000000000
  0
LINE
  5
439
100
AcDbEntity
  8
MAIN0
  6
CONTINUOUS
 62
3
100
AcDbLine
 10
225.6877163685053
 20
303.3225953121749
 30
0.0000000000000000
 11
224.5563455186074
 21
302.1912244622759
 31
0.0000000000000000
  0
LINE
  5
43A
100
AcDbEntity
  8
MAIN0
  6
CONTINUOUS
 62
3
100
AcDbLine
 10
282.9634034886057
 20
325.6882526816297
 30
0.0000000000000000
 11
307.8978809313070
 21
379.1604121167923
 31
0.0000000000000000
  0
LINE
  5
43B
100
AcDbEntity
  8
MAIN0
  6
CONTINUOUS
 62
3
100
AcDbLine
 10
246.7110920071397
 20
342.5929831512577
 30
0.0000000000000000
 11
273.7586607585445
 21
400.5966815216032
 31
0.0000000000000000
  0
LINE
  5
43C
100
AcDbEntity
  8
MAIN0
  6
CENTER
 62
3
100
AcDbLine
 10
262.8575464042057
 20
329.8951346844077
 30
0.0000000000000000
 11
292.2941561430153
 21
393.0221479856241
 31
0.0000000000000000
  0
LINE
  5
43D
100
AcDbEntity
  8
MAIN0
  6
CENTER
 62
3
100
AcDbLine
 10
265.7141950710258
 20
361.3161386379211
 30
0.0000000000000000
 11
285.1989451234377
 21
352.2302504712454
 31
0.0000000000000000
  0
CIRCLE
  5
43E
100
AcDbEntity
  8
MAIN0
  6
CONTINUOUS
 62
3
100
AcDbCircle
 10
275.4027042913902
 20
356.7983125923599
 30
0.0000000000000000
 40
6.000000000002210
  0
CIRCLE
  5
43F
100
AcDbEntity
  8
MAIN0
  6
CONTINUOUS
 62
3
100
AcDbCircle
 10
275.4027042913902
 20
356.7983125923599
 30
0.0000000000000000
 40
5.458500000002196
  0
LINE
  5
440
100
AcDbEntity
  8
MAIN0
  6
PHANTOM
 62
3
100
AcDbLine
 10
281.0323309603039
 20
348.7583724869345
 30
0.0000000000000000
 11
285.1803100020928
 21
357.6537422481793
 31
0.0000000000000000
  0
LINE
  5
441
100
AcDbEntity
  8
MAIN0
  6
PHANTOM
 62
3
100
AcDbLine
 10
265.6250985804088
 20
355.9428829359429
 30
0.0000000000000000
 11
269.7730776227552
 21
364.8382526983833
 31
0.0000000000000000
  0
LINE
  5
442
100
AcDbEntity
  8
MAIN0
  6
PHANTOM
 62
3
100
AcDbLine
 10
269.7730776227551
 20
364.8382526983833
 30
0.0000000000000000
 11
279.5506833331089
 21
365.6936823544518
 31
0.0000000000000000
  0
LINE
  5
443
100
AcDbEntity
  8
MAIN0
  6
PHANTOM
 62
3
100
AcDbLine
 10
271.2547252487349
 20
347.9029428307596
 30
0.0000000000000000
 11
281.0323309603040
 21
348.7583724869344
 31
0.0000000000000000
  0
LINE
  5
444
100
AcDbEntity
  8
MAIN0
  6
PHANTOM
 62
3
100
AcDbLine
 10
271.2547252489862
 20
347.9029428304880
 30
0.0000000000000000
 11
265.6250985805033
 21
355.9428829358079
 31
0.0000000000000000
  0
LINE
  5
445
100
AcDbEntity
  8
MAIN0
  6
PHANTOM
 62
3
100
AcDbLine
 10
285.1803100023197
 20
357.6537422478552
 30
0.0000000000000000
 11
279.5506833331372
 21
365.6936823541745
 31
0.0000000000000000
  0
CIRCLE
  5
446
100
AcDbEntity
  8
MAIN0
  6
PHANTOM
 62
3
100
AcDbCircle
 10
275.4027042913902
 20
356.7983125923600
 30
0.0000000000000000
 40
8.499999999999972
  0
LINE
  5
447
100
AcDbEntity
  8
MAIN0
  6
CENTER
 62
3
100
AcDbLine
 10
255.6887051058169
 20
350.0145286552656
 30
0.0000000000000000
 11
272.0678091943861
 21
385.1396307249488
 31
0.0000000000000000
  0
ARC
  5
448
100
AcDbEntity
  8
MAIN0
  6
CONTINUOUS
 62
3
100
AcDbCircle
 10
257.3705957375631
 20
353.6213547545856
 30
0.0000000000000000
 40
2.750000000000000
100
AcDbArc
 50
155.0000000000000
 51
335.0000000000001
  0
CIRCLE
  5
449
100
AcDbEntity
  8
MAIN0
  6
CONTINUOUS
 62
3
100
AcDbCircle
 10
260.9628509623591
 20
361.3249709443974
 30
0.0000000000000000
 40
5.000000000000000
  0
CIRCLE
  5
44A
100
AcDbEntity
  8
MAIN0
  6
CONTINUOUS
 62
3
100
AcDbCircle
 10
260.9628509623591
 20
361.3249709443974
 30
0.0000000000000000
 40
4.250000000000000
  0
LINE
  5
44B
100
AcDbEntity
  8
MAIN0
  6
CONTINUOUS
 62
3
100
AcDbLine
 10
258.8698227831021
 20
362.3009660131190
 30
0.0000000000000000
 11
260.7615733962120
 21
363.6255840528315
 31
0.0000000000000000
  0
LINE
  5
44C
100
AcDbEntity
  8
MAIN0
  6
CONTINUOUS
 62
3
100
AcDbLine
 10
260.7615733962119
 20
363.6255840528315
 30
0.0000000000000000
 11
262.8546015754690
 21
362.6495889841097
 31
0.0000000000000000
  0
LINE
  5
44D
100
AcDbEntity
  8
MAIN0
  6
CONTINUOUS
 62
3
100
AcDbLine
 10
262.8546015754689
 20
362.6495889841098
 30
0.0000000000000000
 11
263.0558791416161
 21
360.3489758756755
 31
0.0000000000000000
  0
LINE
  5
44E
100
AcDbEntity
  8
MAIN0
  6
CONTINUOUS
 62
3
100
AcDbLine
 10
263.0558791416161
 20
360.3489758756755
 30
0.0000000000000000
 11
261.1641285285062
 21
359.0243578359631
 31
0.0000000000000000
  0
LINE
  5
44F
100
AcDbEntity
  8
MAIN0
  6
CONTINUOUS
 62
3
100
AcDbLine
 10
261.1641285285061
 20
359.0243578359631
 30
0.0000000000000000
 11
259.0711003492491
 21
360.0003529046849
 31
0.0000000000000000
  0
LINE
  5
450
100
AcDbEntity
  8
MAIN0
  6
CONTINUOUS
 62
3
100
AcDbLine
 10
259.0711003492491
 20
360.0003529046848
 30
0.0000000000000000
 11
258.8698227831019
 21
362.3009660131191
 31
0.0000000000000000
  0
LINE
  5
451
100
AcDbEntity
  8
MAIN0
  6
CONTINUOUS
 62
3
100
AcDbLine
 10
257.5182755105259
 20
345.2771561532796
 30
0.0000000000000000
 11
278.0728756495891
 21
335.6923886981207
 31
0.0000000000000000
  0
LINE
  5
452
100
AcDbEntity
  8
MAIN0
  6
CONTINUOUS
 62
3
100
AcDbLine
 10
276.3247881579871
 20
385.6078526764109
 30
0.0000000000000000
 11
266.3628411770632
 21
384.7362952489372
 31
0.0000000000000000
  0
LINE
  5
453
100
AcDbEntity
  8
MAIN0
  6
CONTINUOUS
 62
3
100
AcDbLine
 10
276.3247881579870
 20
385.6078526764106
 30
0.0000000000000000
 11
296.8793882970502
 21
376.0230852212517
 31
0.0000000000000000
  0
ARC
  5
454
100
AcDbEntity
  8
MAIN0
  6
CONTINUOUS
 62
3
100
AcDbCircle
 10
269.8378344589137
 20
380.3574344721668
 30
0.0000000000000000
 40
2.750000000000000
100
AcDbArc
 50
335.0000000000001
 51
515.0000000000000
  0
LINE
  5
455
100
AcDbEntity
  8
MAIN0
  6
CENTER
 62
3
100
AcDbLine
 10
265.9649797525625
 20
382.1633762806600
 30
0.0000000000000000
 11
274.2212124892585
 21
378.3134317280287
 31
0.0000000000000000
  0
LINE
  5
456
100
AcDbEntity
  8
MAIN0
  6
CONTINUOUS
 62
3
100
AcDbLine
 10
296.8793882970503
 20
376.0230852212518
 30
0.0000000000000000
 11
302.6151526605672
 21
367.8315647783588
 31
0.0000000000000000
  0
LINE
  5
457
100
AcDbEntity
  8
MAIN0
  6
CENTER
 62
3
100
AcDbLine
 10
254.7089805246637
 20
364.2411986226038
 30
0.0000000000000000
 11
267.4023209820197
 21
358.3221967597700
 31
0.0000000000000000
  0
LINE
  5
458
100
AcDbEntity
  8
MAIN0
  6
CENTER
 62
3
100
AcDbLine
 10
282.7507494344540
 20
337.0632225065896
 30
0.0000000000000000
 11
299.2089261925308
 21
372.3578964632549
 31
0.0000000000000000
  0
ARC
  5
459
100
AcDbEntity
  8
MAIN0
  6
CONTINUOUS
 62
3
100
AcDbCircle
 10
284.5598293486626
 20
340.9428069023646
 30
0.0000000000000000
 40
2.750000000000000
100
AcDbArc
 50
155.0000000000000
 51
335.0000000000001
  0
CIRCLE
  5
45A
100
AcDbEntity
  8
MAIN0
  6
CONTINUOUS
 62
3
100
AcDbCircle
 10
288.1520845734586
 20
348.6464230921763
 30
0.0000000000000000
 40
5.000000000000000
  0
CIRCLE
  5
45B
100
AcDbEntity
  8
MAIN0
  6
CONTINUOUS
 62
3
100
AcDbCircle
 10
288.1520845734586
 20
348.6464230921763
 30
0.0000000000000000
 40
4.250000000000000
  0
LINE
  5
45C
100
AcDbEntity
  8
MAIN0
  6
CONTINUOUS
 62
3
100
AcDbLine
 10
290.2451127527156
 20
347.6704280234544
 30
0.0000000000000000
 11
290.0438351865684
 21
349.9710411318886
 31
0.0000000000000000
  0
LINE
  5
45D
100
AcDbEntity
  8
MAIN0
  6
CONTINUOUS
 62
3
100
AcDbLine
 10
290.0438351865685
 20
349.9710411318887
 30
0.0000000000000000
 11
287.9508070073114
 21
350.9470362006105
 31
0.0000000000000000
  0
LINE
  5
45E
100
AcDbEntity
  8
MAIN0
  6
CONTINUOUS
 62
3
100
AcDbLine
 10
287.9508070073114
 20
350.9470362006105
 30
0.0000000000000000
 11
286.0590563942014
 21
349.6224181608980
 31
0.0000000000000000
  0
LINE
  5
45F
100
AcDbEntity
  8
MAIN0
  6
CONTINUOUS
 62
3
100
AcDbLine
 10
286.0590563942014
 20
349.6224181608980
 30
0.0000000000000000
 11
286.2603339603486
 21
347.3218050524638
 31
0.0000000000000000
  0
LINE
  5
460
100
AcDbEntity
  8
MAIN0
  6
CONTINUOUS
 62
3
100
AcDbLine
 10
286.2603339603486
 20
347.3218050524638
 30
0.0000000000000000
 11
288.3533621396057
 21
346.3458099837421
 31
0.0000000000000000
  0
LINE
  5
461
100
AcDbEntity
  8
MAIN0
  6
CONTINUOUS
 62
3
100
AcDbLine
 10
288.3533621396056
 20
346.3458099837421
 30
0.0000000000000000
 11
290.2451127527156
 21
347.6704280234545
 31
0.0000000000000000
  0
ARC
  5
462
100
AcDbEntity
  8
MAIN0
  6
CONTINUOUS
 62
3
100
AcDbCircle
 10
297.0270680700132
 20
367.6788866199458
 30
0.0000000000000000
 40
2.750000000000000
100
AcDbArc
 50
335.0000000000001
 51
515.0000000000000
  0
LINE
  5
463
100
AcDbEntity
  8
MAIN0
  6
CENTER
 62
3
100
AcDbLine
 10
300.8999227763644
 20
365.8729448114526
 30
0.0000000000000000
 11
292.6436900396684
 21
369.7228893640840
 31
0.0000000000000000
  0
LINE
  5
464
100
AcDbEntity
  8
MAIN0
  6
CENTER
 62
3
100
AcDbLine
 10
294.4059550111538
 20
345.7301954139698
 30
0.0000000000000000
 11
281.7126145537978
 21
351.6491972768035
 31
0.0000000000000000
  0
ARC
  5
465
100
AcDbEntity
  8
MAIN0
  6
HIDDEN
 62
3
100
AcDbCircle
 10
282.5872147409821
 20
372.2055449719831
 30
0.0000000000000000
 40
6.499999999999972
100
AcDbArc
 50
334.9999999999996
 51
515.0000000000001
  0
LINE
  5
466
100
AcDbEntity
  8
MAIN0
  6
CONTINUOUS
 62
3
100
AcDbLine
 10
305.4794333048273
 20
385.8050423606787
 30
0.0000000000000000
 11
307.8978809313070
 21
379.1604121167921
 31
0.0000000000000000
  0
LINE
  5
467
100
AcDbEntity
  8
MAIN0
  6
CONTINUOUS
 62
3
100
AcDbLine
 10
305.4794333048272
 20
385.8050423606788
 30
0.0000000000000000
 11
273.7586607585445
 21
400.5966815216033
 31
0.0000000000000000
  0
LINE
  5
468
100
AcDbEntity
  8
MAIN0
  6
CONTINUOUS
 62
3
100
AcDbLine
 10
50.22223547133697
 20
337.4456285436203
 30
0.0000000000000000
 11
50.22223547133703
 21
399.6177350527077
 31
0.0000000000000000
  0
LINE
  5
469
100
AcDbEntity
  8
MAIN0
  6
CENTER
 62
3
100
AcDbLine
 10
70.22223547133629
 20
404.2695160829738
 30
0.0000000000000000
 11
70.22223547133703
 21
335.8310420176864
 31
0.0000000000000000
  0
LINE
  5
46A
100
AcDbEntity
  8
MAIN0
  6
CENTER
 62
3
100
AcDbLine
 10
205.9571683487122
 20
356.4282167235990
 30
0.0000000000000000
 11
262.8575464042056
 21
329.8951346844077
 31
0.0000000000000000
  0
INSERT
  5
470
100
AcDbEntity
  8
MAIN0
  6
CONTINUOUS
 62
3
100
AcDbBlockReference
  2
M5
 10
0.0000000000000000
 20
0.0000000000000000
 30
0.0000000000000000
 50
0.0000000000000000
  0
MTEXT
  5
471
100
AcDbEntity
  8
MAIN0
  6
CONTINUOUS
 62
3
100
AcDbMText
 10
154.0034985640972
 20
395.6781465670072
 30
0.0000000000000000
 40
5.000000000000000
 41
0.0000000000000000
 71
     1
 72
     1
  1
{\H0.82x;{Q}}
 11
1.000000000000000
 21
0.0000000000000000
 31
0.0000000000000000
  7
STANDARD
  0
MTEXT
  5
472
100
AcDbEntity
  8
MAIN0
  6
CONTINUOUS
 62
3
100
AcDbMText
 10
63.67304779550869
 20
325.8533229449282
 30
0.0000000000000000
 40
4.000000000000000
 41
0.0000000000000000
 71
     1
 72
     1
  1
{\H0.91x;{矢視Ｑ}}
 11
1.000000000000000
 21
0.0000000000000000
 31
0.0000000000000000
  7
KNJYOKO
  0
LINE
  5
473
100
AcDbEntity
  8
MAIN0
  6
CONTINUOUS
 62
3
100
AcDbLine
 10
62.15101509072571
 20
320.8818415502096
 30
0.0000000000000000
 11
77.56716326856900
 21
320.8818415502096
 31
0.0000000000000000
  0
LINE
  5
474
100
AcDbEntity
  8
MAIN0
  6
CONTINUOUS
 62
3
100
AcDbLine
 10
81.56198143460918
 20
386.6177350527083
 30
0.0000000000000000
 11
90.22223547246071
 21
381.6177350527084
 31
0.0000000000000000
  0
LINE
  5
475
100
AcDbEntity
  8
MAIN0
  6
CONTINUOUS
 62
3
100
AcDbLine
 10
58.88248950806360
 20
386.6177350527078
 30
0.0000000000000000
 11
81.56198143460927
 21
386.6177350527081
 31
0.0000000000000000
  0
LINE
  5
476
100
AcDbEntity
  8
MAIN0
  6
CONTINUOUS
 62
3
100
AcDbLine
 10
58.88248950806346
 20
386.6177350527082
 30
0.0000000000000000
 11
50.22223547021207
 21
381.6177350527081
 31
0.0000000000000000
  0
ARC
  5
477
100
AcDbEntity
  8
MAIN0
  6
CONTINUOUS
 62
3
100
AcDbCircle
 10
55.22223547133643
 20
379.1177350527079
 30
0.0000000000000000
 40
2.750000000000000
100
AcDbArc
 50
8.142219984546603e-013
 51
180.0000000000008
  0
LINE
  5
478
100
AcDbEntity
  8
MAIN0
  6
CENTER
 62
3
100
AcDbLine
 10
50.94901310499864
 20
379.1177350527078
 30
0.0000000000000000
 11
60.05875800048432
 21
379.1177350527079
 31
0.0000000000000000
  0
LINE
  5
479
100
AcDbEntity
  8
MAIN0
  6
CONTINUOUS
 62
3
100
AcDbLine
 10
57.97223547133669
 20
374.7935583248328
 30
0.0000000000000000
 11
57.97223547133663
 21
379.1177350527079
 31
0.0000000000000000
  0
LINE
  5
47A
100
AcDbEntity
  8
MAIN0
  6
CONTINUOUS
 62
3
100
AcDbLine
 10
52.47223547133680
 20
374.7935583248328
 30
0.0000000000000000
 11
52.47223547133675
 21
379.1177350527078
 31
0.0000000000000000
  0
ARC
  5
47B
100
AcDbEntity
  8
MAIN0
  6
CONTINUOUS
 62
3
100
AcDbCircle
 10
85.22223547133652
 20
379.1177350527083
 30
0.0000000000000000
 40
2.750000000000000
100
AcDbArc
 50
8.142219984546603e-013
 51
180.0000000000008
  0
LINE
  5
47C
100
AcDbEntity
  8
MAIN0
  6
CENTER
 62
3
100
AcDbLine
 10
89.49545783767445
 20
379.1177350527083
 30
0.0000000000000000
 11
80.38571294218883
 21
379.1177350527082
 31
0.0000000000000000
  0
LINE
  5
47D
100
AcDbEntity
  8
MAIN0
  6
CONTINUOUS
 62
3
100
AcDbLine
 10
82.47223547133669
 20
374.7935583248332
 30
0.0000000000000000
 11
82.47223547133663
 21
379.1177350527082
 31
0.0000000000000000
  0
LINE
  5
47E
100
AcDbEntity
  8
MAIN0
  6
CONTINUOUS
 62
3
100
AcDbLine
 10
87.97223547133663
 20
374.7935583248332
 30
0.0000000000000000
 11
87.97223547133658
 21
379.1177350527082
 31
0.0000000000000000
  0
LINE
  5
47F
100
AcDbEntity
  8
MAIN0
  6
CENTER
 62
3
100
AcDbLine
 10
92.09283293097508
 20
370.6177350527107
 30
0.0000000000000000
 11
79.17643993128829
 21
370.6177350527105
 31
0.0000000000000000
  0
LINE
  5
480
100
AcDbEntity
  8
MAIN0
  6
CENTER
 62
3
100
AcDbLine
 10
50.90924586518145
 20
349.6177350527100
 30
0.0000000000000000
 11
60.22375335144903
 21
349.6177350527102
 31
0.0000000000000000
  0
ARC
  5
481
100
AcDbEntity
  8
MAIN0
  6
CONTINUOUS
 62
3
100
AcDbCircle
 10
55.22223547133683
 20
349.6177350527079
 30
0.0000000000000000
 40
2.750000000000000
100
AcDbArc
 50
180.0000000000007
 51
360.0000000000007
  0
ARC
  5
482
100
AcDbEntity
  8
MAIN0
  6
CONTINUOUS
 62
3
100
AcDbCircle
 10
85.22223547133692
 20
349.6177350527083
 30
0.0000000000000000
 40
2.750000000000000
100
AcDbArc
 50
180.0000000000007
 51
360.0000000000007
  0
LINE
  5
483
100
AcDbEntity
  8
MAIN0
  6
CENTER
 62
3
100
AcDbLine
 10
85.22223547133694
 20
345.3354544238488
 30
0.0000000000000000
 11
85.22223547133649
 21
383.3707872757331
 31
0.0000000000000000
  0
LINE
  5
484
100
AcDbEntity
  8
MAIN0
  6
CENTER
 62
3
100
AcDbLine
 10
55.22223547133706
 20
345.3354544238484
 30
0.0000000000000000
 11
55.22223547133658
 21
383.3707872757327
 31
0.0000000000000000
  0
LINE
  5
485
100
AcDbEntity
  8
MAIN0
  6
CENTER
 62
3
100
AcDbLine
 10
58.08366009863210
 20
368.6177350527079
 30
0.0000000000000000
 11
81.47935964885107
 21
368.6177350527081
 31
0.0000000000000000
  0
LINE
  5
486
100
AcDbEntity
  8
MAIN0
  6
PHANTOM
 62
3
100
AcDbLine
 10
78.72223547167931
 20
373.5252123402847
 30
0.0000000000000000
 11
70.22223547105793
 21
378.4326896287710
 31
0.0000000000000000
  0
LINE
  5
487
100
AcDbEntity
  8
MAIN0
  6
PHANTOM
 62
3
100
AcDbLine
 10
78.72223547133672
 20
363.7102577649182
 30
0.0000000000000000
 11
78.72223547133660
 21
373.5252123404824
 31
0.0000000000000000
  0
CIRCLE
  5
488
100
AcDbEntity
  8
MAIN0
  6
PHANTOM
 62
3
100
AcDbCircle
 10
70.22223547133649
 20
368.6177350527082
 30
0.0000000000000000
 40
8.499999999999972
  0
CIRCLE
  5
489
100
AcDbEntity
  8
MAIN0
  6
CONTINUOUS
 62
3
100
AcDbCircle
 10
70.22223547133660
 20
368.6177350527081
 30
0.0000000000000000
 40
6.000000000002210
  0
CIRCLE
  5
48A
100
AcDbEntity
  8
MAIN0
  6
CONTINUOUS
 62
3
100
AcDbCircle
 10
70.22223547133660
 20
368.6177350527081
 30
0.0000000000000000
 40
5.458500000002196
  0
LINE
  5
48B
100
AcDbEntity
  8
MAIN0
  6
PHANTOM
 62
3
100
AcDbLine
 10
70.22223547070180
 20
358.8027804764555
 30
0.0000000000000000
 11
78.72223547133680
 21
363.7102577649183
 31
0.0000000000000000
  0
LINE
  5
48C
100
AcDbEntity
  8
MAIN0
  6
PHANTOM
 62
3
100
AcDbLine
 10
70.22223547104434
 20
358.8027804763156
 30
0.0000000000000000
 11
61.72223547147945
 21
363.7102577641919
 31
0.0000000000000000
  0
LINE
  5
48D
100
AcDbEntity
  8
MAIN0
  6
PHANTOM
 62
3
100
AcDbLine
 10
61.72223547133677
 20
363.7102577642742
 30
0.0000000000000000
 11
61.72223547133666
 21
373.5252123411575
 31
0.0000000000000000
  0
LINE
  5
48E
100
AcDbEntity
  8
MAIN0
  6
PHANTOM
 62
3
100
AcDbLine
 10
61.72223547133649
 20
373.5252123411575
 30
0.0000000000000000
 11
70.22223547091505
 21
378.4326896290104
 31
0.0000000000000000
  0
LINE
  5
48F
100
AcDbEntity
  8
MAIN0
  6
CONTINUOUS
 62
3
100
AcDbLine
 10
81.56198143460958
 20
342.1177350527082
 30
0.0000000000000000
 11
90.22223547246105
 21
347.1177350527084
 31
0.0000000000000000
  0
LINE
  5
490
100
AcDbEntity
  8
MAIN0
  6
CONTINUOUS
 62
3
100
AcDbLine
 10
58.88248950806414
 20
342.1177350527080
 30
0.0000000000000000
 11
81.56198143460981
 21
342.1177350527082
 31
0.0000000000000000
  0
LINE
  5
491
100
AcDbEntity
  8
MAIN0
  6
CONTINUOUS
 62
3
100
AcDbLine
 10
50.22223547021255
 20
347.1177350527078
 30
0.0000000000000000
 11
58.88248950806397
 21
342.1177350527080
 31
0.0000000000000000
  0
ARC
  5
492
100
AcDbEntity
  8
MAIN0
  6
HIDDEN
 62
3
100
AcDbCircle
 10
70.22223547133709
 20
351.1177350527289
 30
0.0000000000000000
 40
6.500000000000085
100
AcDbArc
 50
180.0000000000000
 51
360.0000000000000
  0
LINE
  5
493
100
AcDbEntity
  8
MAIN0
  6
HIDDEN
 62
3
100
AcDbLine
 10
87.97223547133669
 20
374.7935583248332
 30
0.0000000000000000
 11
87.97223547133683
 21
366.4419117805882
 31
0.0000000000000000
  0
LINE
  5
494
100
AcDbEntity
  8
MAIN0
  6
CONTINUOUS
 62
3
100
AcDbLine
 10
87.97223547133663
 20
366.4419117805880
 30
0.0000000000000000
 11
87.97223547133692
 21
349.6177350527084
 31
0.0000000000000000
  0
LINE
  5
495
100
AcDbEntity
  8
MAIN0
  6
HIDDEN
 62
3
100
AcDbLine
 10
82.47223547133675
 20
374.7935583248332
 30
0.0000000000000000
 11
82.47223547133689
 21
366.4419117805879
 31
0.0000000000000000
  0
LINE
  5
496
100
AcDbEntity
  8
MAIN0
  6
CONTINUOUS
 62
3
100
AcDbLine
 10
82.47223547133669
 20
366.4419117805881
 30
0.0000000000000000
 11
82.47223547133697
 21
349.6177350527082
 31
0.0000000000000000
  0
LINE
  5
497
100
AcDbEntity
  8
MAIN0
  6
HIDDEN
 62
3
100
AcDbLine
 10
57.97223547133666
 20
374.7935583248328
 30
0.0000000000000000
 11
57.97223547133680
 21
366.4419117805878
 31
0.0000000000000000
  0
LINE
  5
498
100
AcDbEntity
  8
MAIN0
  6
CONTINUOUS
 62
3
100
AcDbLine
 10
57.97223547133663
 20
366.4419117805877
 30
0.0000000000000000
 11
57.97223547133700
 21
349.6177350527077
 31
0.0000000000000000
  0
LINE
  5
499
100
AcDbEntity
  8
MAIN0
  6
HIDDEN
 62
3
100
AcDbLine
 10
52.47223547133666
 20
374.7935583248327
 30
0.0000000000000000
 11
52.47223547133680
 21
366.4419117805877
 31
0.0000000000000000
  0
LINE
  5
49A
100
AcDbEntity
  8
MAIN0
  6
CONTINUOUS
 62
3
100
AcDbLine
 10
52.47223547133663
 20
366.4419117805878
 30
0.0000000000000000
 11
52.47223547133700
 21
349.6177350527078
 31
0.0000000000000000
  0
LINE
  5
49B
100
AcDbEntity
  8
MAIN0
  6
CONTINUOUS
 62
3
100
AcDbLine
 10
251.7825111470091
 20
353.4686765961726
 30
0.0000000000000000
 11
257.5182755105259
 21
345.2771561532797
 31
0.0000000000000000
  0
LINE
  5
49C
100
AcDbEntity
  8
MAIN0
  6
CONTINUOUS
 62
3
100
AcDbLine
 10
278.0728756495892
 20
335.6923886981208
 30
0.0000000000000000
 11
288.0348226305130
 21
336.5639461255944
 31
0.0000000000000000
  0
LINE
  5
49D
100
AcDbEntity
  8
MAIN0
  6
CONTINUOUS
 62
3
100
AcDbLine
 10
265.2199765493107
 20
363.9473518734238
 30
0.0000000000000000
 11
272.3301808732645
 21
379.1952342523799
 31
0.0000000000000000
  0
LINE
  5
49E
100
AcDbEntity
  8
MAIN0
  6
CONTINUOUS
 62
3
100
AcDbLine
 10
259.8629421519139
 20
352.4591545347987
 30
0.0000000000000000
 11
261.6904182041092
 21
356.3781895757969
 31
0.0000000000000000
  0
LINE
  5
49F
100
AcDbEntity
  8
MAIN0
  6
HIDDEN
 62
3
100
AcDbLine
 10
261.6904182041091
 20
356.3781895757969
 30
0.0000000000000000
 11
265.2199765493107
 21
363.9473518734239
 31
0.0000000000000000
  0
LINE
  5
4A0
100
AcDbEntity
  8
MAIN0
  6
CONTINUOUS
 62
3
100
AcDbLine
 10
254.8782493232123
 20
354.7835549743725
 30
0.0000000000000000
 11
256.7057253754076
 21
358.7025900153707
 31
0.0000000000000000
  0
LINE
  5
4A1
100
AcDbEntity
  8
MAIN0
  6
HIDDEN
 62
3
100
AcDbLine
 10
256.7057253754076
 20
358.7025900153707
 30
0.0000000000000000
 11
260.2352837206092
 21
366.2717523129978
 31
0.0000000000000000
  0
LINE
  5
4A2
100
AcDbEntity
  8
MAIN0
  6
CONTINUOUS
 62
3
100
AcDbLine
 10
260.2352837206091
 20
366.2717523129978
 30
0.0000000000000000
 11
267.3454880445630
 21
381.5196346919537
 31
0.0000000000000000
  0
LINE
  5
4A3
100
AcDbEntity
  8
MAIN0
  6
CONTINUOUS
 62
3
100
AcDbLine
 10
287.0521757630133
 20
339.7806066825777
 30
0.0000000000000000
 11
288.8796518152086
 21
343.6996417235758
 31
0.0000000000000000
  0
LINE
  5
4A4
100
AcDbEntity
  8
MAIN0
  6
CONTINUOUS
 62
3
100
AcDbLine
 10
282.0674829343118
 20
342.1050071221516
 30
0.0000000000000000
 11
283.8949589865070
 21
346.0240421631497
 31
0.0000000000000000
  0
LINE
  5
4A5
100
AcDbEntity
  8
MAIN0
  6
HIDDEN
 62
3
100
AcDbLine
 10
283.8949589865070
 20
346.0240421631497
 30
0.0000000000000000
 11
287.4245173317086
 21
353.5932044607768
 31
0.0000000000000000
  0
LINE
  5
4A6
100
AcDbEntity
  8
MAIN0
  6
CONTINUOUS
 62
3
100
AcDbLine
 10
287.4245173317086
 20
353.5932044607767
 30
0.0000000000000000
 11
294.5347216556624
 21
368.8410868397327
 31
0.0000000000000000
  0
LINE
  5
4A7
100
AcDbEntity
  8
MAIN0
  6
HIDDEN
 62
3
100
AcDbLine
 10
288.8796518152085
 20
343.6996417235759
 30
0.0000000000000000
 11
292.4092101604101
 21
351.2688040212030
 31
0.0000000000000000
  0
LINE
  5
4A8
100
AcDbEntity
  8
MAIN0
  6
CONTINUOUS
 62
3
100
AcDbLine
 10
292.4092101604101
 20
351.2688040212029
 30
0.0000000000000000
 11
299.5194144843640
 21
366.5166864001590
 31
0.0000000000000000
  0
LINE
  5
4A9
100
AcDbEntity
  8
MAIN0
  6
CONTINUOUS
 62
3
100
AcDbLine
 10
63.72223547133640
 20
387.6177350527079
 30
0.0000000000000000
 11
63.72223547133640
 21
389.6177350527079
 31
0.0000000000000000
  0
LINE
  5
4AA
100
AcDbEntity
  8
MAIN0
  6
HIDDEN
 62
3
100
AcDbLine
 10
76.72223547133677
 20
351.6177350527290
 30
0.0000000000000000
 11
76.72223547133612
 21
386.6177350527080
 31
0.0000000000000000
  0
LINE
  5
4AB
100
AcDbEntity
  8
MAIN0
  6
CONTINUOUS
 62
3
100
AcDbLine
 10
76.72223547133626
 20
386.6177350527080
 30
0.0000000000000000
 11
76.72223547133626
 21
389.6177350527081
 31
0.0000000000000000
  0
LINE
  5
4AC
100
AcDbEntity
  8
MAIN0
  6
HIDDEN
 62
3
100
AcDbLine
 10
63.72223547133683
 20
351.6177350527287
 30
0.0000000000000000
 11
63.72223547133615
 21
386.6177350527079
 31
0.0000000000000000
  0
LINE
  5
4AD
100
AcDbEntity
  8
MAIN0
  6
CONTINUOUS
 62
3
100
AcDbLine
 10
63.72223547133615
 20
386.6177350527079
 30
0.0000000000000000
 11
63.72223547133615
 21
387.6177350527065
 31
0.0000000000000000
  0
DIMENSION
  5
4B6
100
AcDbEntity
  8
MAIN0
  6
CONTINUOUS
 62
3
100
AcDbDimension
  2
*D32
 10
240.5041528462643
 20
329.2821591655786
 30
0.0000000000000000
 11
258.8416177178676
 21
321.2829478242829
 31
0.0000000000000000
 70
33
  3
MAIN001
100
AcDbAlignedDimension
 13
282.9634034886057
 23
325.6882526816297
 33
0.0000000000000000
 14
246.7110920071397
 24
342.5929831512577
 34
0.0000000000000000
 50
155.0000000000000
1001
ACAD
1000
DSTYLE
1002
{
1070
   173
1070
     1
1070
     6
1000
_OPEN
1070
     7
1000
_OPEN
1070
    41
1040
2.000000
1002
}
  0
DIMENSION
  5
4BF
100
AcDbEntity
  8
MAIN0
  6
CONTINUOUS
 62
3
100
AcDbDimension
  2
*D33
 10
50.22223547133683
 20
329.5679378759337
 30
0.0000000000000000
 11
70.22223547133677
 21
330.0679378759337
 31
0.0000000000000000
 70
32
  3
MAIN001
100
AcDbAlignedDimension
 13
90.22223547133675
 23
337.4456285436203
 33
0.0000000000000000
 14
50.22223547133697
 24
337.4456285436203
 34
0.0000000000000000
100
AcDbRotatedDimension
1001
ACAD
1000
DSTYLE
1002
{
1070
   173
1070
     1
1070
     6
1000
_OPEN
1070
     7
1000
_OPEN
1070
    41
1040
2.000000
1002
}
  0
LINE
  5
4C0
100
AcDbEntity
  8
MAIN0
  6
CONTINUOUS
 62
3
100
AcDbLine
 10
177.2290192763385
 20
342.1445338876645
 30
0.0000000000000000
 11
178.5813977139114
 21
345.0447188061806
 31
0.0000000000000000
  0
LINE
  5
4C1
100
AcDbEntity
  8
MAIN0
  6
CONTINUOUS
 62
3
100
AcDbLine
 10
214.8337091953893
 20
328.1399883364720
 30
0.0000000000000000
 11
178.5813977139138
 21
345.0447188061795
 31
0.0000000000000000
  0
LINE
  5
4C2
100
AcDbEntity
  8
MAIN0
  6
CENTER
 62
3
100
AcDbLine
 10
206.4774009255099
 20
322.0508353375922
 30
0.0000000000000000
 11
213.6568090110014
 21
337.4471256620550
 31
0.0000000000000000
  0
LINE
  5
4C3
100
AcDbEntity
  8
MAIN0
  6
CONTINUOUS
 62
3
100
AcDbLine
 10
188.0670938459744
 20
341.7248439758104
 30
0.0000000000000000
 11
187.6444755842315
 21
340.8185361887748
 31
0.0000000000000000
  0
LINE
  5
4C4
100
AcDbEntity
  8
MAIN0
  6
CENTER
 62
3
100
AcDbLine
 10
179.5779551875138
 20
335.3508352894607
 30
0.0000000000000000
 11
186.7573632730053
 21
350.7471256139235
 31
0.0000000000000000
  0
LINE
  5
4C5
100
AcDbEntity
  8
MAIN0
  6
CONTINUOUS
 62
3
100
AcDbLine
 10
187.6444755842241
 20
340.8185361887577
 30
0.0000000000000000
 11
188.0670938459656
 21
341.7248439757940
 31
0.0000000000000000
  0
LINE
  5
4C6
100
AcDbEntity
  8
MAIN0
  6
CONTINUOUS
 62
3
100
AcDbLine
 10
188.0670938459656
 20
341.7248439757939
 30
0.0000000000000000
 11
179.0040159756029
 21
345.9510265932091
 31
0.0000000000000000
  0
LINE
  5
4C7
100
AcDbEntity
  8
MAIN0
  6
CONTINUOUS
 62
3
100
AcDbLine
 10
179.0040159756029
 20
345.9510265932091
 30
0.0000000000000000
 11
178.5813977138614
 21
345.0447188061728
 31
0.0000000000000000
  0
LINE
  5
4C8
100
AcDbEntity
  8
MAIN0
  6
CONTINUOUS
 62
3
100
AcDbLine
 10
179.6837468158802
 20
345.6340628969030
 30
0.0000000000000000
 11
181.5855289937169
 21
349.7124479385661
 31
0.0000000000000000
  0
LINE
  5
4C9
100
AcDbEntity
  8
MAIN0
  6
CONTINUOUS
 62
3
100
AcDbLine
 10
181.5855289937169
 20
349.7124479385662
 30
0.0000000000000000
 11
182.5817236918087
 21
349.7996036813129
 31
0.0000000000000000
  0
LINE
  5
4CA
100
AcDbEntity
  8
MAIN0
  6
CONTINUOUS
 62
3
100
AcDbLine
 10
182.5817236918088
 20
349.7996036813129
 30
0.0000000000000000
 11
188.7155687471749
 21
346.9393447580528
 31
0.0000000000000000
  0
LINE
  5
4CB
100
AcDbEntity
  8
MAIN0
  6
CONTINUOUS
 62
3
100
AcDbLine
 10
188.7155687471748
 20
346.9393447580528
 30
0.0000000000000000
 11
189.2891451835251
 21
346.1201927137633
 31
0.0000000000000000
  0
LINE
  5
4CC
100
AcDbEntity
  8
MAIN0
  6
CONTINUOUS
 62
3
100
AcDbLine
 10
189.2891451835253
 20
346.1201927137633
 30
0.0000000000000000
 11
187.3873630056885
 21
342.0418076721001
 31
0.0000000000000000
  0
LINE
  5
4CD
100
AcDbEntity
  8
MAIN0
  6
CONTINUOUS
 62
3
100
AcDbLine
 10
181.5855289937169
 20
349.7124479385661
 30
0.0000000000000000
 11
189.2891451835253
 21
346.1201927137633
 31
0.0000000000000000
  0
LINE
  5
4CE
100
AcDbEntity
  8
MAIN0
  6
CONTINUOUS
 62
3
100
AcDbLine
 10
178.1424103063056
 20
338.1878033147852
 30
0.0000000000000000
 11
177.8888393492615
 21
337.6440186425651
 31
0.0000000000000000
  0
LINE
  5
4CF
100
AcDbEntity
  8
MAIN0
  6
CONTINUOUS
 62
3
100
AcDbLine
 10
177.8888393492616
 20
337.6440186425651
 30
0.0000000000000000
 11
182.4203782844429
 21
335.5309273338576
 31
0.0000000000000000
  0
LINE
  5
4D0
100
AcDbEntity
  8
MAIN0
  6
CONTINUOUS
 62
3
100
AcDbLine
 10
182.4203782844429
 20
335.5309273338576
 30
0.0000000000000000
 11
182.6739492414887
 21
336.0747120060813
 31
0.0000000000000000
  0
LINE
  5
4D1
100
AcDbEntity
  8
MAIN0
  6
CONTINUOUS
 62
3
100
AcDbLine
 10
178.5348531788321
 20
338.0048041979377
 30
0.0000000000000000
 11
178.2812822217878
 21
337.4610195257173
 31
0.0000000000000000
  0
LINE
  5
4D2
100
AcDbEntity
  8
MAIN0
  6
CONTINUOUS
 62
3
100
AcDbLine
 10
182.2815063689621
 20
336.2577111229288
 30
0.0000000000000000
 11
182.0279354119164
 21
335.7139264507054
 31
0.0000000000000000
  0
LINE
  5
4D3
100
AcDbEntity
  8
MAIN0
  6
CONTINUOUS
 62
3
100
AcDbLine
 10
175.7195105152619
 20
318.6932140788164
 30
0.0000000000000000
 11
175.7195105152607
 21
345.3931884215484
 31
0.0000000000000000
  0
LINE
  5
4D4
100
AcDbEntity
  8
MAIN0
  6
CONTINUOUS
 62
3
100
AcDbLine
 10
135.7195105152194
 20
318.6932140788164
 30
0.0000000000000000
 11
135.7195105152184
 21
345.3931884215468
 31
0.0000000000000000
  0
LINE
  5
4D5
100
AcDbEntity
  8
MAIN0
  6
CENTER
 62
3
100
AcDbLine
 10
170.7195105152608
 20
339.2811792726293
 30
0.0000000000000000
 11
170.7195105152602
 21
353.0449399445668
 31
0.0000000000000000
  0
LINE
  5
4D6
100
AcDbEntity
  8
MAIN0
  6
CONTINUOUS
 62
3
100
AcDbLine
 10
165.7195105152604
 20
346.3931884215481
 30
0.0000000000000000
 11
175.7195105152604
 21
346.3931884215485
 31
0.0000000000000000
  0
LINE
  5
4D7
100
AcDbEntity
  8
MAIN0
  6
CONTINUOUS
 62
3
100
AcDbLine
 10
175.7195105152604
 20
346.3931884215484
 30
0.0000000000000000
 11
175.7195105152604
 21
345.3931884215484
 31
0.0000000000000000
  0
LINE
  5
4D8
100
AcDbEntity
  8
MAIN0
  6
CONTINUOUS
 62
3
100
AcDbLine
 10
174.9695105152604
 20
346.3931884215484
 30
0.0000000000000000
 11
174.9695105152603
 21
350.8931884215484
 31
0.0000000000000000
  0
LINE
  5
4D9
100
AcDbEntity
  8
MAIN0
  6
CONTINUOUS
 62
3
100
AcDbLine
 10
174.9695105152603
 20
350.8931884215484
 30
0.0000000000000000
 11
174.1034851114758
 21
351.3931884215483
 31
0.0000000000000000
  0
LINE
  5
4DA
100
AcDbEntity
  8
MAIN0
  6
CONTINUOUS
 62
3
100
AcDbLine
 10
174.1034851114757
 20
351.3931884215484
 30
0.0000000000000000
 11
167.3355359190446
 21
351.3931884215481
 31
0.0000000000000000
  0
LINE
  5
4DB
100
AcDbEntity
  8
MAIN0
  6
CONTINUOUS
 62
3
100
AcDbLine
 10
167.3355359190446
 20
351.3931884215482
 30
0.0000000000000000
 11
166.4695105152602
 21
350.8931884215481
 31
0.0000000000000000
  0
LINE
  5
4DC
100
AcDbEntity
  8
MAIN0
  6
CONTINUOUS
 62
3
100
AcDbLine
 10
166.4695105152603
 20
350.8931884215481
 30
0.0000000000000000
 11
166.4695105152604
 21
346.3931884215481
 31
0.0000000000000000
  0
LINE
  5
4DD
100
AcDbEntity
  8
MAIN0
  6
CONTINUOUS
 62
3
100
AcDbLine
 10
174.9695105152603
 20
350.8931884215484
 30
0.0000000000000000
 11
166.4695105152603
 21
350.8931884215481
 31
0.0000000000000000
  0
LINE
  5
4DE
100
AcDbEntity
  8
MAIN0
  6
CENTER
 62
3
100
AcDbLine
 10
140.7195105151343
 20
340.4349346482641
 30
0.0000000000000000
 11
140.7195105151338
 21
353.7306364689240
 31
0.0000000000000000
  0
LINE
  5
4DF
100
AcDbEntity
  8
MAIN0
  6
CONTINUOUS
 62
3
100
AcDbLine
 10
145.6657003697376
 20
346.3931884215472
 30
0.0000000000000000
 11
135.7195105151760
 21
346.3931884215468
 31
0.0000000000000000
  0
LINE
  5
4E0
100
AcDbEntity
  8
MAIN0
  6
CONTINUOUS
 62
3
100
AcDbLine
 10
135.7195105151761
 20
346.3931884215468
 30
0.0000000000000000
 11
135.7195105151761
 21
345.3931884215468
 31
0.0000000000000000
  0
LINE
  5
4E1
100
AcDbEntity
  8
MAIN0
  6
CONTINUOUS
 62
3
100
AcDbLine
 10
136.4695105151761
 20
346.3931884215468
 30
0.0000000000000000
 11
136.4695105151759
 21
350.8931884215468
 31
0.0000000000000000
  0
LINE
  5
4E2
100
AcDbEntity
  8
MAIN0
  6
CONTINUOUS
 62
3
100
AcDbLine
 10
136.4695105151757
 20
350.8931884215469
 30
0.0000000000000000
 11
137.3355359189602
 21
351.3931884215469
 31
0.0000000000000000
  0
LINE
  5
4E3
100
AcDbEntity
  8
MAIN0
  6
CONTINUOUS
 62
3
100
AcDbLine
 10
137.3355359189603
 20
351.3931884215468
 30
0.0000000000000000
 11
144.1034851113914
 21
351.3931884215471
 31
0.0000000000000000
  0
LINE
  5
4E4
100
AcDbEntity
  8
MAIN0
  6
CONTINUOUS
 62
3
100
AcDbLine
 10
144.1034851113913
 20
351.3931884215472
 30
0.0000000000000000
 11
144.9695105151758
 21
350.8931884215472
 31
0.0000000000000000
  0
LINE
  5
4E5
100
AcDbEntity
  8
MAIN0
  6
CONTINUOUS
 62
3
100
AcDbLine
 10
144.9695105151759
 20
350.8931884215472
 30
0.0000000000000000
 11
144.9695105151761
 21
346.3931884215472
 31
0.0000000000000000
  0
LINE
  5
4E6
100
AcDbEntity
  8
MAIN0
  6
CONTINUOUS
 62
3
100
AcDbLine
 10
136.4695105151759
 20
350.8931884215468
 30
0.0000000000000000
 11
144.9695105151759
 21
350.8931884215472
 31
0.0000000000000000
  0
LINE
  5
4E7
100
AcDbEntity
  8
MAIN0
  6
CONTINUOUS
 62
3
100
AcDbLine
 10
175.7195105152605
 20
345.3931884215484
 30
0.0000000000000000
 11
135.7195105151761
 21
345.3931884215468
 31
0.0000000000000000
  0
LINE
  5
4E8
100
AcDbEntity
  8
MAIN0
  6
CONTINUOUS
 62
3
100
AcDbLine
 10
177.1246792917106
 20
342.1931884215485
 30
0.0000000000000000
 11
135.7195105151762
 21
342.1931884215468
 31
0.0000000000000000
  0
LINE
  5
4E9
100
AcDbEntity
  8
MAIN0
  6
PHANTOM
 62
3
100
AcDbLine
 10
145.7195105152606
 20
345.3931884215363
 30
0.0000000000000000
 11
145.7195105151772
 21
346.3931884215659
 31
0.0000000000000000
  0
LINE
  5
4EA
100
AcDbEntity
  8
MAIN0
  6
CONTINUOUS
 62
3
100
AcDbLine
 10
165.7195105152604
 20
345.3931884215480
 30
0.0000000000000000
 11
165.7195105152592
 21
346.3931884215667
 31
0.0000000000000000
  0
CIRCLE
  5
4EB
100
AcDbEntity
  8
MAIN0
  6
CONTINUOUS
 62
3
100
AcDbCircle
 10
55.22223547133689
 20
370.6177350527100
 30
0.0000000000000000
 40
4.250000000000000
  0
LINE
  5
4EC
100
AcDbEntity
  8
MAIN0
  6
CONTINUOUS
 62
3
100
AcDbLine
 10
55.22223547133683
 20
372.9271361294686
 30
0.0000000000000000
 11
53.22223547133683
 21
371.7724355910894
 31
0.0000000000000000
  0
LINE
  5
4ED
100
AcDbEntity
  8
MAIN0
  6
CONTINUOUS
 62
3
100
AcDbLine
 10
53.22223547133689
 20
371.7724355910893
 30
0.0000000000000000
 11
53.22223547133689
 21
369.4630345143308
 31
0.0000000000000000
  0
LINE
  5
4EE
100
AcDbEntity
  8
MAIN0
  6
CONTINUOUS
 62
3
100
AcDbLine
 10
53.22223547133689
 20
369.4630345143308
 30
0.0000000000000000
 11
55.22223547133689
 21
368.3083339759515
 31
0.0000000000000000
  0
LINE
  5
4EF
100
AcDbEntity
  8
MAIN0
  6
CONTINUOUS
 62
3
100
AcDbLine
 10
55.22223547133683
 20
368.3083339759517
 30
0.0000000000000000
 11
57.22223547133686
 21
369.4630345143309
 31
0.0000000000000000
  0
LINE
  5
4F0
100
AcDbEntity
  8
MAIN0
  6
CONTINUOUS
 62
3
100
AcDbLine
 10
57.22223547133689
 20
369.4630345143308
 30
0.0000000000000000
 11
57.22223547133689
 21
371.7724355910893
 31
0.0000000000000000
  0
LINE
  5
4F1
100
AcDbEntity
  8
MAIN0
  6
CONTINUOUS
 62
3
100
AcDbLine
 10
57.22223547133689
 20
371.7724355910893
 30
0.0000000000000000
 11
55.22223547133689
 21
372.9271361294685
 31
0.0000000000000000
  0
CIRCLE
  5
4F2
100
AcDbEntity
  8
MAIN0
  6
CONTINUOUS
 62
3
100
AcDbCircle
 10
85.22223547133677
 20
370.6177350527106
 30
0.0000000000000000
 40
4.250000000000000
  0
LINE
  5
4F3
100
AcDbEntity
  8
MAIN0
  6
CONTINUOUS
 62
3
100
AcDbLine
 10
85.22223547133677
 20
372.9271361294691
 30
0.0000000000000000
 11
83.22223547133677
 21
371.7724355910899
 31
0.0000000000000000
  0
LINE
  5
4F4
100
AcDbEntity
  8
MAIN0
  6
CONTINUOUS
 62
3
100
AcDbLine
 10
83.22223547133677
 20
371.7724355910898
 30
0.0000000000000000
 11
83.22223547133677
 21
369.4630345143313
 31
0.0000000000000000
  0
LINE
  5
4F5
100
AcDbEntity
  8
MAIN0
  6
CONTINUOUS
 62
3
100
AcDbLine
 10
83.22223547133677
 20
369.4630345143313
 30
0.0000000000000000
 11
85.22223547133680
 21
368.3083339759521
 31
0.0000000000000000
  0
LINE
  5
4F6
100
AcDbEntity
  8
MAIN0
  6
CONTINUOUS
 62
3
100
AcDbLine
 10
85.22223547133677
 20
368.3083339759521
 30
0.0000000000000000
 11
87.22223547133677
 21
369.4630345143314
 31
0.0000000000000000
  0
LINE
  5
4F7
100
AcDbEntity
  8
MAIN0
  6
CONTINUOUS
 62
3
100
AcDbLine
 10
87.22223547133677
 20
369.4630345143313
 30
0.0000000000000000
 11
87.22223547133677
 21
371.7724355910898
 31
0.0000000000000000
  0
LINE
  5
4F8
100
AcDbEntity
  8
MAIN0
  6
CONTINUOUS
 62
3
100
AcDbLine
 10
87.22223547133680
 20
371.7724355910898
 30
0.0000000000000000
 11
85.22223547133683
 21
372.9271361294690
 31
0.0000000000000000
  0
LINE
  5
4F9
100
AcDbEntity
  8
MAIN0
  6
PHANTOM
 62
3
100
AcDbLine
 10
150.7195003697218
 20
361.6932140788164
 30
0.0000000000000000
 11
160.7195003696909
 21
361.6932140788164
 31
0.0000000000000000
  0
LINE
  5
4FA
100
AcDbEntity
  8
MAIN0
  6
PHANTOM
 62
3
100
AcDbLine
 10
145.7195105151772
 20
346.3932140787450
 30
0.0000000000000000
 11
165.6657003697376
 21
346.3932140787450
 31
0.0000000000000000
  0
LINE
  5
4FB
100
AcDbEntity
  8
MAIN0
  6
PHANTOM
 62
3
100
AcDbLine
 10
165.6657003697376
 20
346.3932140787450
 30
0.0000000000000000
 11
165.6657003697376
 21
345.3932140787450
 31
0.0000000000000000
  0
LINE
  5
4FC
100
AcDbEntity
  8
MAIN0
  6
CONTINUOUS
 62
3
100
AcDbLine
 10
145.6657003697376
 20
346.3932140787449
 30
0.0000000000000000
 11
145.6657003697376
 21
345.3932140787449
 31
0.0000000000000000
  0
LINE
  5
4FD
100
AcDbEntity
  8
MAIN0
  6
PHANTOM
 62
3
100
AcDbLine
 10
149.7195003697371
 20
360.6932140788164
 30
0.0000000000000000
 11
161.7195003697371
 21
360.6932140788164
 31
0.0000000000000000
  0
LINE
  5
4FE
100
AcDbEntity
  8
MAIN0
  6
PHANTOM
 62
3
100
AcDbLine
 10
149.7195003697240
 20
360.6932140788164
 30
0.0000000000000000
 11
150.7195003697218
 21
361.6932140788164
 31
0.0000000000000000
  0
LINE
  5
4FF
100
AcDbEntity
  8
MAIN0
  6
PHANTOM
 62
3
100
AcDbLine
 10
160.7195003696909
 20
361.6932140788163
 30
0.0000000000000000
 11
161.7195003697369
 21
360.6932140787714
 31
0.0000000000000000
  0
LINE
  5
500
100
AcDbEntity
  8
MAIN0
  6
PHANTOM
 62
3
100
AcDbLine
 10
150.7195003697218
 20
363.6932140788164
 30
0.0000000000000000
 11
160.7195003696909
 21
363.6932140788164
 31
0.0000000000000000
  0
LINE
  5
501
100
AcDbEntity
  8
MAIN0
  6
PHANTOM
 62
3
100
AcDbLine
 10
160.7195003696660
 20
363.6932140788164
 30
0.0000000000000000
 11
160.7195003696647
 21
361.6932140788163
 31
0.0000000000000000
  0
LINE
  5
502
100
AcDbEntity
  8
MAIN0
  6
PHANTOM
 62
3
100
AcDbLine
 10
150.7195003696995
 20
363.6932140788164
 30
0.0000000000000000
 11
150.7195003696983
 21
361.6932140788164
 31
0.0000000000000000
  0
LINE
  5
503
100
AcDbEntity
  8
MAIN0
  6
PHANTOM
 62
3
100
AcDbLine
 10
161.7195003697378
 20
360.6932140788164
 30
0.0000000000000000
 11
161.7195003697377
 21
350.2614731598147
 31
0.0000000000000000
  0
LINE
  5
504
100
AcDbEntity
  8
MAIN0
  6
PHANTOM
 62
3
100
AcDbLine
 10
161.1780003697378
 20
361.2347140787698
 30
0.0000000000000000
 11
161.1780003697377
 21
350.3305744971902
 31
0.0000000000000000
  0
LINE
  5
505
100
AcDbEntity
  8
MAIN0
  6
PHANTOM
 62
3
100
AcDbLine
 10
150.2610003697378
 20
361.2347140788313
 30
0.0000000000000000
 11
150.2610003697377
 21
350.3932140787482
 31
0.0000000000000000
  0
LINE
  5
506
100
AcDbEntity
  8
MAIN0
  6
PHANTOM
 62
3
100
AcDbLine
 10
149.7195003697378
 20
360.6932140788164
 30
0.0000000000000000
 11
149.7195003697377
 21
350.2614731598172
 31
0.0000000000000000
  0
LINE
  5
507
100
AcDbEntity
  8
MAIN0
  6
PHANTOM
 62
3
100
AcDbLine
 10
151.4695003697379
 20
350.3932140787482
 30
0.0000000000000000
 11
159.9695003697370
 21
350.3932140787416
 31
0.0000000000000000
  0
LINE
  5
508
100
AcDbEntity
  8
MAIN0
  6
PHANTOM
 62
3
100
AcDbLine
 10
164.2195003697277
 20
349.5932140785934
 30
0.0000000000000000
 11
164.2195003697279
 21
346.3932140787450
 31
0.0000000000000000
  0
ARC
  5
509
100
AcDbEntity
  8
MAIN0
  6
PHANTOM
 62
3
100
AcDbCircle
 10
159.9695003697278
 20
338.7041515807593
 30
0.0000000000000000
 40
11.68906249798220
100
AcDbArc
 50
68.67930340706903
 51
111.3206965929310
  0
LINE
  5
50A
100
AcDbEntity
  8
MAIN0
  6
PHANTOM
 62
3
100
AcDbLine
 10
155.7195003697278
 20
349.5932140785934
 30
0.0000000000000000
 11
155.7195003697279
 21
346.3932140787450
 31
0.0000000000000000
  0
ARC
  5
50B
100
AcDbEntity
  8
MAIN0
  6
PHANTOM
 62
3
100
AcDbCircle
 10
151.4695003697288
 20
338.7041515807590
 30
0.0000000000000000
 40
11.68906249798220
100
AcDbArc
 50
68.67930340707382
 51
111.3206965929358
  0
LINE
  5
50C
100
AcDbEntity
  8
MAIN0
  6
PHANTOM
 62
3
100
AcDbLine
 10
147.2195003697279
 20
349.5932140785926
 30
0.0000000000000000
 11
147.2195003697280
 21
346.3932140787449
 31
0.0000000000000000
  0
LINE
  5
50D
100
AcDbEntity
  8
MAIN0
  6
CONTINUOUS
 62
3
100
AcDbLine
 10
205.7706313250260
 20
332.3661709538918
 30
0.0000000000000000
 11
206.1932495867675
 21
333.2724787409280
 31
0.0000000000000000
  0
LINE
  5
50E
100
AcDbEntity
  8
MAIN0
  6
CONTINUOUS
 62
3
100
AcDbLine
 10
206.1932495867675
 20
333.2724787409281
 30
0.0000000000000000
 11
215.2563274571302
 21
329.0462961235130
 31
0.0000000000000000
  0
LINE
  5
50F
100
AcDbEntity
  8
MAIN0
  6
CONTINUOUS
 62
3
100
AcDbLine
 10
215.2563274571302
 20
329.0462961235130
 30
0.0000000000000000
 11
214.8337091953887
 21
328.1399883364767
 31
0.0000000000000000
  0
LINE
  5
510
100
AcDbEntity
  8
MAIN0
  6
CONTINUOUS
 62
3
100
AcDbLine
 10
214.5765966168530
 20
329.3632598198191
 30
0.0000000000000000
 11
216.4783787946898
 21
333.4416448614823
 31
0.0000000000000000
  0
LINE
  5
511
100
AcDbEntity
  8
MAIN0
  6
CONTINUOUS
 62
3
100
AcDbLine
 10
216.4783787946898
 20
333.4416448614823
 30
0.0000000000000000
 11
215.9048023583395
 21
334.2607969057717
 31
0.0000000000000000
  0
LINE
  5
512
100
AcDbEntity
  8
MAIN0
  6
CONTINUOUS
 62
3
100
AcDbLine
 10
215.9048023583394
 20
334.2607969057718
 30
0.0000000000000000
 11
209.7709573029733
 21
337.1210558290319
 31
0.0000000000000000
  0
LINE
  5
513
100
AcDbEntity
  8
MAIN0
  6
CONTINUOUS
 62
3
100
AcDbLine
 10
209.7709573029733
 20
337.1210558290319
 30
0.0000000000000000
 11
208.7747626048815
 21
337.0339000862851
 31
0.0000000000000000
  0
LINE
  5
514
100
AcDbEntity
  8
MAIN0
  6
CONTINUOUS
 62
3
100
AcDbLine
 10
208.7747626048815
 20
337.0339000862852
 30
0.0000000000000000
 11
206.8729804270446
 21
332.9555150446220
 31
0.0000000000000000
  0
LINE
  5
515
100
AcDbEntity
  8
MAIN0
  6
CONTINUOUS
 62
3
100
AcDbLine
 10
216.4783787946898
 20
333.4416448614823
 30
0.0000000000000000
 11
208.7747626048815
 21
337.0339000862851
 31
0.0000000000000000
  0
LINE
  5
516
100
AcDbEntity
  8
MAIN0
  6
CONTINUOUS
 62
3
100
AcDbLine
 10
209.8631828526516
 20
323.3961641537966
 30
0.0000000000000000
 11
209.6096118956074
 21
322.8523794815766
 31
0.0000000000000000
  0
LINE
  5
517
100
AcDbEntity
  8
MAIN0
  6
CONTINUOUS
 62
3
100
AcDbLine
 10
209.6096118956074
 20
322.8523794815766
 30
0.0000000000000000
 11
205.0780729604261
 21
324.9654707902841
 31
0.0000000000000000
  0
LINE
  5
518
100
AcDbEntity
  8
MAIN0
  6
CONTINUOUS
 62
3
100
AcDbLine
 10
205.0780729604260
 20
324.9654707902841
 30
0.0000000000000000
 11
205.3316439174718
 21
325.5092554625079
 31
0.0000000000000000
  0
LINE
  5
519
100
AcDbEntity
  8
MAIN0
  6
CONTINUOUS
 62
3
100
AcDbLine
 10
209.4707399801254
 20
323.5791632706448
 30
0.0000000000000000
 11
209.2171690230811
 21
323.0353785984244
 31
0.0000000000000000
  0
LINE
  5
51A
100
AcDbEntity
  8
MAIN0
  6
CONTINUOUS
 62
3
100
AcDbLine
 10
205.7240867899981
 20
325.3262563456597
 30
0.0000000000000000
 11
205.4705158329524
 21
324.7824716734363
 31
0.0000000000000000
  0
LINE
  5
51B
100
AcDbEntity
  8
MAIN0
  6
CONTINUOUS
 62
3
100
AcDbLine
 10
213.4813307578141
 20
325.2398034179570
 30
0.0000000000000000
 11
177.1246792917106
 21
342.1931884215485
 31
0.0000000000000000
  0
LINE
  5
51C
100
AcDbEntity
  8
MAIN0
  6
CONTINUOUS
 62
3
100
AcDbLine
 10
212.1289523202413
 20
322.3396184994410
 30
0.0000000000000000
 11
214.8337091953869
 21
328.1399883364730
 31
0.0000000000000000
  0
LINE
  5
51D
100
AcDbEntity
  8
MAIN0
  6
CONTINUOUS
 62
3
100
AcDbLine
 10
212.1289523202414
 20
322.3396184994410
 30
0.0000000000000000
 11
175.8593365192945
 21
339.2524181058372
 31
0.0000000000000000
  0
LINE
  5
51E
100
AcDbEntity
  8
MAIN0
  6
PHANTOM
 62
3
100
AcDbLine
 10
195.1449014917180
 20
321.4102036999169
 30
0.0000000000000000
 11
196.4738275404964
 21
321.8938932252140
 31
0.0000000000000000
  0
LINE
  5
51F
100
AcDbEntity
  8
MAIN0
  6
PHANTOM
 62
3
100
AcDbLine
 10
199.4406524968663
 20
328.2562698760738
 30
0.0000000000000000
 11
196.4738275404990
 21
321.8938932252118
 31
0.0000000000000000
  0
LINE
  5
520
100
AcDbEntity
  8
MAIN0
  6
PHANTOM
 62
3
100
AcDbLine
 10
198.9498868301866
 20
328.4851176648071
 30
0.0000000000000000
 11
195.7542140850878
 21
321.6319753472674
 31
0.0000000000000000
  0
LINE
  5
521
100
AcDbEntity
  8
MAIN0
  6
PHANTOM
 62
3
100
AcDbLine
 10
185.5981340960680
 20
326.9653123661196
 30
0.0000000000000000
 11
188.5649590524349
 21
333.3276890169808
 31
0.0000000000000000
  0
LINE
  5
522
100
AcDbEntity
  8
MAIN0
  6
PHANTOM
 62
3
100
AcDbLine
 10
185.8600433984714
 20
326.2456805203915
 30
0.0000000000000000
 11
189.0557247191154
 21
333.0988412282471
 31
0.0000000000000000
  0
LINE
  5
523
100
AcDbEntity
  8
MAIN0
  6
PHANTOM
 62
3
100
AcDbLine
 10
196.4738275404960
 20
321.8938932252133
 30
0.0000000000000000
 11
185.5981340960563
 21
326.9653123660946
 31
0.0000000000000000
  0
LINE
  5
524
100
AcDbEntity
  8
WAKU0
  6
CONTINUOUS
 62
3
100
AcDbLine
 10
412.0000000000000
 20
51.00000000000000
 30
0.0000000000000000
 11
582.0000000000000
 21
51.00000000000000
 31
0.0000000000000000
  0
LINE
  5
525
100
AcDbEntity
  8
WAKU0
  6
CONTINUOUS
 62
3
100
AcDbLine
 10
412.0000000000000
 20
51.00000000000000
 30
0.0000000000000000
 11
412.0000000000000
 21
12.00000000000000
 31
0.0000000000000000
  0
LINE
  5
526
100
AcDbEntity
  8
WAKU0
  6
CONTINUOUS
 62
3
100
AcDbLine
 10
484.0000000000000
 20
51.00000000000000
 30
0.0000000000000000
 11
484.0000000000000
 21
12.00000000000000
 31
0.0000000000000000
  0
LINE
  5
527
100
AcDbEntity
  8
WAKU0
  6
CONTINUOUS
 62
3
100
AcDbLine
 10
504.0000000000000
 20
51.00000000000000
 30
0.0000000000000000
 11
504.0000000000000
 21
12.00000000000000
 31
0.0000000000000000
  0
LINE
  5
528
100
AcDbEntity
  8
WAKU0
  6
CONTINUOUS
 62
3
100
AcDbLine
 10
516.0000000000000
 20
51.00000000000000
 30
0.0000000000000000
 11
516.0000000000000
 21
12.00000000000000
 31
0.0000000000000000
  0
LINE
  5
529
100
AcDbEntity
  8
WAKU0
  6
CONTINUOUS
 62
3
100
AcDbLine
 10
516.0000000000000
 20
37.00000000000000
 30
0.0000000000000000
 11
582.0000000000000
 21
37.00000000000000
 31
0.0000000000000000
  0
LINE
  5
52A
100
AcDbEntity
  8
WAKU0
  6
CONTINUOUS
 62
3
100
AcDbLine
 10
504.0000000000000
 20
23.00000000000000
 30
0.0000000000000000
 11
582.0000000000000
 21
23.00000000000000
 31
0.0000000000000000
  0
LINE
  5
52B
100
AcDbEntity
  8
WAKU0
  6
CONTINUOUS
 62
3
100
AcDbLine
 10
547.0000000000000
 20
51.00000000000000
 30
0.0000000000000000
 11
547.0000000000000
 21
44.00000000000000
 31
0.0000000000000000
  0
LINE
  5
52C
100
AcDbEntity
  8
WAKU0
  6
CONTINUOUS
 62
3
100
AcDbLine
 10
559.0000000000000
 20
51.00000000000000
 30
0.0000000000000000
 11
559.0000000000000
 21
44.00000000000000
 31
0.0000000000000000
  0
LINE
  5
52D
100
AcDbEntity
  8
WAKU0
  6
CONTINUOUS
 62
3
100
AcDbLine
 10
484.0000000000000
 20
31.50000000000000
 30
0.0000000000000000
 11
504.0000000000000
 21
31.50000000000000
 31
0.0000000000000000
  0
LINE
  5
52E
100
AcDbEntity
  8
WAKU0
  6
CONTINUOUS
 62
3
100
AcDbLine
 10
504.0000000000000
 20
44.00000000000000
 30
0.0000000000000000
 11
582.0000000000000
 21
44.00000000000000
 31
0.0000000000000000
  0
LINE
  5
52F
100
AcDbEntity
  8
WAKU0
  6
CONTINUOUS
 62
3
100
AcDbLine
 10
412.0000000000000
 20
37.00000000000000
 30
0.0000000000000000
 11
484.0000000000000
 21
37.00000000000000
 31
0.0000000000000000
  0
LINE
  5
530
100
AcDbEntity
  8
WAKU0
  6
CONTINUOUS
 62
3
100
AcDbLine
 10
412.0000000000000
 20
23.00000000000000
 30
0.0000000000000000
 11
484.0000000000000
 21
23.00000000000000
 31
0.0000000000000000
  0
LINE
  5
531
100
AcDbEntity
  8
WAKU0
  6
CONTINUOUS
 62
3
100
AcDbLine
 10
460.0000000000000
 20
37.00000000000000
 30
0.0000000000000000
 11
460.0000000000000
 21
12.00000000000000
 31
0.0000000000000000
  0
LINE
  5
532
100
AcDbEntity
  8
WAKU0
  6
CONTINUOUS
 62
3
100
AcDbLine
 10
436.0000000000000
 20
37.00000000000000
 30
0.0000000000000000
 11
436.0000000000000
 21
23.00000000000000
 31
0.0000000000000000
  0
LINE
  5
533
100
AcDbEntity
  8
WAKU0
  6
CONTINUOUS
 62
3
100
AcDbLine
 10
472.0000000000000
 20
26.00000000000000
 30
0.0000000000000000
 11
472.0000000000000
 21
23.00000000000000
 31
0.0000000000000000
  0
LINE
  5
534
100
AcDbEntity
  8
WAKU0
  6
CONTINUOUS
 62
3
100
AcDbLine
 10
448.0000000000000
 20
26.00000000000000
 30
0.0000000000000000
 11
448.0000000000000
 21
23.00000000000000
 31
0.0000000000000000
  0
LINE
  5
535
100
AcDbEntity
  8
WAKU0
  6
CONTINUOUS
 62
3
100
AcDbLine
 10
424.0000000000000
 20
26.00000000000000
 30
0.0000000000000000
 11
424.0000000000000
 21
23.00000000000000
 31
0.0000000000000000
  0
LINE
  5
536
100
AcDbEntity
  8
WAKU0
  6
CONTINUOUS
 62
3
100
AcDbLine
 10
430.0000000000000
 20
51.00000000000000
 30
0.0000000000000000
 11
430.0000000000000
 21
37.00000000000000
 31
0.0000000000000000
  0
LINE
  5
537
100
AcDbEntity
  8
WAKU0
  6
CONTINUOUS
 62
3
100
AcDbLine
 10
412.0000000000000
 20
45.00000000000000
 30
0.0000000000000000
 11
484.0000000000000
 21
45.00000000000000
 31
0.0000000000000000
  0
LINE
  5
538
100
AcDbEntity
  8
WAKU0
  6
HIDDEN
 62
3
100
AcDbLine
 10
532.5000000000000
 20
23.00000000000000
 30
0.0000000000000000
 11
532.5000000000000
 21
12.00000000000000
 31
0.0000000000000000
  0
LINE
  5
539
100
AcDbEntity
  8
WAKU0
  6
HIDDEN
 62
3
100
AcDbLine
 10
544.9000000000000
 20
23.00000000000000
 30
0.0000000000000000
 11
544.9000000000000
 21
12.00000000000000
 31
0.0000000000000000
  0
MTEXT
  5
53A
100
AcDbEntity
  8
WAKU0
  6
CONTINUOUS
 62
3
100
AcDbMText
 10
516.4820000243485
 20
49.04999995231628
 30
0.0000000000000000
 40
3.099999904632568
 41
0.0000000000000000
 71
     1
 72
     1
  1
{\H0.93x;{M1221HC21D}}
 11
1.000000000000000
 21
0.0000000000000000
 31
0.0000000000000000
  7
STANDARD
  0
MTEXT
  5
53B
100
AcDbEntity
  8
WAKU0
  6
CONTINUOUS
 62
3
100
AcDbMText
 10
522.7500004470348
 20
43.50000000000000
 30
0.0000000000000000
 40
3.000000000000000
 41
0.0000000000000000
 71
     1
 72
     1
  1
{\H0.59x;{回転油圧シリンダ\PＲＯＴＡＲＹ　ＨＹＤＲＡＵＬＩＣ　ＣＹＬＩＮＤＥＲ}}
 11
1.000000000000000
 21
0.0000000000000000
 31
0.0000000000000000
  7
KNJYOKO
  0
MTEXT
  5
53C
100
AcDbEntity
  8
WAKU0
  6
CONTINUOUS
 62
3
100
AcDbMText
 10
519.1499999836087
 20
34.23333326975504
 30
0.0000000000000000
 40
3.099999904632568
 41
0.0000000000000000
 71
     1
 72
     1
  1
{\H0.71x;{Ｍ１２２１ＨＣ２１Ｄ　ガイケイ\PＭ１２２１ＨＣ２１Ｄ　ＯＵＴＳＩＤＥ　ＶＩＥＷ}}
 11
1.000000000000000
 21
0.0000000000000000
 31
0.0000000000000000
  7
KNJYOKO
  0
MTEXT
  5
53D
100
AcDbEntity
  8
WAKU0
  6
CONTINUOUS
 62
3
100
AcDbMText
 10
490.0049998760223
 20
39.29999995231628
 30
0.0000000000000000
 40
3.099999904632568
 41
0.0000000000000000
 71
     1
 72
     1
  1
{\H0.90x;{1:1}}
 11
1.000000000000000
 21
0.0000000000000000
 31
0.0000000000000000
  7
STANDARD
  0
MTEXT
  5
53E
100
AcDbEntity
  8
WAKU0
  6
CONTINUOUS
 62
3
100
AcDbMText
 10
546.4000001549721
 20
20.15000009536743
 30
0.0000000000000000
 40
5.300000190734863
 41
0.0000000000000000
 71
     1
 72
     1
  1
{\H0.90x;{5438}}
 11
1.000000000000000
 21
0.0000000000000000
 31
0.0000000000000000
  7
STANDARD
  0
MTEXT
  5
53F
100
AcDbEntity
  8
WAKU0
  6
CONTINUOUS
 62
3
100
AcDbMText
 10
534.3000000834466
 20
20.15000009536743
 30
0.0000000000000000
 40
5.300000190734863
 41
0.0000000000000000
 71
     1
 72
     1
  1
{\H0.87x;{25}}
 11
1.000000000000000
 21
0.0000000000000000
 31
0.0000000000000000
  7
STANDARD
  0
MTEXT
  5
540
100
AcDbEntity
  8
WAKU0
  6
CONTINUOUS
 62
3
100
AcDbMText
 10
517.5000001192093
 20
20.15000009536743
 30
0.0000000000000000
 40
5.300000190734863
 41
0.0000000000000000
 71
     1
 72
     1
  1
{\H0.89x;{61R}}
 11
1.000000000000000
 21
0.0000000000000000
 31
0.0000000000000000
  7
STANDARD
  0
MTEXT
  5
541
100
AcDbEntity
  8
WAKU0
  6
CONTINUOUS
 62
3
100
AcDbMText
 10
572.0000000476837
 20
20.15000009536743
 30
0.0000000000000000
 40
5.300000190734863
 41
0.0000000000000000
 71
     1
 72
     1
  1
{\H0.81x;{0}}
 11
1.000000000000000
 21
0.0000000000000000
 31
0.0000000000000000
  7
STANDARD
  0
MTEXT
  5
542
100
AcDbEntity
  8
WAKU0
  6
CONTINUOUS
 62
3
100
AcDbMText
 10
572.0000000819564
 20
44.84999990463257
 30
0.0000000000000000
 40
5.300000190734863
 41
0.0000000000000000
 71
     7
 72
     1
  1
{\H0.81x;{ }}
 11
1.000000000000000
 21
0.0000000000000000
 31
0.0000000000000000
  7
STANDARD
  0
MTEXT
  5
543
100
AcDbEntity
  8
WAKU0
  6
CONTINUOUS
 62
3
100
AcDbMText
 10
461.3850002884865
 20
33.00000000000000
 30
0.0000000000000000
 40
3.000000000000000
 41
0.0000000000000000
 71
     7
 72
     1
  1
{\H0.93x;{DRAWN BY}}
 11
1.000000000000000
 21
0.0000000000000000
 31
0.0000000000000000
  7
STANDARD
  0
MTEXT
  5
544
100
AcDbEntity
  8
WAKU0
  6
CONTINUOUS
 62
3
100
AcDbMText
 10
441.2149997949600
 20
32.95000004768372
 30
0.0000000000000000
 40
3.099999904632568
 41
0.0000000000000000
 71
     7
 72
     1
  1
{\H0.92x;{CHIEF}}
 11
1.000000000000000
 21
0.0000000000000000
 31
0.0000000000000000
  7
STANDARD
  0
MTEXT
  5
545
100
AcDbEntity
  8
WAKU0
  6
CONTINUOUS
 62
3
100
AcDbMText
 10
414.4249997138977
 20
32.95000004768372
 30
0.0000000000000000
 40
3.099999904632568
 41
0.0000000000000000
 71
     7
 72
     1
  1
{\H0.92x;{MANAGER}}
 11
1.000000000000000
 21
0.0000000000000000
 31
0.0000000000000000
  7
STANDARD
  0
MTEXT
  5
546
100
AcDbEntity
  8
WAKU0
  6
CONTINUOUS
 62
3
100
AcDbMText
 10
416.6599994301796
 20
18.13333336512248
 30
0.0000000000000000
 40
3.099999904632568
 41
0.0000000000000000
 71
     7
 72
     1
  1
{\H0.93x;{KITAGAWA IRON\PWORKS CO.,LTD.}}
 11
1.000000000000000
 21
0.0000000000000000
 31
0.0000000000000000
  7
STANDARD
  0
MTEXT
  5
547
100
AcDbEntity
  8
WAKU0
  6
CONTINUOUS
 62
3
100
AcDbMText
 10
413.0850002169609
 20
46.50000000000000
 30
0.0000000000000000
 40
3.000000000000000
 41
0.0000000000000000
 71
     7
 72
     1
  1
{\H0.92x;{CAREER}}
 11
1.000000000000000
 21
0.0000000000000000
 31
0.0000000000000000
  7
STANDARD
  0
MTEXT
  5
548
100
AcDbEntity
  8
WAKU0
  6
CONTINUOUS
 62
3
100
AcDbMText
 10
466.6099998354912
 20
18.95000004768372
 30
0.0000000000000000
 40
3.099999904632568
 41
0.0000000000000000
 71
     7
 72
     1
  1
{\H0.91x;{DATE}}
 11
1.000000000000000
 21
0.0000000000000000
 31
0.0000000000000000
  7
STANDARD
  0
MTEXT
  5
549
100
AcDbEntity
  8
WAKU0
  6
CONTINUOUS
 62
3
100
AcDbMText
 10
485.9000002145767
 20
26.50000000000000
 30
0.0000000000000000
 40
3.000000000000000
 41
0.0000000000000000
 71
     7
 72
     1
  1
{\H0.63x;{3RD ANGLE}}
 11
1.000000000000000
 21
0.0000000000000000
 31
0.0000000000000000
  7
STANDARD
  0
MTEXT
  5
54A
100
AcDbEntity
  8
WAKU0
  6
CONTINUOUS
 62
3
100
AcDbMText
 10
487.2149997949600
 20
45.95000004768372
 30
0.0000000000000000
 40
3.099999904632568
 41
0.0000000000000000
 71
     7
 72
     1
  1
{\H0.92x;{SCALE}}
 11
1.000000000000000
 21
0.0000000000000000
 31
0.0000000000000000
  7
STANDARD
  0
MTEXT
  5
54B
100
AcDbEntity
  8
WAKU0
  6
CONTINUOUS
 62
3
100
AcDbMText
 10
577.7000000476837
 20
46.00000000000000
 30
0.0000000000000000
 40
3.000000000000000
 41
0.0000000000000000
 71
     7
 72
     1
  1
{\H0.63x;{kg}}
 11
1.000000000000000
 21
0.0000000000000000
 31
0.0000000000000000
  7
STANDARD
  0
MTEXT
  5
54C
100
AcDbEntity
  8
WAKU0
  6
CONTINUOUS
 62
3
100
AcDbMText
 10
547.6000001430512
 20
46.00000000000000
 30
0.0000000000000000
 40
3.000000000000000
 41
0.0000000000000000
 71
     7
 72
     1
  1
{\H0.63x;{WEIGHT}}
 11
1.000000000000000
 21
0.0000000000000000
 31
0.0000000000000000
  7
STANDARD
  0
MTEXT
  5
54D
100
AcDbEntity
  8
WAKU0
  6
CONTINUOUS
 62
3
100
AcDbMText
 10
506.0049998760223
 20
18.13333336512248
 30
0.0000000000000000
 40
3.099999904632568
 41
0.0000000000000000
 71
     7
 72
     1
  1
{\H0.90x;{DRW\PNO.}}
 11
1.000000000000000
 21
0.0000000000000000
 31
0.0000000000000000
  7
STANDARD
  0
MTEXT
  5
54E
100
AcDbEntity
  8
WAKU0
  6
CONTINUOUS
 62
3
100
AcDbMText
 10
504.6099998354912
 20
31.95000004768372
 30
0.0000000000000000
 40
3.099999904632568
 41
0.0000000000000000
 71
     7
 72
     1
  1
{\H0.91x;{NAME}}
 11
1.000000000000000
 21
0.0000000000000000
 31
0.0000000000000000
  7
STANDARD
  0
MTEXT
  5
54F
100
AcDbEntity
  8
WAKU0
  6
CONTINUOUS
 62
3
100
AcDbMText
 10
504.6099998354912
 20
45.95000004768372
 30
0.0000000000000000
 40
3.099999904632568
 41
0.0000000000000000
 71
     7
 72
     1
  1
{\H0.91x;{TYPE}}
 11
1.000000000000000
 21
0.0000000000000000
 31
0.0000000000000000
  7
STANDARD
  0
LINE
  5
550
100
AcDbEntity
  8
WAKU0
  6
HIDDEN
 62
3
100
AcDbLine
 10
579.1599564743885
 20
13.84999990463257
 30
0.0000000000000000
 11
568.9400436209789
 21
13.84999990463257
 31
0.0000000000000000
  0
LINE
  5
551
100
AcDbEntity
  8
WAKU0
  6
HIDDEN
 62
3
100
AcDbLine
 10
579.1599564743885
 20
13.84999990463250
 30
0.0000000000000000
 11
574.0500000476851
 21
22.70070406014901
 31
0.0000000000000000
  0
LINE
  5
552
100
AcDbEntity
  8
WAKU0
  6
HIDDEN
 62
3
100
AcDbLine
 10
574.0500000476851
 20
22.70070406014902
 30
0.0000000000000000
 11
568.9400436209789
 21
13.84999990463248
 31
0.0000000000000000
  0
LINE
  5
553
100
AcDbEntity
  8
WAKU0
  6
CONTINUOUS
 62
3
100
AcDbLine
 10
502.4713877753800
 20
15.78041421262812
 30
0.0000000000000000
 11
502.4713877753800
 21
21.78041421262815
 31
0.0000000000000000
  0
LINE
  5
554
100
AcDbEntity
  8
WAKU0
  6
CONTINUOUS
 62
3
100
AcDbLine
 10
495.9336941228225
 20
17.28041421262811
 30
0.0000000000000000
 11
495.9336941228225
 21
20.28041421262824
 31
0.0000000000000000
  0
LINE
  5
555
100
AcDbEntity
  8
WAKU0
  6
CENTER
 62
12
100
AcDbLine
 10
485.4321805514995
 20
18.78041421262813
 30
0.0000000000000000
 11
503.2765788964694
 21
18.78041421262813
 31
0.0000000000000000
  0
LINE
  5
556
100
AcDbEntity
  8
WAKU0
  6
CENTER
 62
12
100
AcDbLine
 10
489.4474565857986
 20
14.55921662918448
 30
0.0000000000000000
 11
489.4474565857986
 21
22.89865102149943
 31
0.0000000000000000
  0
LINE
  5
557
100
AcDbEntity
  8
WAKU0
  6
CONTINUOUS
 62
3
100
AcDbLine
 10
495.9336941228225
 20
20.28041421262797
 30
0.0000000000000000
 11
502.4713877753800
 21
21.78041421262795
 31
0.0000000000000000
  0
LINE
  5
558
100
AcDbEntity
  8
WAKU0
  6
CONTINUOUS
 62
3
100
AcDbLine
 10
495.9336941228225
 20
17.28041421262811
 30
0.0000000000000000
 11
502.4713877753799
 21
15.78041421262812
 31
0.0000000000000000
  0
CIRCLE
  5
559
100
AcDbEntity
  8
WAKU0
  6
CONTINUOUS
 62
3
100
AcDbCircle
 10
489.4474565857986
 20
18.78041421262813
 30
0.0000000000000000
 40
1.499999999999972
  0
CIRCLE
  5
55A
100
AcDbEntity
  8
WAKU0
  6
CONTINUOUS
 62
3
100
AcDbCircle
 10
489.4474565857986
 20
18.78041421262813
 30
0.0000000000000000
 40
2.999999999999979
  0
ENDSEC
  0
SECTION
  2
OBJECTS
  0
DICTIONARY
  5
5AD
100
AcDbDictionary
  3
ACAD_GROUP
350
5AE
  3
ACAD_MLINESTYLE
350
5AF
  3
DWGPROPS
350
5B0
  0
DICTIONARY
  5
5AE
102
{ACAD_REACTORS
330
5AD
102
}
100
AcDbDictionary
  0
DICTIONARY
  5
5AF
102
{ACAD_REACTORS
330
5AD
102
}
100
AcDbDictionary
  3
STANDARD
350
5B1
  0
MLINESTYLE
  5
5B1
102
{ACAD_REACTORS
330
5AF
102
}
100
AcDbMlineStyle
  2
STANDARD
 70
     0
  3

 62
   256
 51
90.00
 52
90.00
 71
     2
 49
0.50
 62
   256
  6
BYLAYER
 49
-0.50
 62
   256
  6
BYLAYER
  0
XRECORD
  5
5B0
102
{ACAD_REACTORS
330
5AD
102
}
100
AcDbXrecord
280
     1
  1
DWGPROPS COOKIE
  2
Ｍ１２２１ＲＣ　ガイケイ
  3

  4

  6
回転油圧シリンダ
  7

  8

  9

300
=
301
=
302
=
303
=
304
=
305
=
306
=
307
=
308
=
309
=
 40
0.000000
 41
0.000000
 42
0.000000
  1

 90
        0
  0
ENDSEC
  0
EOF
