  0
SECTION
  2
HEADER
  9
$ACADVER
  1
AC1014
  9
$DWGCODEPAGE
  3
ANSI_932
  9
$LTSCALE
 40
20.0
  9
$FILLMODE
 70
     1
  9
$CLAYER
  8
0
  9
$PDMODE
 70
     0
  9
$SPLFRAME
 70
     0
  9
$SPLINETYPE
 70
     6
  9
$SPLINESEGS
 70
     8
  9
$DIMASZ
 40
2.000000
  9
$DIMEXE
 40
2.000000
  9
$DIMEXO
 40
0.800000
  9
$DIMTAD
 70
     1
  9
$DIMTIH
 70
     0
  9
$DIMTOH
 70
     0
  9
$DIMTVP
 40
0.500000
  9
$DIMTXT
 40
3.100000
  9
$EXTMIN
 10
0.000000
 20
0.000000
 30
0.000000
  9
$EXTMAX
 10
420.000000
 20
594.000000
 30
0.000000
  9
$MEASUREMENT
 70
  1
  9
$LIMMIN
 10
0.000000
 20
0.000000
  9
$LIMMAX
 10
420.000000
 20
594.000000
  9
$HANDLING
 70
     1
  9
$HANDSEED
  5
523
  9
$DIMBLK
  1
_OPEN
  9
$DIMDEC
 70
     3
  9
$DIMAUNIT
 70
     1
  9
$DIMZIN
 70
     8
  9
$DIMTOFL
 70
     1
  0
ENDSEC
  0
SECTION
  2
CLASSES
  0
ENDSEC
  0
SECTION
  2
TABLES
  0
TABLE
  2
VPORT
  5
4C7
100
AcDbSymbolTable
 70
     1
  0
VPORT
  5
4C8
100
AcDbSymbolTableRecord
100
AcDbViewportTableRecord
  2
*ACTIVE
 70
     0
 12
723.972258
 22
496.720592
 40
993.441185
 41
1.457504
  0
ENDTAB
  0
TABLE
  2
LTYPE
  5
4C9
100
AcDbSymbolTable
 70
     4
  0
LTYPE
  5
4CA
100
AcDbSymbolTableRecord
100
AcDbLinetypeTableRecord
  2
BYBLOCK
 70
     0
  3

 72
    65
 73
     0
 40
0.0
  0
LTYPE
  5
4CB
100
AcDbSymbolTableRecord
100
AcDbLinetypeTableRecord
  2
BYLAYER
 70
     0
  3

 72
    65
 73
     0
 40
0.0
  0
LTYPE
  5
4CC
100
AcDbSymbolTableRecord
100
AcDbLinetypeTableRecord
  2
CONTINUOUS
 70
     0
  3
Solid line (NEC CAE2D for Win R12.1 : 2014.12.18)
 72
    65
 73
     0
 40
0.0
  0
LTYPE
  5
4CD
100
AcDbSymbolTableRecord
100
AcDbLinetypeTableRecord
  2
HIDDEN
 70
     0
  3
__ __ __ __ __ __ __ __ __ __ __ __ __ __
 72
    65
 73
     2
 40
0.375
 49
0.25
 74
     0
 49
-0.125
 74
     0
  0
LTYPE
  5
4CE
100
AcDbSymbolTableRecord
100
AcDbLinetypeTableRecord
  2
CENTER
 70
     0
  3
____ _ ____ _ ____ _ ____ _ ____ _ ____
 72
    65
 73
     4
 40
2.0
 49
1.25
 74
     0
 49
-0.25
 74
     0
 49
0.25
 74
     0
 49
-0.25
 74
     0
  0
LTYPE
  5
4CF
100
AcDbSymbolTableRecord
100
AcDbLinetypeTableRecord
  2
PHANTOM
 70
     0
  3
______  __  __  ______  __  __  ______ 
 72
    65
 73
     6
 40
2.5
 49
1.25
 74
     0
 49
-0.25
 74
     0
 49
0.25
 74
     0
 49
-0.25
 74
     0
 49
0.25
 74
     0
 49
-0.25
 74
     0
  0
ENDTAB
  0
TABLE
  2
LAYER
  5
4D0
100
AcDbSymbolTable
 70
    16
  0
LAYER
  5
4D1
100
AcDbSymbolTableRecord
100
AcDbLayerTableRecord
  2
0
 70
     0
 62
     7
  6
CONTINUOUS
  0
LAYER
  5
4D2
100
AcDbSymbolTableRecord
100
AcDbLayerTableRecord
  2
MAIN0
 70
     0
 62
     7
  6
CONTINUOUS
  0
LAYER
  5
4D3
100
AcDbSymbolTableRecord
100
AcDbLayerTableRecord
  2
MAIN1
 70
     0
 62
     7
  6
CONTINUOUS
  0
LAYER
  5
4D4
100
AcDbSymbolTableRecord
100
AcDbLayerTableRecord
  2
MAIN2
 70
     0
 62
     5
  6
CONTINUOUS
  0
LAYER
  5
4D5
100
AcDbSymbolTableRecord
100
AcDbLayerTableRecord
  2
MAIN3
 70
     0
 62
    14
  6
CONTINUOUS
  0
LAYER
  5
4D6
100
AcDbSymbolTableRecord
100
AcDbLayerTableRecord
  2
MAIN4
 70
     0
 62
     9
  6
CONTINUOUS
  0
LAYER
  5
4D7
100
AcDbSymbolTableRecord
100
AcDbLayerTableRecord
  2
MAIN5
 70
     0
 62
     9
  6
CONTINUOUS
  0
LAYER
  5
4D8
100
AcDbSymbolTableRecord
100
AcDbLayerTableRecord
  2
MAIN6
 70
     0
 62
    10
  6
CONTINUOUS
  0
LAYER
  5
4D9
100
AcDbSymbolTableRecord
100
AcDbLayerTableRecord
  2
MAIN7
 70
     0
 62
     7
  6
CONTINUOUS
  0
LAYER
  5
4DA
100
AcDbSymbolTableRecord
100
AcDbLayerTableRecord
  2
MAIN8
 70
     0
 62
    12
  6
CONTINUOUS
  0
LAYER
  5
4DB
100
AcDbSymbolTableRecord
100
AcDbLayerTableRecord
  2
MAIN9
 70
     0
 62
     8
  6
CONTINUOUS
  0
LAYER
  5
4DC
100
AcDbSymbolTableRecord
100
AcDbLayerTableRecord
  2
MAIN1023
 70
     0
 62
    16
  6
CONTINUOUS
  0
LAYER
  5
4DD
100
AcDbSymbolTableRecord
100
AcDbLayerTableRecord
  2
WAKU0
 70
     0
 62
     7
  6
CONTINUOUS
  0
LAYER
  5
4DE
100
AcDbSymbolTableRecord
100
AcDbLayerTableRecord
  2
WAKU1023
 70
     0
 62
    16
  6
CONTINUOUS
  0
LAYER
  5
4DF
100
AcDbSymbolTableRecord
100
AcDbLayerTableRecord
  2
A0
 70
     0
 62
     7
  6
CONTINUOUS
  0
LAYER
  5
4E0
100
AcDbSymbolTableRecord
100
AcDbLayerTableRecord
  2
A1023
 70
     0
 62
    16
  6
CONTINUOUS
  0
ENDTAB
  0
TABLE
  2
STYLE
  5
4E1
100
AcDbSymbolTable
 70
     4
  0
STYLE
  5
4E2
100
AcDbSymbolTableRecord
100
AcDbTextStyleTableRecord
  2
STANDARD
 70
    64
 40
0.0
 41
1.0
 50
0.0
 71
     0
 42
7.749999761581421
  3
TXT
  4

  0
STYLE
  5
4E3
100
AcDbSymbolTableRecord
100
AcDbTextStyleTableRecord
  2
ANKTATE
 70
    68
 40
0.0
 41
1.0
 50
0.0
 71
     0
 42
7.749999761581421
  3
TXT
  4

  0
STYLE
  5
1B6
100
AcDbSymbolTableRecord
100
AcDbTextStyleTableRecord
  2
KNJYOKO
 70
    64
 40
0.0
 41
1.0
 50
0.0
 71
     0
 42
7.749999761581421
  3
TXT
  4
BIGFONT
  0
STYLE
  5
4E4
100
AcDbSymbolTableRecord
100
AcDbTextStyleTableRecord
  2
KNJTATE
 70
    68
 40
0.0
 41
1.0
 50
0.0
 71
     0
 42
7.749999761581421
  3
TXT
  4
BIGFONT
  0
ENDTAB
  0
TABLE
  2
VIEW
  5
4E5
100
AcDbSymbolTable
 70
     0
  0
ENDTAB
  0
TABLE
  2
UCS
  5
4E6
100
AcDbSymbolTable
 70
     0
  0
ENDTAB
  0
TABLE
  2
APPID
  5
4E7
100
AcDbSymbolTable
 70
     1
  0
APPID
  5
4E8
100
AcDbSymbolTableRecord
100
AcDbRegAppTableRecord
  2
ACAD
 70
     0
  0
ENDTAB
  0
TABLE
  2
DIMSTYLE
  5
4E9
100
AcDbSymbolTable
 70
     1
  0
DIMSTYLE
105
4EA
100
AcDbSymbolTableRecord
100
AcDbDimStyleTableRecord
  2
STANDARD
 70
     0
 41
2.000000
 44
2.000000
 42
0.800000
145
0.661290
140
3.100000
144
1.000000
146
0.903226
340
4E2
  0
DIMSTYLE
105
4EB
100
AcDbSymbolTableRecord
100
AcDbDimStyleTableRecord
  2
MAIN001
 70
     0
 41
4.000000
 44
4.000000
 42
1.600000
145
0.580645
140
6.200000
144
1.000000
146
0.903226
 77
     1
 73
     0
 74
     0
271
     3
275
     1
 78
     8
172
     1
340
4E2
  0
DIMSTYLE
105
4EC
100
AcDbSymbolTableRecord
100
AcDbDimStyleTableRecord
  2
WAKU002
 70
     0
 41
2.000000
 44
2.000000
 42
0.800000
145
0.661290
140
3.100000
144
1.000000
146
0.903226
 77
     1
 73
     0
 74
     0
271
     3
275
     1
 78
     8
172
     1
340
4E2
  0
DIMSTYLE
105
4ED
100
AcDbSymbolTableRecord
100
AcDbDimStyleTableRecord
  2
A003
 70
     0
 41
5.000000
 44
5.000000
 42
2.000000
145
0.564516
140
7.750000
144
1.000000
146
0.903226
 77
     1
 73
     0
 74
     0
271
     3
275
     1
 78
     8
172
     1
340
4E2
  0
ENDTAB
  0
TABLE
  2
BLOCK_RECORD
  5
4EE
100
AcDbSymbolTable
 70
    53
  0
BLOCK_RECORD
  5
4EF
100
AcDbSymbolTableRecord
100
AcDbBlockTableRecord
  2
*MODEL_SPACE
  0
BLOCK_RECORD
  5
4F0
100
AcDbSymbolTableRecord
100
AcDbBlockTableRecord
  2
*PAPER_SPACE
  0
BLOCK_RECORD
  5
1
100
AcDbSymbolTableRecord
100
AcDbBlockTableRecord
  2
_NONE
  0
BLOCK_RECORD
  5
4
100
AcDbSymbolTableRecord
100
AcDbBlockTableRecord
  2
_CLOSED
  0
BLOCK_RECORD
  5
B
100
AcDbSymbolTableRecord
100
AcDbBlockTableRecord
  2
_DOT
  0
BLOCK_RECORD
  5
13
100
AcDbSymbolTableRecord
100
AcDbBlockTableRecord
  2
_OPEN
  0
BLOCK_RECORD
  5
19
100
AcDbSymbolTableRecord
100
AcDbBlockTableRecord
  2
_ORIGIN
  0
BLOCK_RECORD
  5
1E
100
AcDbSymbolTableRecord
100
AcDbBlockTableRecord
  2
_OPEN30
  0
BLOCK_RECORD
  5
24
100
AcDbSymbolTableRecord
100
AcDbBlockTableRecord
  2
_BOXFILLED
  0
BLOCK_RECORD
  5
29
100
AcDbSymbolTableRecord
100
AcDbBlockTableRecord
  2
_BOXBLANK
  0
BLOCK_RECORD
  5
31
100
AcDbSymbolTableRecord
100
AcDbBlockTableRecord
  2
_OBLIQUE
  0
BLOCK_RECORD
  5
35
100
AcDbSymbolTableRecord
100
AcDbBlockTableRecord
  2
_OPEN90
  0
BLOCK_RECORD
  5
3B
100
AcDbSymbolTableRecord
100
AcDbBlockTableRecord
  2
_CLOSEDBLANK
  0
BLOCK_RECORD
  5
41
100
AcDbSymbolTableRecord
100
AcDbBlockTableRecord
  2
_DOTBLANK
  0
BLOCK_RECORD
  5
4F1
100
AcDbSymbolTableRecord
100
AcDbBlockTableRecord
  2
*D0
  0
BLOCK_RECORD
  5
4F2
100
AcDbSymbolTableRecord
100
AcDbBlockTableRecord
  2
D1
  0
BLOCK_RECORD
  5
4F3
100
AcDbSymbolTableRecord
100
AcDbBlockTableRecord
  2
*D2
  0
BLOCK_RECORD
  5
4F4
100
AcDbSymbolTableRecord
100
AcDbBlockTableRecord
  2
D3
  0
BLOCK_RECORD
  5
4F5
100
AcDbSymbolTableRecord
100
AcDbBlockTableRecord
  2
*D4
  0
BLOCK_RECORD
  5
4F6
100
AcDbSymbolTableRecord
100
AcDbBlockTableRecord
  2
*D5
  0
BLOCK_RECORD
  5
4F7
100
AcDbSymbolTableRecord
100
AcDbBlockTableRecord
  2
*D6
  0
BLOCK_RECORD
  5
4F8
100
AcDbSymbolTableRecord
100
AcDbBlockTableRecord
  2
*D7
  0
BLOCK_RECORD
  5
4F9
100
AcDbSymbolTableRecord
100
AcDbBlockTableRecord
  2
*D8
  0
BLOCK_RECORD
  5
4FA
100
AcDbSymbolTableRecord
100
AcDbBlockTableRecord
  2
*D9
  0
BLOCK_RECORD
  5
4FB
100
AcDbSymbolTableRecord
100
AcDbBlockTableRecord
  2
*D10
  0
BLOCK_RECORD
  5
4FC
100
AcDbSymbolTableRecord
100
AcDbBlockTableRecord
  2
*D11
  0
BLOCK_RECORD
  5
4FD
100
AcDbSymbolTableRecord
100
AcDbBlockTableRecord
  2
*D12
  0
BLOCK_RECORD
  5
4FE
100
AcDbSymbolTableRecord
100
AcDbBlockTableRecord
  2
*D13
  0
BLOCK_RECORD
  5
4FF
100
AcDbSymbolTableRecord
100
AcDbBlockTableRecord
  2
*D14
  0
BLOCK_RECORD
  5
500
100
AcDbSymbolTableRecord
100
AcDbBlockTableRecord
  2
*D15
  0
BLOCK_RECORD
  5
501
100
AcDbSymbolTableRecord
100
AcDbBlockTableRecord
  2
*D16
  0
BLOCK_RECORD
  5
502
100
AcDbSymbolTableRecord
100
AcDbBlockTableRecord
  2
*D17
  0
BLOCK_RECORD
  5
503
100
AcDbSymbolTableRecord
100
AcDbBlockTableRecord
  2
*D18
  0
BLOCK_RECORD
  5
504
100
AcDbSymbolTableRecord
100
AcDbBlockTableRecord
  2
*D19
  0
BLOCK_RECORD
  5
505
100
AcDbSymbolTableRecord
100
AcDbBlockTableRecord
  2
*D20
  0
BLOCK_RECORD
  5
506
100
AcDbSymbolTableRecord
100
AcDbBlockTableRecord
  2
*D21
  0
BLOCK_RECORD
  5
507
100
AcDbSymbolTableRecord
100
AcDbBlockTableRecord
  2
*D22
  0
BLOCK_RECORD
  5
508
100
AcDbSymbolTableRecord
100
AcDbBlockTableRecord
  2
*D23
  0
BLOCK_RECORD
  5
509
100
AcDbSymbolTableRecord
100
AcDbBlockTableRecord
  2
*D24
  0
BLOCK_RECORD
  5
50A
100
AcDbSymbolTableRecord
100
AcDbBlockTableRecord
  2
*D25
  0
BLOCK_RECORD
  5
50B
100
AcDbSymbolTableRecord
100
AcDbBlockTableRecord
  2
*D26
  0
BLOCK_RECORD
  5
50C
100
AcDbSymbolTableRecord
100
AcDbBlockTableRecord
  2
*D27
  0
BLOCK_RECORD
  5
50D
100
AcDbSymbolTableRecord
100
AcDbBlockTableRecord
  2
*D28
  0
BLOCK_RECORD
  5
50E
100
AcDbSymbolTableRecord
100
AcDbBlockTableRecord
  2
*D29
  0
BLOCK_RECORD
  5
50F
100
AcDbSymbolTableRecord
100
AcDbBlockTableRecord
  2
*D30
  0
BLOCK_RECORD
  5
510
100
AcDbSymbolTableRecord
100
AcDbBlockTableRecord
  2
*D31
  0
BLOCK_RECORD
  5
511
100
AcDbSymbolTableRecord
100
AcDbBlockTableRecord
  2
*D32
  0
BLOCK_RECORD
  5
512
100
AcDbSymbolTableRecord
100
AcDbBlockTableRecord
  2
*D33
  0
BLOCK_RECORD
  5
513
100
AcDbSymbolTableRecord
100
AcDbBlockTableRecord
  2
*D34
  0
BLOCK_RECORD
  5
514
100
AcDbSymbolTableRecord
100
AcDbBlockTableRecord
  2
*D35
  0
BLOCK_RECORD
  5
515
100
AcDbSymbolTableRecord
100
AcDbBlockTableRecord
  2
*D36
  0
BLOCK_RECORD
  5
516
100
AcDbSymbolTableRecord
100
AcDbBlockTableRecord
  2
*D37
  0
BLOCK_RECORD
  5
517
100
AcDbSymbolTableRecord
100
AcDbBlockTableRecord
  2
*D38
  0
BLOCK_RECORD
  5
518
100
AcDbSymbolTableRecord
100
AcDbBlockTableRecord
  2
*D39
  0
BLOCK_RECORD
  5
519
100
AcDbSymbolTableRecord
100
AcDbBlockTableRecord
  2
*D40
  0
ENDTAB
  0
ENDSEC
  0
SECTION
  2
BLOCKS
  0
BLOCK
  5
51A
100
AcDbEntity
  8
0
100
AcDbBlockBegin
  2
*MODEL_SPACE
 70
     0
 10
0.0
 20
0.0
 30
0.0
  3
*MODEL_SPACE
  1

  0
ENDBLK
  5
51B
100
AcDbEntity
  8
0
100
AcDbBlockEnd
  0
BLOCK
  5
51C
100
AcDbEntity
  8
0
100
AcDbBlockBegin
  2
*PAPER_SPACE
 70
     0
 10
0.0
 20
0.0
 30
0.0
  3
*PAPER_SPACE
  1

  0
ENDBLK
  5
51D
100
AcDbEntity
  8
0
100
AcDbBlockEnd
  0
BLOCK
  5
2
100
AcDbEntity
  8
0
100
AcDbBlockBegin
  2
_NONE
 70
     0
 10
0.0
 20
0.0
 30
0.0
  3
_NONE
  1

  0
ENDBLK
  5
3
100
AcDbEntity
  8
0
100
AcDbBlockEnd
  0
BLOCK
  5
5
100
AcDbEntity
  8
0
100
AcDbBlockBegin
  2
_CLOSED
 70
     0
 10
0.0
 20
0.0
 30
0.0
  3
_CLOSED
  1

  0
LINE
  5
6
100
AcDbEntity
  8
0
  6
BYBLOCK
 62
     0
100
AcDbLine
 10
-1.0
 20
0.166667
 30
0.0
 11
0.0
 21
0.0
 31
0.0
  0
LINE
  5
7
100
AcDbEntity
  8
0
  6
BYBLOCK
 62
     0
100
AcDbLine
 10
0.0
 20
0.0
 30
0.0
 11
-1.0
 21
-0.166667
 31
0.0
  0
LINE
  5
8
100
AcDbEntity
  8
0
  6
BYBLOCK
 62
     0
100
AcDbLine
 10
-1.0
 20
0.166667
 30
0.0
 11
-1.0
 21
-0.166667
 31
0.0
  0
LINE
  5
9
100
AcDbEntity
  8
0
  6
BYBLOCK
 62
     0
100
AcDbLine
 10
0.0
 20
0.0
 30
0.0
 11
-1.0
 21
0.0
 31
0.0
  0
ENDBLK
  5
A
100
AcDbEntity
  8
0
100
AcDbBlockEnd
  0
BLOCK
  5
C
100
AcDbEntity
  8
0
100
AcDbBlockBegin
  2
_DOT
 70
     0
 10
0.0
 20
0.0
 30
0.0
  3
_DOT
  1

  0
POLYLINE
  5
D
100
AcDbEntity
  8
0
  6
BYBLOCK
 62
     0
100
AcDb2dPolyline
 66
     1
 10
0.0
 20
0.0
 30
0.0
 70
     1
 40
0.5
 41
0.5
  0
VERTEX
  5
E
100
AcDbEntity
  8
0
  6
BYBLOCK
 62
     0
100
AcDbVertex
100
AcDb2dVertex
 10
-0.25
 20
0.0
 30
0.0
 42
1.0
  0
VERTEX
  5
F
100
AcDbEntity
  8
0
  6
BYBLOCK
 62
     0
100
AcDbVertex
100
AcDb2dVertex
 10
0.25
 20
0.0
 30
0.0
 42
1.0
  0
SEQEND
  5
10
100
AcDbEntity
  8
0
  6
BYBLOCK
 62
     0
  0
LINE
  5
11
100
AcDbEntity
  8
0
  6
BYBLOCK
 62
     0
100
AcDbLine
 10
-0.5
 20
0.0
 30
0.0
 11
-1.0
 21
0.0
 31
0.0
  0
ENDBLK
  5
12
100
AcDbEntity
  8
0
100
AcDbBlockEnd
  0
BLOCK
  5
14
100
AcDbEntity
  8
0
100
AcDbBlockBegin
  2
_OPEN
 70
     0
 10
0.0
 20
0.0
 30
0.0
  3
_OPEN
  1

  0
LINE
  5
15
100
AcDbEntity
  8
0
  6
BYBLOCK
 62
     0
100
AcDbLine
 10
-1.0
 20
0.166667
 30
0.0
 11
0.0
 21
0.0
 31
0.0
  0
LINE
  5
16
100
AcDbEntity
  8
0
  6
BYBLOCK
 62
     0
100
AcDbLine
 10
0.0
 20
0.0
 30
0.0
 11
-1.0
 21
-0.166667
 31
0.0
  0
LINE
  5
17
100
AcDbEntity
  8
0
  6
BYBLOCK
 62
     0
100
AcDbLine
 10
0.0
 20
0.0
 30
0.0
 11
-1.0
 21
0.0
 31
0.0
  0
ENDBLK
  5
18
100
AcDbEntity
  8
0
100
AcDbBlockEnd
  0
BLOCK
  5
1A
100
AcDbEntity
  8
0
100
AcDbBlockBegin
  2
_ORIGIN
 70
     0
 10
0.0
 20
0.0
 30
0.0
  3
_ORIGIN
  1

  0
CIRCLE
  5
1B
100
AcDbEntity
  8
0
  6
BYBLOCK
 62
     0
100
AcDbCircle
 10
0.0
 20
0.0
 30
0.0
 40
0.5
  0
LINE
  5
1C
100
AcDbEntity
  8
0
  6
BYBLOCK
 62
     0
100
AcDbLine
 10
0.0
 20
0.0
 30
0.0
 11
-1.0
 21
0.0
 31
0.0
  0
ENDBLK
  5
1D
100
AcDbEntity
  8
0
100
AcDbBlockEnd
  0
BLOCK
  5
1F
100
AcDbEntity
  8
0
100
AcDbBlockBegin
  2
_OPEN30
 70
     0
 10
0.0
 20
0.0
 30
0.0
  3
_OPEN30
  1

  0
LINE
  5
20
100
AcDbEntity
  8
0
  6
BYBLOCK
 62
     0
100
AcDbLine
 10
-1.0
 20
0.267949
 30
0.0
 11
0.0
 21
0.0
 31
0.0
  0
LINE
  5
21
100
AcDbEntity
  8
0
  6
BYBLOCK
 62
     0
100
AcDbLine
 10
0.0
 20
0.0
 30
0.0
 11
-1.0
 21
-0.267949
 31
0.0
  0
LINE
  5
22
100
AcDbEntity
  8
0
  6
BYBLOCK
 62
     0
100
AcDbLine
 10
0.0
 20
0.0
 30
0.0
 11
-1.0
 21
0.0
 31
0.0
  0
ENDBLK
  5
23
100
AcDbEntity
  8
0
100
AcDbBlockEnd
  0
BLOCK
  5
25
100
AcDbEntity
  8
0
100
AcDbBlockBegin
  2
_BOXFILLED
 70
     0
 10
0.0
 20
0.0
 30
0.0
  3
_BOXFILLED
  1

  0
SOLID
  5
26
100
AcDbEntity
  8
0
  6
BYBLOCK
 62
     0
100
AcDbTrace
 10
-0.5
 20
0.5
 30
0.0
 11
0.5
 21
0.5
 31
0.0
 12
-0.5
 22
-0.5
 32
0.0
 13
0.5
 23
-0.5
 33
0.0
  0
LINE
  5
27
100
AcDbEntity
  8
0
  6
BYBLOCK
 62
     0
100
AcDbLine
 10
-0.5
 20
0.0
 30
0.0
 11
-1.0
 21
0.0
 31
0.0
  0
ENDBLK
  5
28
100
AcDbEntity
  8
0
100
AcDbBlockEnd
  0
BLOCK
  5
2A
100
AcDbEntity
  8
0
100
AcDbBlockBegin
  2
_BOXBLANK
 70
     0
 10
0.0
 20
0.0
 30
0.0
  3
_BOXBLANK
  1

  0
LINE
  5
2B
100
AcDbEntity
  8
0
  6
BYBLOCK
 62
     0
100
AcDbLine
 10
-0.5
 20
-0.5
 30
0.0
 11
0.5
 21
-0.5
 31
0.0
  0
LINE
  5
2C
100
AcDbEntity
  8
0
  6
BYBLOCK
 62
     0
100
AcDbLine
 10
0.5
 20
-0.5
 30
0.0
 11
0.5
 21
0.5
 31
0.0
  0
LINE
  5
2D
100
AcDbEntity
  8
0
  6
BYBLOCK
 62
     0
100
AcDbLine
 10
0.5
 20
0.5
 30
0.0
 11
-0.5
 21
0.5
 31
0.0
  0
LINE
  5
2E
100
AcDbEntity
  8
0
  6
BYBLOCK
 62
     0
100
AcDbLine
 10
-0.5
 20
0.5
 30
0.0
 11
-0.5
 21
-0.5
 31
0.0
  0
LINE
  5
2F
100
AcDbEntity
  8
0
  6
BYBLOCK
 62
     0
100
AcDbLine
 10
-0.5
 20
0.0
 30
0.0
 11
-1.0
 21
0.0
 31
0.0
  0
ENDBLK
  5
30
100
AcDbEntity
  8
0
100
AcDbBlockEnd
  0
BLOCK
  5
32
100
AcDbEntity
  8
0
100
AcDbBlockBegin
  2
_OBLIQUE
 70
     0
 10
0.0
 20
0.0
 30
0.0
  3
_OBLIQUE
  1

  0
LINE
  5
33
100
AcDbEntity
  8
0
  6
BYBLOCK
 62
     0
100
AcDbLine
 10
-0.5
 20
-0.5
 30
0.0
 11
0.5
 21
0.5
 31
0.0
  0
ENDBLK
  5
34
100
AcDbEntity
  8
0
100
AcDbBlockEnd
  0
BLOCK
  5
36
100
AcDbEntity
  8
0
100
AcDbBlockBegin
  2
_OPEN90
 70
     0
 10
0.0
 20
0.0
 30
0.0
  3
_OPEN90
  1

  0
LINE
  5
37
100
AcDbEntity
  8
0
  6
BYBLOCK
 62
     0
100
AcDbLine
 10
-0.5
 20
0.5
 30
0.0
 11
0.0
 21
0.0
 31
0.0
  0
LINE
  5
38
100
AcDbEntity
  8
0
  6
BYBLOCK
 62
     0
100
AcDbLine
 10
0.0
 20
0.0
 30
0.0
 11
-0.5
 21
-0.5
 31
0.0
  0
LINE
  5
39
100
AcDbEntity
  8
0
  6
BYBLOCK
 62
     0
100
AcDbLine
 10
0.0
 20
0.0
 30
0.0
 11
-1.0
 21
0.0
 31
0.0
  0
ENDBLK
  5
3A
100
AcDbEntity
  8
0
100
AcDbBlockEnd
  0
BLOCK
  5
3C
100
AcDbEntity
  8
0
100
AcDbBlockBegin
  2
_CLOSEDBLANK
 70
     0
 10
0.0
 20
0.0
 30
0.0
  3
_CLOSEDBLANK
  1

  0
LINE
  5
3D
100
AcDbEntity
  8
0
  6
BYBLOCK
 62
     0
100
AcDbLine
 10
-1.0
 20
0.1666666666666666
 30
0.0
 11
0.0
 21
0.0
 31
0.0
  0
LINE
  5
3E
100
AcDbEntity
  8
0
  6
BYBLOCK
 62
     0
100
AcDbLine
 10
0.0
 20
0.0
 30
0.0
 11
-1.0
 21
-0.1666666666666666
 31
0.0
  0
LINE
  5
3F
100
AcDbEntity
  8
0
  6
BYBLOCK
 62
     0
100
AcDbLine
 10
-1.0
 20
0.1666666666666666
 30
0.0
 11
-1.0
 21
-0.1666666666666666
 31
0.0
  0
ENDBLK
  5
40
100
AcDbEntity
  8
0
100
AcDbBlockEnd
  0
BLOCK
  5
42
100
AcDbEntity
  8
0
100
AcDbBlockBegin
  2
_DOTBLANK
 70
     0
 10
0.0
 20
0.0
 30
0.0
  3
_DOTBLANK
  1

  0
CIRCLE
  5
43
100
AcDbEntity
  8
0
  6
BYBLOCK
 62
     0
100
AcDbCircle
 10
0.0
 20
0.0
 30
0.0
 40
0.5
  0
LINE
  5
44
100
AcDbEntity
  8
0
  6
BYBLOCK
 62
     0
100
AcDbLine
 10
-0.5
 20
0.0
 30
0.0
 11
-1.0
 21
0.0
 31
0.0
  0
ENDBLK
  5
45
100
AcDbEntity
  8
0
100
AcDbBlockEnd
  0
BLOCK
  5
14F
100
AcDbEntity
  8
MAIN0
  6
CONTINUOUS
 62
3
100
AcDbBlockBegin
  2
*D0
 70
    65
 10
0.0
 20
0.0
 30
0.0
  0
LINE
  5
150
100
AcDbEntity
  8
MAIN0
  6
BYBLOCK
 62
0
100
AcDbLine
 10
374.4081674440011
 20
656.6204008334814
 30
0.0000000000000000
 11
374.4081674440011
 21
810.7894851460924
 31
0.0000000000000000
  0
LINE
  5
151
100
AcDbEntity
  8
MAIN0
  6
BYBLOCK
 62
0
100
AcDbLine
 10
370.4081674440011
 20
806.7894851460924
 30
0.0000000000000000
 11
278.4081674440011
 21
806.7894851460924
 31
0.0000000000000000
  0
INSERT
  5
152
100
AcDbEntity
  8
MAIN0
  6
BYBLOCK
 62
0
100
AcDbBlockReference
  2
_OPEN
 10
374.4081674440011
 20
806.7894851460924
 30
0.0000000000000000
 41
4.000000000000000
 42
4.000000000000000
 43
4.000000000000000
 50
360.0000000000000
  0
INSERT
  5
153
100
AcDbEntity
  8
MAIN0
  6
BYBLOCK
 62
0
100
AcDbBlockReference
  2
_OPEN
 10
274.4081674440011
 20
806.7894851460924
 30
0.0000000000000000
 41
4.000000000000000
 42
4.000000000000000
 43
4.000000000000000
 50
180.0000000000000
  0
LINE
  5
154
100
AcDbEntity
  8
MAIN0
  6
BYBLOCK
 62
0
100
AcDbLine
 10
274.4081674440011
 20
742.5177191051258
 30
0.0000000000000000
 11
274.4081674440011
 21
810.7894851460924
 31
0.0000000000000000
  0
MTEXT
  5
155
100
AcDbEntity
  8
MAIN0
  6
BYBLOCK
 62
0
100
AcDbMText
 10
324.4081674440011
 20
810.3894850507249
 30
0.0000000000000000
 40
6.199999809265137
 41
0.0000000000000000
 71
     5
 72
     1
  1
\A1;100
 11
1.000000000000000
 21
0.0000000000000000
 31
0.0000000000000000
  7
STANDARD
  0
ENDBLK
  5
156
100
AcDbEntity
  8
MAIN0
  6
CONTINUOUS
 62
3
100
AcDbBlockEnd
  0
BLOCK
  5
158
100
AcDbEntity
  8
MAIN0
  6
CONTINUOUS
 62
3
100
AcDbBlockBegin
  2
D1
 70
    64
 10
0.0
 20
0.0
 30
0.0
  0
LINE
  5
159
100
AcDbEntity
  8
MAIN0
  6
BYBLOCK
 62
0
100
AcDbLine
 10
-18.31654195755847
 20
89.71863578103239
 30
0.0000000000000000
 11
250.0000000000000
 21
89.71863578103239
 31
0.0000000000000000
  0
LINE
  5
15A
100
AcDbEntity
  8
MAIN0
  6
BYBLOCK
 62
0
100
AcDbLine
 10
246.0000000000000
 20
90.91863582871611
 30
0.0000000000000000
 11
250.0000000000000
 21
89.71863578103239
 31
0.0000000000000000
  0
LINE
  5
15B
100
AcDbEntity
  8
MAIN0
  6
BYBLOCK
 62
0
100
AcDbLine
 10
250.0000000000000
 20
89.71863578103239
 30
0.0000000000000000
 11
246.0000000000000
 21
88.51863573334867
 31
0.0000000000000000
  0
LINE
  5
15C
100
AcDbEntity
  8
MAIN0
  6
BYBLOCK
 62
0
100
AcDbLine
 10
250.0000000000000
 20
-0.2973182478025649
 30
0.0000000000000000
 11
250.0000000000000
 21
93.71863578103239
 31
0.0000000000000000
  0
MTEXT
  5
15D
100
AcDbEntity
  8
MAIN0
  6
BYBLOCK
 62
0
100
AcDbMText
 10
-1.466541948617772
 20
93.31863568566496
 30
0.0000000000000000
 40
6.199999809265137
 41
0.0000000000000000
 71
     5
 72
     1
  1
\A1;□500（パレット寸法）
 11
1.000000000000000
 21
0.0000000000000000
 31
0.0000000000000000
  7
KNJYOKO
  0
ENDBLK
  5
15E
100
AcDbEntity
  8
MAIN0
  6
CONTINUOUS
 62
3
100
AcDbBlockEnd
  0
BLOCK
  5
160
100
AcDbEntity
  8
MAIN0
  6
CONTINUOUS
 62
3
100
AcDbBlockBegin
  2
*D2
 70
    65
 10
0.0
 20
0.0
 30
0.0
  0
LINE
  5
161
100
AcDbEntity
  8
MAIN0
  6
BYBLOCK
 62
0
100
AcDbLine
 10
354.4081674440011
 20
441.4204007857977
 30
0.0000000000000000
 11
354.4081674440011
 21
303.4697276685167
 31
0.0000000000000000
  0
LINE
  5
162
100
AcDbEntity
  8
MAIN0
  6
BYBLOCK
 62
0
100
AcDbLine
 10
350.4081674440011
 20
307.4697276685167
 30
0.0000000000000000
 11
278.4081674440011
 21
307.4697276685167
 31
0.0000000000000000
  0
INSERT
  5
163
100
AcDbEntity
  8
MAIN0
  6
BYBLOCK
 62
0
100
AcDbBlockReference
  2
_OPEN
 10
354.4081674440011
 20
307.4697276685167
 30
0.0000000000000000
 41
4.000000000000000
 42
4.000000000000000
 43
4.000000000000000
 50
360.0000000000000
  0
INSERT
  5
164
100
AcDbEntity
  8
MAIN0
  6
BYBLOCK
 62
0
100
AcDbBlockReference
  2
_OPEN
 10
274.4081674440011
 20
307.4697276685167
 30
0.0000000000000000
 41
4.000000000000000
 42
4.000000000000000
 43
4.000000000000000
 50
180.0000000000000
  0
LINE
  5
165
100
AcDbEntity
  8
MAIN0
  6
BYBLOCK
 62
0
100
AcDbLine
 10
274.4081674440011
 20
327.8754440635266
 30
0.0000000000000000
 11
274.4081674440011
 21
303.4697276685167
 31
0.0000000000000000
  0
MTEXT
  5
166
100
AcDbEntity
  8
MAIN0
  6
BYBLOCK
 62
0
100
AcDbMText
 10
314.4081674440011
 20
311.0697275731492
 30
0.0000000000000000
 40
6.199999809265137
 41
0.0000000000000000
 71
     5
 72
     1
  1
\A1;80
 11
1.000000000000000
 21
0.0000000000000000
 31
0.0000000000000000
  7
STANDARD
  0
ENDBLK
  5
167
100
AcDbEntity
  8
MAIN0
  6
CONTINUOUS
 62
3
100
AcDbBlockEnd
  0
BLOCK
  5
169
100
AcDbEntity
  8
MAIN0
  6
CONTINUOUS
 62
3
100
AcDbBlockBegin
  2
D3
 70
    64
 10
0.0
 20
0.0
 30
0.0
  0
LINE
  5
16A
100
AcDbEntity
  8
MAIN0
  6
BYBLOCK
 62
0
100
AcDbLine
 10
-19.03773305927111
 20
-58.93426499220999
 30
0.0000000000000000
 11
200.0000000000000
 21
-58.93426499221005
 31
0.0000000000000000
  0
LINE
  5
16B
100
AcDbEntity
  8
MAIN0
  6
BYBLOCK
 62
0
100
AcDbLine
 10
196.0000000000000
 20
-57.73426494452633
 30
0.0000000000000000
 11
200.0000000000000
 21
-58.93426499221005
 31
0.0000000000000000
  0
LINE
  5
16C
100
AcDbEntity
  8
MAIN0
  6
BYBLOCK
 62
0
100
AcDbLine
 10
200.0000000000000
 20
-58.93426499221005
 30
0.0000000000000000
 11
196.0000000000000
 21
-60.13426503989376
 31
0.0000000000000000
  0
LINE
  5
16D
100
AcDbEntity
  8
MAIN0
  6
BYBLOCK
 62
0
100
AcDbLine
 10
200.0000000000000
 20
57.94495669842931
 30
0.0000000000000000
 11
200.0000000000000
 21
-62.93426499221005
 31
0.0000000000000000
  0
MTEXT
  5
16E
100
AcDbEntity
  8
MAIN0
  6
BYBLOCK
 62
0
100
AcDbMText
 10
-2.187733050330409
 20
-55.33426508757742
 30
0.0000000000000000
 40
6.199999809265137
 41
0.0000000000000000
 71
     5
 72
     1
  1
\A1;□400（パレット寸法）
 11
1.000000000000000
 21
0.0000000000000000
 31
0.0000000000000000
  7
KNJYOKO
  0
ENDBLK
  5
16F
100
AcDbEntity
  8
MAIN0
  6
CONTINUOUS
 62
3
100
AcDbBlockEnd
  0
BLOCK
  5
171
100
AcDbEntity
  8
MAIN0
  6
CONTINUOUS
 62
3
100
AcDbBlockBegin
  2
*D4
 70
    65
 10
0.0
 20
0.0
 30
0.0
  0
LINE
  5
172
100
AcDbEntity
  8
MAIN0
  6
BYBLOCK
 62
0
100
AcDbLine
 10
465.5081674678430
 20
601.2704008096396
 30
0.0000000000000000
 11
548.3509906953572
 21
601.2704008096396
 31
0.0000000000000000
  0
LINE
  5
173
100
AcDbEntity
  8
MAIN0
  6
BYBLOCK
 62
0
100
AcDbLine
 10
544.3509906953572
 20
597.2704008096396
 30
0.0000000000000000
 11
544.3509906953572
 21
480.7704008096396
 31
0.0000000000000000
  0
INSERT
  5
174
100
AcDbEntity
  8
MAIN0
  6
BYBLOCK
 62
0
100
AcDbBlockReference
  2
_OPEN
 10
544.3509906953572
 20
601.2704008096396
 30
0.0000000000000000
 41
4.000000000000000
 42
4.000000000000000
 43
4.000000000000000
 50
90.00000000000000
  0
INSERT
  5
175
100
AcDbEntity
  8
MAIN0
  6
BYBLOCK
 62
0
100
AcDbBlockReference
  2
_OPEN
 10
544.3509906953572
 20
476.7704008096396
 30
0.0000000000000000
 41
4.000000000000000
 42
4.000000000000000
 43
4.000000000000000
 50
270.0000000000000
  0
LINE
  5
176
100
AcDbEntity
  8
MAIN0
  6
BYBLOCK
 62
0
100
AcDbLine
 10
465.5081674678430
 20
476.7704008096396
 30
0.0000000000000000
 11
548.3509906953572
 21
476.7704008096396
 31
0.0000000000000000
  0
MTEXT
  5
177
100
AcDbEntity
  8
MAIN0
  6
BYBLOCK
 62
0
100
AcDbMText
 10
540.2509907907246
 20
562.4525439796764
 30
0.0000000000000000
 40
6.199999809265137
 41
0.0000000000000000
 71
     5
 72
     1
  1
\A1;124.5
 11
6.123233995736766e-017
 21
1.000000000000000
 31
0.0000000000000000
  7
STANDARD
  0
ENDBLK
  5
178
100
AcDbEntity
  8
MAIN0
  6
CONTINUOUS
 62
3
100
AcDbBlockEnd
  0
BLOCK
  5
17A
100
AcDbEntity
  8
MAIN0
  6
CONTINUOUS
 62
3
100
AcDbBlockBegin
  2
*D5
 70
    65
 10
0.0
 20
0.0
 30
0.0
  0
LINE
  5
17B
100
AcDbEntity
  8
MAIN0
  6
BYBLOCK
 62
0
100
AcDbLine
 10
339.0081674678429
 20
389.0204008096396
 30
0.0000000000000000
 11
570.6253406093640
 21
389.0204008096396
 31
0.0000000000000000
  0
LINE
  5
17C
100
AcDbEntity
  8
MAIN0
  6
BYBLOCK
 62
0
100
AcDbLine
 10
566.6253406093640
 20
393.0204008096396
 30
0.0000000000000000
 11
566.6253406093640
 21
685.0204008096396
 31
0.0000000000000000
  0
INSERT
  5
17D
100
AcDbEntity
  8
MAIN0
  6
BYBLOCK
 62
0
100
AcDbBlockReference
  2
_OPEN
 10
566.6253406093640
 20
389.0204008096396
 30
0.0000000000000000
 41
4.000000000000000
 42
4.000000000000000
 43
4.000000000000000
 50
270.0000000000000
  0
INSERT
  5
17E
100
AcDbEntity
  8
MAIN0
  6
BYBLOCK
 62
0
100
AcDbBlockReference
  2
_OPEN
 10
566.6253406093640
 20
689.0204008096396
 30
0.0000000000000000
 41
4.000000000000000
 42
4.000000000000000
 43
4.000000000000000
 50
90.00000000000000
  0
LINE
  5
17F
100
AcDbEntity
  8
MAIN0
  6
BYBLOCK
 62
0
100
AcDbLine
 10
339.0081674678430
 20
689.0204008096396
 30
0.0000000000000000
 11
570.6253406093640
 21
689.0204008096396
 31
0.0000000000000000
  0
MTEXT
  5
180
100
AcDbEntity
  8
MAIN0
  6
BYBLOCK
 62
0
100
AcDbMText
 10
563.0253407047314
 20
539.0204008096396
 30
0.0000000000000000
 40
6.199999809265137
 41
0.0000000000000000
 71
     5
 72
     1
  1
\A1;300
 11
6.123233995736766e-017
 21
1.000000000000000
 31
0.0000000000000000
  7
STANDARD
  0
ENDBLK
  5
181
100
AcDbEntity
  8
MAIN0
  6
CONTINUOUS
 62
3
100
AcDbBlockEnd
  0
BLOCK
  5
183
100
AcDbEntity
  8
MAIN0
  6
CONTINUOUS
 62
3
100
AcDbBlockBegin
  2
*D6
 70
    65
 10
0.0
 20
0.0
 30
0.0
  0
LINE
  5
184
100
AcDbEntity
  8
MAIN0
  6
BYBLOCK
 62
0
100
AcDbLine
 10
338.2581674678430
 20
728.5204008096396
 30
0.0000000000000000
 11
593.1361793196012
 21
728.5204008096396
 31
0.0000000000000000
  0
LINE
  5
185
100
AcDbEntity
  8
MAIN0
  6
BYBLOCK
 62
0
100
AcDbLine
 10
589.1361793196012
 20
724.5204008096396
 30
0.0000000000000000
 11
589.1361793196012
 21
353.5204008096396
 31
0.0000000000000000
  0
INSERT
  5
186
100
AcDbEntity
  8
MAIN0
  6
BYBLOCK
 62
0
100
AcDbBlockReference
  2
_OPEN
 10
589.1361793196012
 20
728.5204008096396
 30
0.0000000000000000
 41
4.000000000000000
 42
4.000000000000000
 43
4.000000000000000
 50
90.00000000000000
  0
INSERT
  5
187
100
AcDbEntity
  8
MAIN0
  6
BYBLOCK
 62
0
100
AcDbBlockReference
  2
_OPEN
 10
589.1361793196012
 20
349.5204008096396
 30
0.0000000000000000
 41
4.000000000000000
 42
4.000000000000000
 43
4.000000000000000
 50
270.0000000000000
  0
LINE
  5
188
100
AcDbEntity
  8
MAIN0
  6
BYBLOCK
 62
0
100
AcDbLine
 10
338.2581674678429
 20
349.5204008096396
 30
0.0000000000000000
 11
593.1361793196012
 21
349.5204008096396
 31
0.0000000000000000
  0
MTEXT
  5
189
100
AcDbEntity
  8
MAIN0
  6
BYBLOCK
 62
0
100
AcDbMText
 10
585.5361794149686
 20
539.0204008096396
 30
0.0000000000000000
 40
6.199999809265137
 41
0.0000000000000000
 71
     5
 72
     1
  1
\A1;379
 11
6.123233995736766e-017
 21
1.000000000000000
 31
0.0000000000000000
  7
STANDARD
  0
ENDBLK
  5
18A
100
AcDbEntity
  8
MAIN0
  6
CONTINUOUS
 62
3
100
AcDbBlockEnd
  0
BLOCK
  5
18C
100
AcDbEntity
  8
MAIN0
  6
CONTINUOUS
 62
3
100
AcDbBlockBegin
  2
*D7
 70
    65
 10
0.0
 20
0.0
 30
0.0
  0
LINE
  5
18D
100
AcDbEntity
  8
MAIN0
  6
BYBLOCK
 62
0
100
AcDbLine
 10
339.0081674678429
 20
389.0204008096396
 30
0.0000000000000000
 11
570.6253406093640
 21
389.0204008096396
 31
0.0000000000000000
  0
LINE
  5
18E
100
AcDbEntity
  8
MAIN0
  6
BYBLOCK
 62
0
100
AcDbLine
 10
566.6253406093640
 20
385.0204008096396
 30
0.0000000000000000
 11
566.6253406093640
 21
353.5204008096396
 31
0.0000000000000000
  0
INSERT
  5
18F
100
AcDbEntity
  8
MAIN0
  6
BYBLOCK
 62
0
100
AcDbBlockReference
  2
_OPEN
 10
566.6253406093640
 20
389.0204008096396
 30
0.0000000000000000
 41
4.000000000000000
 42
4.000000000000000
 43
4.000000000000000
 50
90.00000000000000
  0
INSERT
  5
190
100
AcDbEntity
  8
MAIN0
  6
BYBLOCK
 62
0
100
AcDbBlockReference
  2
_OPEN
 10
566.6253406093640
 20
349.5204008096396
 30
0.0000000000000000
 41
4.000000000000000
 42
4.000000000000000
 43
4.000000000000000
 50
270.0000000000000
  0
LINE
  5
191
100
AcDbEntity
  8
MAIN0
  6
BYBLOCK
 62
0
100
AcDbLine
 10
338.2581674678429
 20
349.5204008096396
 30
0.0000000000000000
 11
570.6253406093640
 21
349.5204008096396
 31
0.0000000000000000
  0
MTEXT
  5
192
100
AcDbEntity
  8
MAIN0
  6
BYBLOCK
 62
0
100
AcDbMText
 10
563.0253407047314
 20
369.2704008096396
 30
0.0000000000000000
 40
6.199999809265137
 41
0.0000000000000000
 71
     5
 72
     1
  1
\A1;39.5
 11
6.123233995736766e-017
 21
1.000000000000000
 31
0.0000000000000000
  7
STANDARD
  0
ENDBLK
  5
193
100
AcDbEntity
  8
MAIN0
  6
CONTINUOUS
 62
3
100
AcDbBlockEnd
  0
BLOCK
  5
195
100
AcDbEntity
  8
MAIN0
  6
CONTINUOUS
 62
3
100
AcDbBlockBegin
  2
*D8
 70
    65
 10
0.0
 20
0.0
 30
0.0
  0
LINE
  5
196
100
AcDbEntity
  8
MAIN0
  6
BYBLOCK
 62
0
100
AcDbLine
 10
339.0081674678430
 20
689.0204008096396
 30
0.0000000000000000
 11
570.6253406093640
 21
689.0204008096396
 31
0.0000000000000000
  0
LINE
  5
197
100
AcDbEntity
  8
MAIN0
  6
BYBLOCK
 62
0
100
AcDbLine
 10
566.6253406093640
 20
693.0204008096396
 30
0.0000000000000000
 11
566.6253406093640
 21
724.5204008096396
 31
0.0000000000000000
  0
INSERT
  5
198
100
AcDbEntity
  8
MAIN0
  6
BYBLOCK
 62
0
100
AcDbBlockReference
  2
_OPEN
 10
566.6253406093640
 20
689.0204008096396
 30
0.0000000000000000
 41
4.000000000000000
 42
4.000000000000000
 43
4.000000000000000
 50
270.0000000000000
  0
INSERT
  5
199
100
AcDbEntity
  8
MAIN0
  6
BYBLOCK
 62
0
100
AcDbBlockReference
  2
_OPEN
 10
566.6253406093640
 20
728.5204008096396
 30
0.0000000000000000
 41
4.000000000000000
 42
4.000000000000000
 43
4.000000000000000
 50
90.00000000000000
  0
LINE
  5
19A
100
AcDbEntity
  8
MAIN0
  6
BYBLOCK
 62
0
100
AcDbLine
 10
338.2581674678430
 20
728.5204008096396
 30
0.0000000000000000
 11
570.6253406093640
 21
728.5204008096396
 31
0.0000000000000000
  0
MTEXT
  5
19B
100
AcDbEntity
  8
MAIN0
  6
BYBLOCK
 62
0
100
AcDbMText
 10
563.0253407047314
 20
708.7704008096396
 30
0.0000000000000000
 40
6.199999809265137
 41
0.0000000000000000
 71
     5
 72
     1
  1
\A1;39.5
 11
6.123233995736766e-017
 21
1.000000000000000
 31
0.0000000000000000
  7
STANDARD
  0
ENDBLK
  5
19C
100
AcDbEntity
  8
MAIN0
  6
CONTINUOUS
 62
3
100
AcDbBlockEnd
  0
BLOCK
  5
1A4
100
AcDbEntity
  8
MAIN0
  6
CONTINUOUS
 62
3
100
AcDbBlockBegin
  2
*D9
 70
    65
 10
0.0
 20
0.0
 30
0.0
  0
LINE
  5
1A5
100
AcDbEntity
  8
MAIN0
  6
BYBLOCK
 62
0
100
AcDbLine
 10
551.3930733139989
 20
320.8667791679135
 30
0.0000000000000000
 11
565.8150730427733
 21
335.2887788966878
 31
0.0000000000000000
  0
LINE
  5
1A6
100
AcDbEntity
  8
MAIN0
  6
BYBLOCK
 62
0
100
AcDbLine
 10
565.8150730427733
 20
329.6319246471953
 30
0.0000000000000000
 11
575.7145679793850
 21
319.7324297105836
 31
0.0000000000000000
  0
INSERT
  5
1A7
100
AcDbEntity
  8
MAIN0
  6
BYBLOCK
 62
0
100
AcDbBlockReference
  2
_OPEN
 10
562.9866459180271
 20
332.4603517719415
 30
0.0000000000000000
 41
4.000000000000000
 42
4.000000000000000
 43
4.000000000000000
 50
135.0000000000000
  0
INSERT
  5
1A8
100
AcDbEntity
  8
MAIN0
  6
BYBLOCK
 62
0
100
AcDbBlockReference
  2
_OPEN
 10
578.5429951041313
 20
316.9040025858374
 30
0.0000000000000000
 41
4.000000000000000
 42
4.000000000000000
 43
4.000000000000000
 50
315.0000000000000
  0
LINE
  5
1A9
100
AcDbEntity
  8
MAIN0
  6
BYBLOCK
 62
0
100
AcDbLine
 10
566.9494225001031
 20
305.3104299818093
 30
0.0000000000000000
 11
581.3714222288775
 21
319.7324297105836
 31
0.0000000000000000
  0
MTEXT
  5
1AA
100
AcDbEntity
  8
MAIN0
  6
BYBLOCK
 62
0
100
AcDbMText
 10
573.3104048559158
 20
327.2277615237260
 30
0.0000000000000000
 40
6.199999809265137
 41
0.0000000000000000
 71
     5
 72
     1
  1
\A1;22
 11
0.7071067811865474
 21
-0.7071067811865477
 31
0.0000000000000000
  7
STANDARD
  0
ENDBLK
  5
1AB
100
AcDbEntity
  8
MAIN0
  6
CONTINUOUS
 62
3
100
AcDbBlockEnd
  0
BLOCK
  5
1AD
100
AcDbEntity
  8
MAIN0
  6
CONTINUOUS
 62
3
100
AcDbBlockBegin
  2
*D10
 70
    65
 10
0.0
 20
0.0
 30
0.0
  0
LINE
  5
1AE
100
AcDbEntity
  8
MAIN0
  6
BYBLOCK
 62
0
100
AcDbLine
 10
564.0114506845619
 20
272.6739733564334
 30
0.0000000000000000
 11
596.2206646337946
 21
304.8831873056663
 31
0.0000000000000000
  0
LINE
  5
1AF
100
AcDbEntity
  8
MAIN0
  6
BYBLOCK
 62
0
100
AcDbLine
 10
590.5638103843023
 20
304.8831873056662
 30
0.0000000000000000
 11
581.3714222288772
 21
314.0755754610913
 31
0.0000000000000000
  0
INSERT
  5
1B0
100
AcDbEntity
  8
MAIN0
  6
BYBLOCK
 62
0
100
AcDbBlockReference
  2
_OPEN
 10
593.3922375090485
 20
302.0547601809200
 30
0.0000000000000000
 41
4.000000000000000
 42
4.000000000000000
 43
4.000000000000000
 50
315.0000000000000
  0
INSERT
  5
1B1
100
AcDbEntity
  8
MAIN0
  6
BYBLOCK
 62
0
100
AcDbBlockReference
  2
_OPEN
 10
578.5429951041310
 20
316.9040025858375
 30
0.0000000000000000
 41
4.000000000000000
 42
4.000000000000000
 43
4.000000000000000
 50
135.0000000000000
  0
LINE
  5
1B2
100
AcDbEntity
  8
MAIN0
  6
BYBLOCK
 62
0
100
AcDbLine
 10
566.9494225001030
 20
305.3104299818093
 30
0.0000000000000000
 11
581.3714222288774
 21
319.7324297105836
 31
0.0000000000000000
  0
MTEXT
  5
1B3
100
AcDbEntity
  8
MAIN0
  6
BYBLOCK
 62
0
100
AcDbMText
 10
588.5132006514265
 20
312.0249657282154
 30
0.0000000000000000
 40
6.199999809265137
 41
0.0000000000000000
 71
     5
 72
     1
  1
\A1;（21）
 11
0.7071067811865480
 21
-0.7071067811865470
 31
0.0000000000000000
  7
KNJYOKO
  0
ENDBLK
  5
1B4
100
AcDbEntity
  8
MAIN0
  6
CONTINUOUS
 62
3
100
AcDbBlockEnd
  0
BLOCK
  5
1B7
100
AcDbEntity
  8
MAIN0
  6
CONTINUOUS
 62
3
100
AcDbBlockBegin
  2
*D11
 70
    65
 10
0.0
 20
0.0
 30
0.0
  0
LINE
  5
1B8
100
AcDbEntity
  8
MAIN0
  6
BYBLOCK
 62
0
100
AcDbLine
 10
1109.438459443604
 20
564.0204008096396
 30
0.0000000000000000
 11
1136.664590959446
 21
564.0204008096396
 31
0.0000000000000000
  0
LINE
  5
1B9
100
AcDbEntity
  8
MAIN0
  6
BYBLOCK
 62
0
100
AcDbLine
 10
1132.664590959446
 20
560.0204008096396
 30
0.0000000000000000
 11
1132.664590959446
 21
518.0204008096396
 31
0.0000000000000000
  0
INSERT
  5
1BA
100
AcDbEntity
  8
MAIN0
  6
BYBLOCK
 62
0
100
AcDbBlockReference
  2
_OPEN
 10
1132.664590959446
 20
564.0204008096396
 30
0.0000000000000000
 41
4.000000000000000
 42
4.000000000000000
 43
4.000000000000000
 50
90.00000000000000
  0
INSERT
  5
1BB
100
AcDbEntity
  8
MAIN0
  6
BYBLOCK
 62
0
100
AcDbBlockReference
  2
_OPEN
 10
1132.664590959446
 20
514.0204008096396
 30
0.0000000000000000
 41
4.000000000000000
 42
4.000000000000000
 43
4.000000000000000
 50
270.0000000000000
  0
LINE
  5
1BC
100
AcDbEntity
  8
MAIN0
  6
BYBLOCK
 62
0
100
AcDbLine
 10
1109.438459443604
 20
514.0204008096396
 30
0.0000000000000000
 11
1136.664590959446
 21
514.0204008096396
 31
0.0000000000000000
  0
MTEXT
  5
1BD
100
AcDbEntity
  8
MAIN0
  6
BYBLOCK
 62
0
100
AcDbMText
 10
1129.064591054813
 20
539.0204008338540
 30
0.0000000000000000
 40
6.199999809265137
 41
0.0000000000000000
 71
     5
 72
     1
  1
\A1;\U+220550h6
 11
6.123233995736766e-017
 21
1.000000000000000
 31
0.0000000000000000
  7
STANDARD
  0
ENDBLK
  5
1BE
100
AcDbEntity
  8
MAIN0
  6
CONTINUOUS
 62
3
100
AcDbBlockEnd
  0
BLOCK
  5
1C0
100
AcDbEntity
  8
MAIN0
  6
CONTINUOUS
 62
3
100
AcDbBlockBegin
  2
*D12
 70
    65
 10
0.0
 20
0.0
 30
0.0
  0
LINE
  5
1C1
100
AcDbEntity
  8
MAIN0
  6
BYBLOCK
 62
0
100
AcDbLine
 10
1089.438459443604
 20
594.0204008096396
 30
0.0000000000000000
 11
1151.553405962188
 21
594.0204008096396
 31
0.0000000000000000
  0
LINE
  5
1C2
100
AcDbEntity
  8
MAIN0
  6
BYBLOCK
 62
0
100
AcDbLine
 10
1147.553405962188
 20
590.0204008096396
 30
0.0000000000000000
 11
1147.553405962188
 21
488.0204008096396
 31
0.0000000000000000
  0
INSERT
  5
1C3
100
AcDbEntity
  8
MAIN0
  6
BYBLOCK
 62
0
100
AcDbBlockReference
  2
_OPEN
 10
1147.553405962188
 20
594.0204008096396
 30
0.0000000000000000
 41
4.000000000000000
 42
4.000000000000000
 43
4.000000000000000
 50
90.00000000000000
  0
INSERT
  5
1C4
100
AcDbEntity
  8
MAIN0
  6
BYBLOCK
 62
0
100
AcDbBlockReference
  2
_OPEN
 10
1147.553405962188
 20
484.0204008096396
 30
0.0000000000000000
 41
4.000000000000000
 42
4.000000000000000
 43
4.000000000000000
 50
270.0000000000000
  0
LINE
  5
1C5
100
AcDbEntity
  8
MAIN0
  6
BYBLOCK
 62
0
100
AcDbLine
 10
1089.438459443604
 20
484.0204008096396
 30
0.0000000000000000
 11
1151.553405962188
 21
484.0204008096396
 31
0.0000000000000000
  0
MTEXT
  5
1C6
100
AcDbEntity
  8
MAIN0
  6
BYBLOCK
 62
0
100
AcDbMText
 10
1143.953406057555
 20
539.0204007388591
 30
0.0000000000000000
 40
6.199999809265137
 41
0.0000000000000000
 71
     5
 72
     1
  1
\A1;\U+2205110H6
 11
6.123233995736766e-017
 21
1.000000000000000
 31
0.0000000000000000
  7
STANDARD
  0
ENDBLK
  5
1C7
100
AcDbEntity
  8
MAIN0
  6
CONTINUOUS
 62
3
100
AcDbBlockEnd
  0
BLOCK
  5
1CB
100
AcDbEntity
  8
MAIN0
  6
CONTINUOUS
 62
3
100
AcDbBlockBegin
  2
*D13
 70
    65
 10
0.0
 20
0.0
 30
0.0
  0
LINE
  5
1CC
100
AcDbEntity
  8
MAIN0
  6
BYBLOCK
 62
0
100
AcDbLine
 10
726.8384594197621
 20
438.6376319959338
 30
0.0000000000000000
 11
793.8384594197619
 21
438.6376319959338
 31
0.0000000000000000
  0
INSERT
  5
1CD
100
AcDbEntity
  8
MAIN0
  6
BYBLOCK
 62
0
100
AcDbBlockReference
  2
_OPEN
 10
722.8384594197621
 20
438.6376319959338
 30
0.0000000000000000
 41
4.000000000000000
 42
4.000000000000000
 43
4.000000000000000
 50
180.0000000000000
  0
INSERT
  5
1CE
100
AcDbEntity
  8
MAIN0
  6
BYBLOCK
 62
0
100
AcDbBlockReference
  2
_OPEN
 10
797.8384594197619
 20
438.6376319959338
 30
0.0000000000000000
 41
4.000000000000000
 42
4.000000000000000
 43
4.000000000000000
 50
0.0000000000000000
  0
LINE
  5
1CF
100
AcDbEntity
  8
MAIN0
  6
BYBLOCK
 62
0
100
AcDbLine
 10
797.8384594197619
 20
423.6204008334814
 30
0.0000000000000000
 11
797.8384594197619
 21
442.6376319959338
 31
0.0000000000000000
  0
MTEXT
  5
1D0
100
AcDbEntity
  8
MAIN0
  6
BYBLOCK
 62
0
100
AcDbMText
 10
760.3384594197620
 20
442.2376319005663
 30
0.0000000000000000
 40
6.199999809265137
 41
0.0000000000000000
 71
     5
 72
     1
  1
\A1;75
 11
1.000000000000000
 21
0.0000000000000000
 31
0.0000000000000000
  7
STANDARD
  0
ENDBLK
  5
1D1
100
AcDbEntity
  8
MAIN0
  6
CONTINUOUS
 62
3
100
AcDbBlockEnd
  0
BLOCK
  5
1D3
100
AcDbEntity
  8
MAIN0
  6
CONTINUOUS
 62
3
100
AcDbBlockBegin
  2
*D14
 70
    65
 10
0.0
 20
0.0
 30
0.0
  0
LINE
  5
1D4
100
AcDbEntity
  8
MAIN0
  6
BYBLOCK
 62
0
100
AcDbLine
 10
797.8384594197619
 20
423.6204008334814
 30
0.0000000000000000
 11
797.8384594197619
 21
442.6376319959338
 31
0.0000000000000000
  0
LINE
  5
1D5
100
AcDbEntity
  8
MAIN0
  6
BYBLOCK
 62
0
100
AcDbLine
 10
801.8384594197619
 20
438.6376319959338
 30
0.0000000000000000
 11
868.8384594197621
 21
438.6376319959338
 31
0.0000000000000000
  0
INSERT
  5
1D6
100
AcDbEntity
  8
MAIN0
  6
BYBLOCK
 62
0
100
AcDbBlockReference
  2
_OPEN
 10
797.8384594197619
 20
438.6376319959338
 30
0.0000000000000000
 41
4.000000000000000
 42
4.000000000000000
 43
4.000000000000000
 50
180.0000000000000
  0
INSERT
  5
1D7
100
AcDbEntity
  8
MAIN0
  6
BYBLOCK
 62
0
100
AcDbBlockReference
  2
_OPEN
 10
872.8384594197621
 20
438.6376319959338
 30
0.0000000000000000
 41
4.000000000000000
 42
4.000000000000000
 43
4.000000000000000
 50
0.0000000000000000
  0
LINE
  5
1D8
100
AcDbEntity
  8
MAIN0
  6
BYBLOCK
 62
0
100
AcDbLine
 10
872.8384594197621
 20
423.6204008334814
 30
0.0000000000000000
 11
872.8384594197621
 21
442.6376319959338
 31
0.0000000000000000
  0
MTEXT
  5
1D9
100
AcDbEntity
  8
MAIN0
  6
BYBLOCK
 62
0
100
AcDbMText
 10
835.3384594197619
 20
442.2376319005663
 30
0.0000000000000000
 40
6.199999809265137
 41
0.0000000000000000
 71
     5
 72
     1
  1
\A1;75
 11
1.000000000000000
 21
0.0000000000000000
 31
0.0000000000000000
  7
STANDARD
  0
ENDBLK
  5
1DA
100
AcDbEntity
  8
MAIN0
  6
CONTINUOUS
 62
3
100
AcDbBlockEnd
  0
BLOCK
  5
1DC
100
AcDbEntity
  8
MAIN0
  6
CONTINUOUS
 62
3
100
AcDbBlockBegin
  2
*D15
 70
    65
 10
0.0
 20
0.0
 30
0.0
  0
LINE
  5
1DD
100
AcDbEntity
  8
MAIN0
  6
BYBLOCK
 62
0
100
AcDbLine
 10
872.8384594197621
 20
423.6204008334814
 30
0.0000000000000000
 11
872.8384594197621
 21
442.6376319959338
 31
0.0000000000000000
  0
LINE
  5
1DE
100
AcDbEntity
  8
MAIN0
  6
BYBLOCK
 62
0
100
AcDbLine
 10
876.8384594197621
 20
438.6376319959338
 30
0.0000000000000000
 11
943.8384594197619
 21
438.6376319959338
 31
0.0000000000000000
  0
INSERT
  5
1DF
100
AcDbEntity
  8
MAIN0
  6
BYBLOCK
 62
0
100
AcDbBlockReference
  2
_OPEN
 10
872.8384594197621
 20
438.6376319959338
 30
0.0000000000000000
 41
4.000000000000000
 42
4.000000000000000
 43
4.000000000000000
 50
180.0000000000000
  0
INSERT
  5
1E0
100
AcDbEntity
  8
MAIN0
  6
BYBLOCK
 62
0
100
AcDbBlockReference
  2
_OPEN
 10
947.8384594197619
 20
438.6376319959338
 30
0.0000000000000000
 41
4.000000000000000
 42
4.000000000000000
 43
4.000000000000000
 50
0.0000000000000000
  0
LINE
  5
1E1
100
AcDbEntity
  8
MAIN0
  6
BYBLOCK
 62
0
100
AcDbLine
 10
947.8384594197619
 20
423.6204008334814
 30
0.0000000000000000
 11
947.8384594197619
 21
442.6376319959338
 31
0.0000000000000000
  0
MTEXT
  5
1E2
100
AcDbEntity
  8
MAIN0
  6
BYBLOCK
 62
0
100
AcDbMText
 10
910.3384594197619
 20
442.2376319005663
 30
0.0000000000000000
 40
6.199999809265137
 41
0.0000000000000000
 71
     5
 72
     1
  1
\A1;75
 11
1.000000000000000
 21
0.0000000000000000
 31
0.0000000000000000
  7
STANDARD
  0
ENDBLK
  5
1E3
100
AcDbEntity
  8
MAIN0
  6
CONTINUOUS
 62
3
100
AcDbBlockEnd
  0
BLOCK
  5
1E5
100
AcDbEntity
  8
MAIN0
  6
CONTINUOUS
 62
3
100
AcDbBlockBegin
  2
*D16
 70
    65
 10
0.0
 20
0.0
 30
0.0
  0
LINE
  5
1E6
100
AcDbEntity
  8
MAIN0
  6
BYBLOCK
 62
0
100
AcDbLine
 10
788.2384593959200
 20
414.0204008096396
 30
0.0000000000000000
 11
760.3657543115453
 21
414.0204008096396
 31
0.0000000000000000
  0
LINE
  5
1E7
100
AcDbEntity
  8
MAIN0
  6
BYBLOCK
 62
0
100
AcDbLine
 10
764.3657543115453
 20
410.0204008096396
 30
0.0000000000000000
 11
764.3657543115453
 21
393.0204008096396
 31
0.0000000000000000
  0
INSERT
  5
1E8
100
AcDbEntity
  8
MAIN0
  6
BYBLOCK
 62
0
100
AcDbBlockReference
  2
_OPEN
 10
764.3657543115453
 20
414.0204008096396
 30
0.0000000000000000
 41
4.000000000000000
 42
4.000000000000000
 43
4.000000000000000
 50
90.00000000000000
  0
INSERT
  5
1E9
100
AcDbEntity
  8
MAIN0
  6
BYBLOCK
 62
0
100
AcDbBlockReference
  2
_OPEN
 10
764.3657543115453
 20
389.0204008096396
 30
0.0000000000000000
 41
4.000000000000000
 42
4.000000000000000
 43
4.000000000000000
 50
270.0000000000000
  0
MTEXT
  5
1EA
100
AcDbEntity
  8
MAIN0
  6
BYBLOCK
 62
0
100
AcDbMText
 10
760.7657544069127
 20
401.5204008096396
 30
0.0000000000000000
 40
6.199999809265137
 41
0.0000000000000000
 71
     5
 72
     1
  1
\A1;25
 11
6.123233995736766e-017
 21
1.000000000000000
 31
0.0000000000000000
  7
STANDARD
  0
ENDBLK
  5
1EB
100
AcDbEntity
  8
MAIN0
  6
CONTINUOUS
 62
3
100
AcDbBlockEnd
  0
BLOCK
  5
1ED
100
AcDbEntity
  8
MAIN0
  6
CONTINUOUS
 62
3
100
AcDbBlockBegin
  2
*D17
 70
    65
 10
0.0
 20
0.0
 30
0.0
  0
LINE
  5
1EE
100
AcDbEntity
  8
MAIN0
  6
BYBLOCK
 62
0
100
AcDbLine
 10
1001.838459419762
 20
349.9204007857977
 30
0.0000000000000000
 11
1001.838459419762
 21
316.1497292632821
 31
0.0000000000000000
  0
LINE
  5
1EF
100
AcDbEntity
  8
MAIN0
  6
BYBLOCK
 62
0
100
AcDbLine
 10
997.8384594197621
 20
320.1497292632821
 30
0.0000000000000000
 11
966.8384594197621
 21
320.1497292632821
 31
0.0000000000000000
  0
INSERT
  5
1F0
100
AcDbEntity
  8
MAIN0
  6
BYBLOCK
 62
0
100
AcDbBlockReference
  2
_OPEN
 10
1001.838459419762
 20
320.1497292632821
 30
0.0000000000000000
 41
4.000000000000000
 42
4.000000000000000
 43
4.000000000000000
 50
360.0000000000000
  0
INSERT
  5
1F1
100
AcDbEntity
  8
MAIN0
  6
BYBLOCK
 62
0
100
AcDbBlockReference
  2
_OPEN
 10
962.8384594197621
 20
320.1497292632821
 30
0.0000000000000000
 41
4.000000000000000
 42
4.000000000000000
 43
4.000000000000000
 50
180.0000000000000
  0
LINE
  5
1F2
100
AcDbEntity
  8
MAIN0
  6
BYBLOCK
 62
0
100
AcDbLine
 10
962.8384594197621
 20
347.9204007857977
 30
0.0000000000000000
 11
962.8384594197621
 21
316.1497292632821
 31
0.0000000000000000
  0
MTEXT
  5
1F3
100
AcDbEntity
  8
MAIN0
  6
BYBLOCK
 62
0
100
AcDbMText
 10
982.3384594197621
 20
323.7497291679147
 30
0.0000000000000000
 40
6.199999809265137
 41
0.0000000000000000
 71
     5
 72
     1
  1
\A1;39
 11
1.000000000000000
 21
0.0000000000000000
 31
0.0000000000000000
  7
STANDARD
  0
ENDBLK
  5
1F4
100
AcDbEntity
  8
MAIN0
  6
CONTINUOUS
 62
3
100
AcDbBlockEnd
  0
BLOCK
  5
1F6
100
AcDbEntity
  8
MAIN0
  6
CONTINUOUS
 62
3
100
AcDbBlockBegin
  2
*D18
 70
    65
 10
0.0
 20
0.0
 30
0.0
  0
LINE
  5
1F7
100
AcDbEntity
  8
MAIN0
  6
BYBLOCK
 62
0
100
AcDbLine
 10
1087.838459419762
 20
387.4204007857977
 30
0.0000000000000000
 11
1087.838459419762
 21
295.2401065539024
 31
0.0000000000000000
  0
LINE
  5
1F8
100
AcDbEntity
  8
MAIN0
  6
BYBLOCK
 62
0
100
AcDbLine
 10
1083.838459419762
 20
299.2401065539024
 30
0.0000000000000000
 11
1044.838459419762
 21
299.2401065539024
 31
0.0000000000000000
  0
INSERT
  5
1F9
100
AcDbEntity
  8
MAIN0
  6
BYBLOCK
 62
0
100
AcDbBlockReference
  2
_OPEN
 10
1087.838459419762
 20
299.2401065539024
 30
0.0000000000000000
 41
4.000000000000000
 42
4.000000000000000
 43
4.000000000000000
 50
360.0000000000000
  0
INSERT
  5
1FA
100
AcDbEntity
  8
MAIN0
  6
BYBLOCK
 62
0
100
AcDbBlockReference
  2
_OPEN
 10
1040.838459419762
 20
299.2401065539024
 30
0.0000000000000000
 41
4.000000000000000
 42
4.000000000000000
 43
4.000000000000000
 50
180.0000000000000
  0
LINE
  5
1FB
100
AcDbEntity
  8
MAIN0
  6
BYBLOCK
 62
0
100
AcDbLine
 10
1040.838459419762
 20
347.9204007857977
 30
0.0000000000000000
 11
1040.838459419762
 21
295.2401065539024
 31
0.0000000000000000
  0
MTEXT
  5
1FC
100
AcDbEntity
  8
MAIN0
  6
BYBLOCK
 62
0
100
AcDbMText
 10
1064.338459419762
 20
302.8401064585349
 30
0.0000000000000000
 40
6.199999809265137
 41
0.0000000000000000
 71
     5
 72
     1
  1
\A1;47
 11
1.000000000000000
 21
0.0000000000000000
 31
0.0000000000000000
  7
STANDARD
  0
ENDBLK
  5
1FD
100
AcDbEntity
  8
MAIN0
  6
CONTINUOUS
 62
3
100
AcDbBlockEnd
  0
BLOCK
  5
1FF
100
AcDbEntity
  8
MAIN0
  6
CONTINUOUS
 62
3
100
AcDbBlockBegin
  2
*D19
 70
    65
 10
0.0
 20
0.0
 30
0.0
  0
LINE
  5
200
100
AcDbEntity
  8
MAIN0
  6
BYBLOCK
 62
0
100
AcDbLine
 10
1040.838459419762
 20
347.9204007857977
 30
0.0000000000000000
 11
1040.838459419762
 21
295.2401065539024
 31
0.0000000000000000
  0
LINE
  5
201
100
AcDbEntity
  8
MAIN0
  6
BYBLOCK
 62
0
100
AcDbLine
 10
1036.838459419762
 20
299.2401065539024
 30
0.0000000000000000
 11
966.8384594197621
 21
299.2401065539024
 31
0.0000000000000000
  0
INSERT
  5
202
100
AcDbEntity
  8
MAIN0
  6
BYBLOCK
 62
0
100
AcDbBlockReference
  2
_OPEN
 10
1040.838459419762
 20
299.2401065539024
 30
0.0000000000000000
 41
4.000000000000000
 42
4.000000000000000
 43
4.000000000000000
 50
360.0000000000000
  0
INSERT
  5
203
100
AcDbEntity
  8
MAIN0
  6
BYBLOCK
 62
0
100
AcDbBlockReference
  2
_OPEN
 10
962.8384594197621
 20
299.2401065539024
 30
0.0000000000000000
 41
4.000000000000000
 42
4.000000000000000
 43
4.000000000000000
 50
180.0000000000000
  0
LINE
  5
204
100
AcDbEntity
  8
MAIN0
  6
BYBLOCK
 62
0
100
AcDbLine
 10
962.8384594197621
 20
347.9204007857977
 30
0.0000000000000000
 11
962.8384594197621
 21
295.2401065539024
 31
0.0000000000000000
  0
MTEXT
  5
205
100
AcDbEntity
  8
MAIN0
  6
BYBLOCK
 62
0
100
AcDbMText
 10
1001.838459419762
 20
302.8401064585349
 30
0.0000000000000000
 40
6.199999809265137
 41
0.0000000000000000
 71
     5
 72
     1
  1
\A1;78
 11
1.000000000000000
 21
0.0000000000000000
 31
0.0000000000000000
  7
STANDARD
  0
ENDBLK
  5
206
100
AcDbEntity
  8
MAIN0
  6
CONTINUOUS
 62
3
100
AcDbBlockEnd
  0
BLOCK
  5
208
100
AcDbEntity
  8
MAIN0
  6
CONTINUOUS
 62
3
100
AcDbBlockBegin
  2
*D20
 70
    65
 10
0.0
 20
0.0
 30
0.0
  0
LINE
  5
209
100
AcDbEntity
  8
MAIN0
  6
BYBLOCK
 62
0
100
AcDbLine
 10
1087.838459419762
 20
387.4204007857977
 30
0.0000000000000000
 11
1087.838459419762
 21
274.3304736663143
 31
0.0000000000000000
  0
LINE
  5
20A
100
AcDbEntity
  8
MAIN0
  6
BYBLOCK
 62
0
100
AcDbLine
 10
1083.838459419762
 20
278.3304736663143
 30
0.0000000000000000
 11
966.8384594197621
 21
278.3304736663143
 31
0.0000000000000000
  0
INSERT
  5
20B
100
AcDbEntity
  8
MAIN0
  6
BYBLOCK
 62
0
100
AcDbBlockReference
  2
_OPEN
 10
1087.838459419762
 20
278.3304736663143
 30
0.0000000000000000
 41
4.000000000000000
 42
4.000000000000000
 43
4.000000000000000
 50
360.0000000000000
  0
INSERT
  5
20C
100
AcDbEntity
  8
MAIN0
  6
BYBLOCK
 62
0
100
AcDbBlockReference
  2
_OPEN
 10
962.8384594197621
 20
278.3304736663143
 30
0.0000000000000000
 41
4.000000000000000
 42
4.000000000000000
 43
4.000000000000000
 50
180.0000000000000
  0
LINE
  5
20D
100
AcDbEntity
  8
MAIN0
  6
BYBLOCK
 62
0
100
AcDbLine
 10
962.8384594197621
 20
347.9204007857977
 30
0.0000000000000000
 11
962.8384594197621
 21
274.3304736663143
 31
0.0000000000000000
  0
MTEXT
  5
20E
100
AcDbEntity
  8
MAIN0
  6
BYBLOCK
 62
0
100
AcDbMText
 10
1025.338459419762
 20
281.9304735709469
 30
0.0000000000000000
 40
6.199999809265137
 41
0.0000000000000000
 71
     5
 72
     1
  1
\A1;125
 11
1.000000000000000
 21
0.0000000000000000
 31
0.0000000000000000
  7
STANDARD
  0
ENDBLK
  5
20F
100
AcDbEntity
  8
MAIN0
  6
CONTINUOUS
 62
3
100
AcDbBlockEnd
  0
BLOCK
  5
211
100
AcDbEntity
  8
MAIN0
  6
CONTINUOUS
 62
3
100
AcDbBlockBegin
  2
*D21
 70
    65
 10
0.0
 20
0.0
 30
0.0
  0
LINE
  5
212
100
AcDbEntity
  8
MAIN0
  6
BYBLOCK
 62
0
100
AcDbLine
 10
962.8384594197621
 20
347.9204007857977
 30
0.0000000000000000
 11
962.8384594197621
 21
274.3304736663143
 31
0.0000000000000000
  0
LINE
  5
213
100
AcDbEntity
  8
MAIN0
  6
BYBLOCK
 62
0
100
AcDbLine
 10
958.8384594197621
 20
278.3304736663143
 30
0.0000000000000000
 11
861.8384594197621
 21
278.3304736663143
 31
0.0000000000000000
  0
INSERT
  5
214
100
AcDbEntity
  8
MAIN0
  6
BYBLOCK
 62
0
100
AcDbBlockReference
  2
_OPEN
 10
962.8384594197621
 20
278.3304736663143
 30
0.0000000000000000
 41
4.000000000000000
 42
4.000000000000000
 43
4.000000000000000
 50
360.0000000000000
  0
INSERT
  5
215
100
AcDbEntity
  8
MAIN0
  6
BYBLOCK
 62
0
100
AcDbBlockReference
  2
_OPEN
 10
857.8384594197621
 20
278.3304736663143
 30
0.0000000000000000
 41
4.000000000000000
 42
4.000000000000000
 43
4.000000000000000
 50
180.0000000000000
  0
LINE
  5
216
100
AcDbEntity
  8
MAIN0
  6
BYBLOCK
 62
0
100
AcDbLine
 10
857.8384594197621
 20
347.9204007857977
 30
0.0000000000000000
 11
857.8384594197621
 21
274.3304736663143
 31
0.0000000000000000
  0
MTEXT
  5
217
100
AcDbEntity
  8
MAIN0
  6
BYBLOCK
 62
0
100
AcDbMText
 10
910.3384594197621
 20
281.9304735709469
 30
0.0000000000000000
 40
6.199999809265137
 41
0.0000000000000000
 71
     5
 72
     1
  1
\A1;MAX168
 11
1.000000000000000
 21
0.0000000000000000
 31
0.0000000000000000
  7
STANDARD
  0
ENDBLK
  5
218
100
AcDbEntity
  8
MAIN0
  6
CONTINUOUS
 62
3
100
AcDbBlockEnd
  0
BLOCK
  5
21A
100
AcDbEntity
  8
MAIN0
  6
CONTINUOUS
 62
3
100
AcDbBlockBegin
  2
*D22
 70
    65
 10
0.0
 20
0.0
 30
0.0
  0
LINE
  5
21B
100
AcDbEntity
  8
MAIN0
  6
BYBLOCK
 62
0
100
AcDbLine
 10
1087.838459419762
 20
387.4204007857977
 30
0.0000000000000000
 11
1087.838459419762
 21
256.1015569412685
 31
0.0000000000000000
  0
LINE
  5
21C
100
AcDbEntity
  8
MAIN0
  6
BYBLOCK
 62
0
100
AcDbLine
 10
1083.838459419762
 20
260.1015569412685
 30
0.0000000000000000
 11
726.8384594197621
 21
260.1015569412685
 31
0.0000000000000000
  0
INSERT
  5
21D
100
AcDbEntity
  8
MAIN0
  6
BYBLOCK
 62
0
100
AcDbBlockReference
  2
_OPEN
 10
1087.838459419762
 20
260.1015569412685
 30
0.0000000000000000
 41
4.000000000000000
 42
4.000000000000000
 43
4.000000000000000
 50
360.0000000000000
  0
INSERT
  5
21E
100
AcDbEntity
  8
MAIN0
  6
BYBLOCK
 62
0
100
AcDbBlockReference
  2
_OPEN
 10
722.8384594197621
 20
260.1015569412685
 30
0.0000000000000000
 41
4.000000000000000
 42
4.000000000000000
 43
4.000000000000000
 50
180.0000000000000
  0
LINE
  5
21F
100
AcDbEntity
  8
MAIN0
  6
BYBLOCK
 62
0
100
AcDbLine
 10
722.8384594197621
 20
387.4204007857977
 30
0.0000000000000000
 11
722.8384594197621
 21
256.1015569412685
 31
0.0000000000000000
  0
MTEXT
  5
220
100
AcDbEntity
  8
MAIN0
  6
BYBLOCK
 62
0
100
AcDbMText
 10
905.3384594197621
 20
263.7015568459011
 30
0.0000000000000000
 40
6.199999809265137
 41
0.0000000000000000
 71
     5
 72
     1
  1
\A1;365
 11
1.000000000000000
 21
0.0000000000000000
 31
0.0000000000000000
  7
STANDARD
  0
ENDBLK
  5
221
100
AcDbEntity
  8
MAIN0
  6
CONTINUOUS
 62
3
100
AcDbBlockEnd
  0
BLOCK
  5
223
100
AcDbEntity
  8
MAIN0
  6
CONTINUOUS
 62
3
100
AcDbBlockBegin
  2
*D23
 70
    65
 10
0.0
 20
0.0
 30
0.0
  0
LINE
  5
224
100
AcDbEntity
  8
MAIN0
  6
BYBLOCK
 62
0
100
AcDbLine
 10
722.8384594197621
 20
387.4204007857977
 30
0.0000000000000000
 11
722.8384594197621
 21
256.1015569412685
 31
0.0000000000000000
  0
LINE
  5
225
100
AcDbEntity
  8
MAIN0
  6
BYBLOCK
 62
0
100
AcDbLine
 10
718.8384594197621
 20
260.1015569412685
 30
0.0000000000000000
 11
640.3384594197621
 21
260.1015569412685
 31
0.0000000000000000
  0
INSERT
  5
226
100
AcDbEntity
  8
MAIN0
  6
BYBLOCK
 62
0
100
AcDbBlockReference
  2
_OPEN
 10
722.8384594197621
 20
260.1015569412685
 30
0.0000000000000000
 41
4.000000000000000
 42
4.000000000000000
 43
4.000000000000000
 50
360.0000000000000
  0
INSERT
  5
227
100
AcDbEntity
  8
MAIN0
  6
BYBLOCK
 62
0
100
AcDbBlockReference
  2
_OPEN
 10
636.3384594197621
 20
260.1015569412685
 30
0.0000000000000000
 41
4.000000000000000
 42
4.000000000000000
 43
4.000000000000000
 50
180.0000000000000
  0
LINE
  5
228
100
AcDbEntity
  8
MAIN0
  6
BYBLOCK
 62
0
100
AcDbLine
 10
636.3384594197621
 20
401.4204007857965
 30
0.0000000000000000
 11
636.3384594197621
 21
256.1015569412685
 31
0.0000000000000000
  0
MTEXT
  5
229
100
AcDbEntity
  8
MAIN0
  6
BYBLOCK
 62
0
100
AcDbMText
 10
679.5884594197621
 20
263.7015568459011
 30
0.0000000000000000
 40
6.199999809265137
 41
0.0000000000000000
 71
     5
 72
     1
  1
\A1;86.5
 11
1.000000000000000
 21
0.0000000000000000
 31
0.0000000000000000
  7
STANDARD
  0
ENDBLK
  5
22A
100
AcDbEntity
  8
MAIN0
  6
CONTINUOUS
 62
3
100
AcDbBlockEnd
  0
BLOCK
  5
22C
100
AcDbEntity
  8
MAIN0
  6
CONTINUOUS
 62
3
100
AcDbBlockBegin
  2
*D24
 70
    65
 10
0.0
 20
0.0
 30
0.0
  0
LINE
  5
22D
100
AcDbEntity
  8
MAIN0
  6
BYBLOCK
 62
0
100
AcDbLine
 10
1107.838459419762
 20
512.4204007857977
 30
0.0000000000000000
 11
1107.838459419762
 21
234.6557869280970
 31
0.0000000000000000
  0
LINE
  5
22E
100
AcDbEntity
  8
MAIN0
  6
BYBLOCK
 62
0
100
AcDbLine
 10
1103.838459419762
 20
238.6557869280970
 30
0.0000000000000000
 11
1091.838459419762
 21
238.6557869280970
 31
0.0000000000000000
  0
INSERT
  5
22F
100
AcDbEntity
  8
MAIN0
  6
BYBLOCK
 62
0
100
AcDbBlockReference
  2
_OPEN
 10
1107.838459419762
 20
238.6557869280970
 30
0.0000000000000000
 41
4.000000000000000
 42
4.000000000000000
 43
4.000000000000000
 50
360.0000000000000
  0
INSERT
  5
230
100
AcDbEntity
  8
MAIN0
  6
BYBLOCK
 62
0
100
AcDbBlockReference
  2
_OPEN
 10
1087.838459419762
 20
238.6557869280970
 30
0.0000000000000000
 41
4.000000000000000
 42
4.000000000000000
 43
4.000000000000000
 50
180.0000000000000
  0
LINE
  5
231
100
AcDbEntity
  8
MAIN0
  6
BYBLOCK
 62
0
100
AcDbLine
 10
1087.838459419762
 20
387.4204007857977
 30
0.0000000000000000
 11
1087.838459419762
 21
234.6557869280970
 31
0.0000000000000000
  0
MTEXT
  5
232
100
AcDbEntity
  8
MAIN0
  6
BYBLOCK
 62
0
100
AcDbMText
 10
1097.838459419762
 20
242.2557868327296
 30
0.0000000000000000
 40
6.199999809265137
 41
0.0000000000000000
 71
     5
 72
     1
  1
\A1;20
 11
1.000000000000000
 21
0.0000000000000000
 31
0.0000000000000000
  7
STANDARD
  0
ENDBLK
  5
233
100
AcDbEntity
  8
MAIN0
  6
CONTINUOUS
 62
3
100
AcDbBlockEnd
  0
BLOCK
  5
235
100
AcDbEntity
  8
MAIN0
  6
CONTINUOUS
 62
3
100
AcDbBlockBegin
  2
*D25
 70
    65
 10
0.0
 20
0.0
 30
0.0
  0
LINE
  5
236
100
AcDbEntity
  8
MAIN0
  6
BYBLOCK
 62
0
100
AcDbLine
 10
1087.838459419762
 20
387.4204007857977
 30
0.0000000000000000
 11
1087.838459419762
 21
234.6557869280970
 31
0.0000000000000000
  0
LINE
  5
237
100
AcDbEntity
  8
MAIN0
  6
BYBLOCK
 62
0
100
AcDbLine
 10
1083.838459419762
 20
238.6557869280970
 30
0.0000000000000000
 11
640.3384594197621
 21
238.6557869280970
 31
0.0000000000000000
  0
INSERT
  5
238
100
AcDbEntity
  8
MAIN0
  6
BYBLOCK
 62
0
100
AcDbBlockReference
  2
_OPEN
 10
1087.838459419762
 20
238.6557869280970
 30
0.0000000000000000
 41
4.000000000000000
 42
4.000000000000000
 43
4.000000000000000
 50
360.0000000000000
  0
INSERT
  5
239
100
AcDbEntity
  8
MAIN0
  6
BYBLOCK
 62
0
100
AcDbBlockReference
  2
_OPEN
 10
636.3384594197621
 20
238.6557869280970
 30
0.0000000000000000
 41
4.000000000000000
 42
4.000000000000000
 43
4.000000000000000
 50
180.0000000000000
  0
LINE
  5
23A
100
AcDbEntity
  8
MAIN0
  6
BYBLOCK
 62
0
100
AcDbLine
 10
636.3384594197621
 20
401.4204007857965
 30
0.0000000000000000
 11
636.3384594197621
 21
234.6557869280970
 31
0.0000000000000000
  0
MTEXT
  5
23B
100
AcDbEntity
  8
MAIN0
  6
BYBLOCK
 62
0
100
AcDbMText
 10
862.0884594197621
 20
242.2557868327296
 30
0.0000000000000000
 40
6.199999809265137
 41
0.0000000000000000
 71
     5
 72
     1
  1
\A1;451.5
 11
1.000000000000000
 21
0.0000000000000000
 31
0.0000000000000000
  7
STANDARD
  0
ENDBLK
  5
23C
100
AcDbEntity
  8
MAIN0
  6
CONTINUOUS
 62
3
100
AcDbBlockEnd
  0
BLOCK
  5
240
100
AcDbEntity
  8
MAIN0
  6
CONTINUOUS
 62
3
100
AcDbBlockBegin
  2
*D26
 70
    65
 10
0.0
 20
0.0
 30
0.0
  0
LINE
  5
241
100
AcDbEntity
  8
MAIN0
  6
BYBLOCK
 62
0
100
AcDbLine
 10
1011.438459443604
 20
379.5204008096396
 30
0.0000000000000000
 11
1038.723434485466
 21
379.5204008096396
 31
0.0000000000000000
  0
LINE
  5
242
100
AcDbEntity
  8
MAIN0
  6
BYBLOCK
 62
0
100
AcDbLine
 10
1034.723434485466
 20
375.5204008096396
 30
0.0000000000000000
 11
1034.723434485466
 21
363.5204008096396
 31
0.0000000000000000
  0
INSERT
  5
243
100
AcDbEntity
  8
MAIN0
  6
BYBLOCK
 62
0
100
AcDbBlockReference
  2
_OPEN
 10
1034.723434485466
 20
379.5204008096396
 30
0.0000000000000000
 41
4.000000000000000
 42
4.000000000000000
 43
4.000000000000000
 50
90.00000000000000
  0
INSERT
  5
244
100
AcDbEntity
  8
MAIN0
  6
BYBLOCK
 62
0
100
AcDbBlockReference
  2
_OPEN
 10
1034.723434485466
 20
359.5204008096396
 30
0.0000000000000000
 41
4.000000000000000
 42
4.000000000000000
 43
4.000000000000000
 50
270.0000000000000
  0
LINE
  5
245
100
AcDbEntity
  8
MAIN0
  6
BYBLOCK
 62
0
100
AcDbLine
 10
1011.438459443604
 20
359.5204008096396
 30
0.0000000000000000
 11
1038.723434485466
 21
359.5204008096396
 31
0.0000000000000000
  0
MTEXT
  5
246
100
AcDbEntity
  8
MAIN0
  6
BYBLOCK
 62
0
100
AcDbMText
 10
1031.123434580834
 20
369.5204008096396
 30
0.0000000000000000
 40
6.199999809265137
 41
0.0000000000000000
 71
     5
 72
     1
  1
\A1;20
 11
6.123233995736766e-017
 21
1.000000000000000
 31
0.0000000000000000
  7
STANDARD
  0
ENDBLK
  5
247
100
AcDbEntity
  8
MAIN0
  6
CONTINUOUS
 62
3
100
AcDbBlockEnd
  0
BLOCK
  5
249
100
AcDbEntity
  8
MAIN0
  6
CONTINUOUS
 62
3
100
AcDbBlockBegin
  2
*D27
 70
    65
 10
0.0
 20
0.0
 30
0.0
  0
LINE
  5
24A
100
AcDbEntity
  8
MAIN0
  6
BYBLOCK
 62
0
100
AcDbLine
 10
1011.438459443604
 20
359.5204008096396
 30
0.0000000000000000
 11
1038.723434485466
 21
359.5204008096396
 31
0.0000000000000000
  0
LINE
  5
24B
100
AcDbEntity
  8
MAIN0
  6
BYBLOCK
 62
0
100
AcDbLine
 10
1034.723434485466
 20
359.5204008096396
 30
0.0000000000000000
 11
1034.723434485466
 21
349.5204008096396
 31
0.0000000000000000
  0
INSERT
  5
24C
100
AcDbEntity
  8
MAIN0
  6
BYBLOCK
 62
0
100
AcDbBlockReference
  2
_OPEN
 10
1034.723434485466
 20
359.5204008096396
 30
0.0000000000000000
 41
4.000000000000000
 42
4.000000000000000
 43
4.000000000000000
 50
270.0000000000000
  0
INSERT
  5
24D
100
AcDbEntity
  8
MAIN0
  6
BYBLOCK
 62
0
100
AcDbBlockReference
  2
_OPEN
 10
1034.723434485466
 20
349.5204008096396
 30
0.0000000000000000
 41
4.000000000000000
 42
4.000000000000000
 43
4.000000000000000
 50
90.00000000000000
  0
LINE
  5
24E
100
AcDbEntity
  8
MAIN0
  6
BYBLOCK
 62
0
100
AcDbLine
 10
1034.723434485466
 20
363.5204008096396
 30
0.0000000000000000
 11
1034.723434485466
 21
365.5204008096396
 31
0.0000000000000000
  0
LINE
  5
24F
100
AcDbEntity
  8
MAIN0
  6
BYBLOCK
 62
0
100
AcDbLine
 10
1034.723434485466
 20
345.5204008096396
 30
0.0000000000000000
 11
1034.723434485466
 21
335.3086873990907
 31
0.0000000000000000
  0
MTEXT
  5
250
100
AcDbEntity
  8
MAIN0
  6
BYBLOCK
 62
0
100
AcDbMText
 10
1030.623434580834
 20
339.4086873037232
 30
0.0000000000000000
 40
6.199999809265137
 41
0.0000000000000000
 71
     5
 72
     1
  1
\A1;10
 11
6.123233995736766e-017
 21
1.000000000000000
 31
0.0000000000000000
  7
STANDARD
  0
ENDBLK
  5
251
100
AcDbEntity
  8
MAIN0
  6
CONTINUOUS
 62
3
100
AcDbBlockEnd
  0
BLOCK
  5
29E
100
AcDbEntity
  8
MAIN0
  6
CONTINUOUS
 62
3
100
AcDbBlockBegin
  2
*D28
 70
    65
 10
0.0
 20
0.0
 30
0.0
  0
LINE
  5
29F
100
AcDbEntity
  8
MAIN0
  6
BYBLOCK
 62
0
100
AcDbLine
 10
1038.602060484488
 20
514.0204008096396
 30
0.0000000000000000
 11
1066.395382800906
 21
514.0204008096396
 31
0.0000000000000000
  0
LINE
  5
2A0
100
AcDbEntity
  8
MAIN0
  6
BYBLOCK
 62
0
100
AcDbLine
 10
1062.395382800906
 20
518.0204008096396
 30
0.0000000000000000
 11
1062.395382800906
 21
560.0204008096396
 31
0.0000000000000000
  0
INSERT
  5
2A1
100
AcDbEntity
  8
MAIN0
  6
BYBLOCK
 62
0
100
AcDbBlockReference
  2
_OPEN
 10
1062.395382800906
 20
514.0204008096396
 30
0.0000000000000000
 41
4.000000000000000
 42
4.000000000000000
 43
4.000000000000000
 50
270.0000000000000
  0
INSERT
  5
2A2
100
AcDbEntity
  8
MAIN0
  6
BYBLOCK
 62
0
100
AcDbBlockReference
  2
_OPEN
 10
1062.395382800906
 20
564.0204008096396
 30
0.0000000000000000
 41
4.000000000000000
 42
4.000000000000000
 43
4.000000000000000
 50
90.00000000000000
  0
LINE
  5
2A3
100
AcDbEntity
  8
MAIN0
  6
BYBLOCK
 62
0
100
AcDbLine
 10
1038.602060484488
 20
564.0204008096396
 30
0.0000000000000000
 11
1066.395382800906
 21
564.0204008096396
 31
0.0000000000000000
  0
MTEXT
  5
2A4
100
AcDbEntity
  8
MAIN0
  6
BYBLOCK
 62
0
100
AcDbMText
 10
1058.795382896274
 20
539.0204008096396
 30
0.0000000000000000
 40
6.199999809265137
 41
0.0000000000000000
 71
     5
 72
     1
  1
\A1;50
 11
6.123233995736766e-017
 21
1.000000000000000
 31
0.0000000000000000
  7
STANDARD
  0
ENDBLK
  5
2A5
100
AcDbEntity
  8
MAIN0
  6
CONTINUOUS
 62
3
100
AcDbBlockEnd
  0
BLOCK
  5
2A7
100
AcDbEntity
  8
MAIN0
  6
CONTINUOUS
 62
3
100
AcDbBlockBegin
  2
*D29
 70
    65
 10
0.0
 20
0.0
 30
0.0
  0
LINE
  5
2A8
100
AcDbEntity
  8
MAIN0
  6
BYBLOCK
 62
0
100
AcDbLine
 10
786.9472003493279
 20
499.0204008096396
 30
0.0000000000000000
 11
760.3657543115453
 21
499.0204008096396
 31
0.0000000000000000
  0
LINE
  5
2A9
100
AcDbEntity
  8
MAIN0
  6
BYBLOCK
 62
0
100
AcDbLine
 10
764.3657543115453
 20
503.0204008096396
 30
0.0000000000000000
 11
764.3657543115453
 21
575.0204008096396
 31
0.0000000000000000
  0
INSERT
  5
2AA
100
AcDbEntity
  8
MAIN0
  6
BYBLOCK
 62
0
100
AcDbBlockReference
  2
_OPEN
 10
764.3657543115453
 20
499.0204008096396
 30
0.0000000000000000
 41
4.000000000000000
 42
4.000000000000000
 43
4.000000000000000
 50
270.0000000000000
  0
INSERT
  5
2AB
100
AcDbEntity
  8
MAIN0
  6
BYBLOCK
 62
0
100
AcDbBlockReference
  2
_OPEN
 10
764.3657543115453
 20
579.0204008096396
 30
0.0000000000000000
 41
4.000000000000000
 42
4.000000000000000
 43
4.000000000000000
 50
90.00000000000000
  0
LINE
  5
2AC
100
AcDbEntity
  8
MAIN0
  6
BYBLOCK
 62
0
100
AcDbLine
 10
786.9472003493279
 20
579.0204008096396
 30
0.0000000000000000
 11
760.3657543115453
 21
579.0204008096396
 31
0.0000000000000000
  0
MTEXT
  5
2AD
100
AcDbEntity
  8
MAIN0
  6
BYBLOCK
 62
0
100
AcDbMText
 10
760.7657544069127
 20
539.0204008096396
 30
0.0000000000000000
 40
6.199999809265137
 41
0.0000000000000000
 71
     5
 72
     1
  1
\A1;80
 11
6.123233995736766e-017
 21
1.000000000000000
 31
0.0000000000000000
  7
STANDARD
  0
ENDBLK
  5
2AE
100
AcDbEntity
  8
MAIN0
  6
CONTINUOUS
 62
3
100
AcDbBlockEnd
  0
BLOCK
  5
2B0
100
AcDbEntity
  8
MAIN0
  6
CONTINUOUS
 62
3
100
AcDbBlockBegin
  2
*D30
 70
    65
 10
0.0
 20
0.0
 30
0.0
  0
LINE
  5
2B1
100
AcDbEntity
  8
MAIN0
  6
BYBLOCK
 62
0
100
AcDbLine
 10
797.8384594197621
 20
487.8558253561042
 30
0.0000000000000000
 11
797.8384594197621
 21
452.6688976456641
 31
0.0000000000000000
  0
LINE
  5
2B2
100
AcDbEntity
  8
MAIN0
  6
BYBLOCK
 62
0
100
AcDbLine
 10
801.8384594197621
 20
456.6688976456641
 30
0.0000000000000000
 11
843.8384594197621
 21
456.6688976456641
 31
0.0000000000000000
  0
INSERT
  5
2B3
100
AcDbEntity
  8
MAIN0
  6
BYBLOCK
 62
0
100
AcDbBlockReference
  2
_OPEN
 10
797.8384594197621
 20
456.6688976456641
 30
0.0000000000000000
 41
4.000000000000000
 42
4.000000000000000
 43
4.000000000000000
 50
180.0000000000000
  0
INSERT
  5
2B4
100
AcDbEntity
  8
MAIN0
  6
BYBLOCK
 62
0
100
AcDbBlockReference
  2
_OPEN
 10
847.8384594197621
 20
456.6688976456641
 30
0.0000000000000000
 41
4.000000000000000
 42
4.000000000000000
 43
4.000000000000000
 50
0.0000000000000000
  0
LINE
  5
2B5
100
AcDbEntity
  8
MAIN0
  6
BYBLOCK
 62
0
100
AcDbLine
 10
847.8384594197621
 20
487.8558253561042
 30
0.0000000000000000
 11
847.8384594197621
 21
452.6688976456641
 31
0.0000000000000000
  0
MTEXT
  5
2B6
100
AcDbEntity
  8
MAIN0
  6
BYBLOCK
 62
0
100
AcDbMText
 10
822.8384594197621
 20
460.2688975502966
 30
0.0000000000000000
 40
6.199999809265137
 41
0.0000000000000000
 71
     5
 72
     1
  1
\A1;50
 11
1.000000000000000
 21
0.0000000000000000
 31
0.0000000000000000
  7
STANDARD
  0
ENDBLK
  5
2B7
100
AcDbEntity
  8
MAIN0
  6
CONTINUOUS
 62
3
100
AcDbBlockEnd
  0
BLOCK
  5
2B9
100
AcDbEntity
  8
MAIN0
  6
CONTINUOUS
 62
3
100
AcDbBlockBegin
  2
*D31
 70
    65
 10
0.0
 20
0.0
 30
0.0
  0
LINE
  5
2BA
100
AcDbEntity
  8
MAIN0
  6
BYBLOCK
 62
0
100
AcDbLine
 10
847.8384594197621
 20
487.8558253561042
 30
0.0000000000000000
 11
847.8384594197621
 21
452.6688976456641
 31
0.0000000000000000
  0
LINE
  5
2BB
100
AcDbEntity
  8
MAIN0
  6
BYBLOCK
 62
0
100
AcDbLine
 10
847.8384594197621
 20
456.6688976456641
 30
0.0000000000000000
 11
857.8384594197621
 21
456.6688976456641
 31
0.0000000000000000
  0
INSERT
  5
2BC
100
AcDbEntity
  8
MAIN0
  6
BYBLOCK
 62
0
100
AcDbBlockReference
  2
_OPEN
 10
847.8384594197621
 20
456.6688976456641
 30
0.0000000000000000
 41
4.000000000000000
 42
4.000000000000000
 43
4.000000000000000
 50
0.0000000000000000
  0
INSERT
  5
2BD
100
AcDbEntity
  8
MAIN0
  6
BYBLOCK
 62
0
100
AcDbBlockReference
  2
_OPEN
 10
857.8384594197621
 20
456.6688976456641
 30
0.0000000000000000
 41
4.000000000000000
 42
4.000000000000000
 43
4.000000000000000
 50
180.0000000000000
  0
LINE
  5
2BE
100
AcDbEntity
  8
MAIN0
  6
BYBLOCK
 62
0
100
AcDbLine
 10
843.8384594197621
 20
456.6688976456641
 30
0.0000000000000000
 11
841.8384594197621
 21
456.6688976456641
 31
0.0000000000000000
  0
LINE
  5
2BF
100
AcDbEntity
  8
MAIN0
  6
BYBLOCK
 62
0
100
AcDbLine
 10
861.8384594197621
 20
456.6688976456641
 30
0.0000000000000000
 11
863.8384594197621
 21
456.6688976456641
 31
0.0000000000000000
  0
LINE
  5
2C0
100
AcDbEntity
  8
MAIN0
  6
BYBLOCK
 62
0
100
AcDbLine
 10
857.8384594197621
 20
475.1704007857977
 30
0.0000000000000000
 11
857.8384594197621
 21
452.6688976456641
 31
0.0000000000000000
  0
MTEXT
  5
2C1
100
AcDbEntity
  8
MAIN0
  6
BYBLOCK
 62
0
100
AcDbMText
 10
852.8384594197621
 20
460.2688975502966
 30
0.0000000000000000
 40
6.199999809265137
 41
0.0000000000000000
 71
     5
 72
     1
  1
\A1;10
 11
1.000000000000000
 21
0.0000000000000000
 31
0.0000000000000000
  7
STANDARD
  0
ENDBLK
  5
2C2
100
AcDbEntity
  8
MAIN0
  6
CONTINUOUS
 62
3
100
AcDbBlockEnd
  0
BLOCK
  5
2C4
100
AcDbEntity
  8
MAIN0
  6
CONTINUOUS
 62
3
100
AcDbBlockBegin
  2
*D32
 70
    65
 10
0.0
 20
0.0
 30
0.0
  0
LINE
  5
2C5
100
AcDbEntity
  8
MAIN0
  6
BYBLOCK
 62
0
100
AcDbLine
 10
962.8384594197621
 20
475.1704007857977
 30
0.0000000000000000
 11
962.8384594197621
 21
452.6688976456641
 31
0.0000000000000000
  0
LINE
  5
2C6
100
AcDbEntity
  8
MAIN0
  6
BYBLOCK
 62
0
100
AcDbLine
 10
962.8384594197621
 20
456.6688976456641
 30
0.0000000000000000
 11
972.8384594197621
 21
456.6688976456641
 31
0.0000000000000000
  0
INSERT
  5
2C7
100
AcDbEntity
  8
MAIN0
  6
BYBLOCK
 62
0
100
AcDbBlockReference
  2
_OPEN
 10
962.8384594197621
 20
456.6688976456641
 30
0.0000000000000000
 41
4.000000000000000
 42
4.000000000000000
 43
4.000000000000000
 50
0.0000000000000000
  0
INSERT
  5
2C8
100
AcDbEntity
  8
MAIN0
  6
BYBLOCK
 62
0
100
AcDbBlockReference
  2
_OPEN
 10
972.8384594197621
 20
456.6688976456641
 30
0.0000000000000000
 41
4.000000000000000
 42
4.000000000000000
 43
4.000000000000000
 50
180.0000000000000
  0
LINE
  5
2C9
100
AcDbEntity
  8
MAIN0
  6
BYBLOCK
 62
0
100
AcDbLine
 10
958.8384594197621
 20
456.6688976456641
 30
0.0000000000000000
 11
956.8384594197621
 21
456.6688976456641
 31
0.0000000000000000
  0
LINE
  5
2CA
100
AcDbEntity
  8
MAIN0
  6
BYBLOCK
 62
0
100
AcDbLine
 10
976.8384594197621
 20
456.6688976456641
 30
0.0000000000000000
 11
978.8384594197621
 21
456.6688976456641
 31
0.0000000000000000
  0
LINE
  5
2CB
100
AcDbEntity
  8
MAIN0
  6
BYBLOCK
 62
0
100
AcDbLine
 10
972.8384594197621
 20
503.0346617519575
 30
0.0000000000000000
 11
972.8384594197621
 21
452.6688976456641
 31
0.0000000000000000
  0
MTEXT
  5
2CC
100
AcDbEntity
  8
MAIN0
  6
BYBLOCK
 62
0
100
AcDbMText
 10
967.8384594197621
 20
460.2688975502966
 30
0.0000000000000000
 40
6.199999809265137
 41
0.0000000000000000
 71
     5
 72
     1
  1
\A1;10
 11
1.000000000000000
 21
0.0000000000000000
 31
0.0000000000000000
  7
STANDARD
  0
ENDBLK
  5
2CD
100
AcDbEntity
  8
MAIN0
  6
CONTINUOUS
 62
3
100
AcDbBlockEnd
  0
BLOCK
  5
2CF
100
AcDbEntity
  8
MAIN0
  6
CONTINUOUS
 62
3
100
AcDbBlockBegin
  2
*D33
 70
    65
 10
0.0
 20
0.0
 30
0.0
  0
LINE
  5
2D0
100
AcDbEntity
  8
MAIN0
  6
BYBLOCK
 62
0
100
AcDbLine
 10
972.8384594197621
 20
503.0346617519575
 30
0.0000000000000000
 11
972.8384594197621
 21
452.6688976456641
 31
0.0000000000000000
  0
LINE
  5
2D1
100
AcDbEntity
  8
MAIN0
  6
BYBLOCK
 62
0
100
AcDbLine
 10
976.8384594197621
 20
456.6688976456641
 30
0.0000000000000000
 11
1023.838459419762
 21
456.6688976456641
 31
0.0000000000000000
  0
INSERT
  5
2D2
100
AcDbEntity
  8
MAIN0
  6
BYBLOCK
 62
0
100
AcDbBlockReference
  2
_OPEN
 10
972.8384594197621
 20
456.6688976456641
 30
0.0000000000000000
 41
4.000000000000000
 42
4.000000000000000
 43
4.000000000000000
 50
180.0000000000000
  0
INSERT
  5
2D3
100
AcDbEntity
  8
MAIN0
  6
BYBLOCK
 62
0
100
AcDbBlockReference
  2
_OPEN
 10
1027.838459419762
 20
456.6688976456641
 30
0.0000000000000000
 41
4.000000000000000
 42
4.000000000000000
 43
4.000000000000000
 50
0.0000000000000000
  0
LINE
  5
2D4
100
AcDbEntity
  8
MAIN0
  6
BYBLOCK
 62
0
100
AcDbLine
 10
1027.838459419762
 20
503.0346617519575
 30
0.0000000000000000
 11
1027.838459419762
 21
452.6688976456641
 31
0.0000000000000000
  0
MTEXT
  5
2D5
100
AcDbEntity
  8
MAIN0
  6
BYBLOCK
 62
0
100
AcDbMText
 10
1000.338459419762
 20
460.2688975502966
 30
0.0000000000000000
 40
6.199999809265137
 41
0.0000000000000000
 71
     5
 72
     1
  1
\A1;55
 11
1.000000000000000
 21
0.0000000000000000
 31
0.0000000000000000
  7
STANDARD
  0
ENDBLK
  5
2D6
100
AcDbEntity
  8
MAIN0
  6
CONTINUOUS
 62
3
100
AcDbBlockEnd
  0
BLOCK
  5
2D8
100
AcDbEntity
  8
MAIN0
  6
CONTINUOUS
 62
3
100
AcDbBlockBegin
  2
*D34
 70
    65
 10
0.0
 20
0.0
 30
0.0
  0
LINE
  5
2D9
100
AcDbEntity
  8
MAIN0
  6
BYBLOCK
 62
0
100
AcDbLine
 10
820.8384594197621
 20
553.6204008334814
 30
0.0000000000000000
 11
820.8384594197621
 21
624.6367523843057
 31
0.0000000000000000
  0
LINE
  5
2DA
100
AcDbEntity
  8
MAIN0
  6
BYBLOCK
 62
0
100
AcDbLine
 10
824.8384594197621
 20
620.6367523843057
 30
0.0000000000000000
 11
853.8384594197621
 21
620.6367523843057
 31
0.0000000000000000
  0
INSERT
  5
2DB
100
AcDbEntity
  8
MAIN0
  6
BYBLOCK
 62
0
100
AcDbBlockReference
  2
_OPEN
 10
820.8384594197621
 20
620.6367523843057
 30
0.0000000000000000
 41
4.000000000000000
 42
4.000000000000000
 43
4.000000000000000
 50
180.0000000000000
  0
INSERT
  5
2DC
100
AcDbEntity
  8
MAIN0
  6
BYBLOCK
 62
0
100
AcDbBlockReference
  2
_OPEN
 10
857.8384594197621
 20
620.6367523843057
 30
0.0000000000000000
 41
4.000000000000000
 42
4.000000000000000
 43
4.000000000000000
 50
0.0000000000000000
  0
LINE
  5
2DD
100
AcDbEntity
  8
MAIN0
  6
BYBLOCK
 62
0
100
AcDbLine
 10
857.8384594197621
 20
602.8704008334814
 30
0.0000000000000000
 11
857.8384594197621
 21
624.6367523843057
 31
0.0000000000000000
  0
MTEXT
  5
2DE
100
AcDbEntity
  8
MAIN0
  6
BYBLOCK
 62
0
100
AcDbMText
 10
839.3384594197621
 20
624.2367522889383
 30
0.0000000000000000
 40
6.199999809265137
 41
0.0000000000000000
 71
     5
 72
     1
  1
\A1;37
 11
1.000000000000000
 21
0.0000000000000000
 31
0.0000000000000000
  7
STANDARD
  0
ENDBLK
  5
2DF
100
AcDbEntity
  8
MAIN0
  6
CONTINUOUS
 62
3
100
AcDbBlockEnd
  0
BLOCK
  5
2E1
100
AcDbEntity
  8
MAIN0
  6
CONTINUOUS
 62
3
100
AcDbBlockBegin
  2
*D35
 70
    65
 10
0.0
 20
0.0
 30
0.0
  0
LINE
  5
2E2
100
AcDbEntity
  8
MAIN0
  6
BYBLOCK
 62
0
100
AcDbLine
 10
962.8384594197621
 20
602.8704008334814
 30
0.0000000000000000
 11
962.8384594197621
 21
624.6367523843057
 31
0.0000000000000000
  0
LINE
  5
2E3
100
AcDbEntity
  8
MAIN0
  6
BYBLOCK
 62
0
100
AcDbLine
 10
966.8384594197621
 20
620.6367523843057
 30
0.0000000000000000
 11
997.8384594197621
 21
620.6367523843057
 31
0.0000000000000000
  0
INSERT
  5
2E4
100
AcDbEntity
  8
MAIN0
  6
BYBLOCK
 62
0
100
AcDbBlockReference
  2
_OPEN
 10
962.8384594197621
 20
620.6367523843057
 30
0.0000000000000000
 41
4.000000000000000
 42
4.000000000000000
 43
4.000000000000000
 50
180.0000000000000
  0
INSERT
  5
2E5
100
AcDbEntity
  8
MAIN0
  6
BYBLOCK
 62
0
100
AcDbBlockReference
  2
_OPEN
 10
1001.838459419762
 20
620.6367523843057
 30
0.0000000000000000
 41
4.000000000000000
 42
4.000000000000000
 43
4.000000000000000
 50
0.0000000000000000
  0
LINE
  5
2E6
100
AcDbEntity
  8
MAIN0
  6
BYBLOCK
 62
0
100
AcDbLine
 10
1001.838459419762
 20
553.6204008334814
 30
0.0000000000000000
 11
1001.838459419762
 21
624.6367523843057
 31
0.0000000000000000
  0
MTEXT
  5
2E7
100
AcDbEntity
  8
MAIN0
  6
BYBLOCK
 62
0
100
AcDbMText
 10
982.3384594197621
 20
624.2367522889383
 30
0.0000000000000000
 40
6.199999809265137
 41
0.0000000000000000
 71
     5
 72
     1
  1
\A1;39
 11
1.000000000000000
 21
0.0000000000000000
 31
0.0000000000000000
  7
STANDARD
  0
ENDBLK
  5
2E8
100
AcDbEntity
  8
MAIN0
  6
CONTINUOUS
 62
3
100
AcDbBlockEnd
  0
BLOCK
  5
36B
100
AcDbEntity
  8
MAIN0
  6
CONTINUOUS
 62
3
100
AcDbBlockBegin
  2
*D36
 70
    65
 10
0.0
 20
0.0
 30
0.0
  0
LINE
  5
36C
100
AcDbEntity
  8
MAIN0
  6
BYBLOCK
 62
0
100
AcDbLine
 10
1087.838459419762
 20
387.4204007857977
 30
0.0000000000000000
 11
1087.838459419762
 21
316.1497292632821
 31
0.0000000000000000
  0
LINE
  5
36D
100
AcDbEntity
  8
MAIN0
  6
BYBLOCK
 62
0
100
AcDbLine
 10
1083.838459419762
 20
320.1497292632821
 30
0.0000000000000000
 11
1070.838459419762
 21
320.1497292632821
 31
0.0000000000000000
  0
INSERT
  5
36E
100
AcDbEntity
  8
MAIN0
  6
BYBLOCK
 62
0
100
AcDbBlockReference
  2
_OPEN
 10
1087.838459419762
 20
320.1497292632821
 30
0.0000000000000000
 41
4.000000000000000
 42
4.000000000000000
 43
4.000000000000000
 50
360.0000000000000
  0
INSERT
  5
36F
100
AcDbEntity
  8
MAIN0
  6
BYBLOCK
 62
0
100
AcDbBlockReference
  2
_OPEN
 10
1066.838459419762
 20
320.1497292632821
 30
0.0000000000000000
 41
4.000000000000000
 42
4.000000000000000
 43
4.000000000000000
 50
180.0000000000000
  0
LINE
  5
370
100
AcDbEntity
  8
MAIN0
  6
BYBLOCK
 62
0
100
AcDbLine
 10
1066.838459419762
 20
387.4204007857977
 30
0.0000000000000000
 11
1066.838459419762
 21
316.1497292632821
 31
0.0000000000000000
  0
MTEXT
  5
371
100
AcDbEntity
  8
MAIN0
  6
BYBLOCK
 62
0
100
AcDbMText
 10
1077.338459419762
 20
323.7497291679147
 30
0.0000000000000000
 40
6.199999809265137
 41
0.0000000000000000
 71
     5
 72
     1
  1
\A1;21
 11
1.000000000000000
 21
0.0000000000000000
 31
0.0000000000000000
  7
STANDARD
  0
ENDBLK
  5
372
100
AcDbEntity
  8
MAIN0
  6
CONTINUOUS
 62
3
100
AcDbBlockEnd
  0
BLOCK
  5
374
100
AcDbEntity
  8
MAIN0
  6
CONTINUOUS
 62
3
100
AcDbBlockBegin
  2
*D37
 70
    65
 10
0.0
 20
0.0
 30
0.0
  0
LINE
  5
375
100
AcDbEntity
  8
MAIN0
  6
BYBLOCK
 62
0
100
AcDbLine
 10
1066.838459419762
 20
387.4204007857977
 30
0.0000000000000000
 11
1066.838459419762
 21
316.1497292632821
 31
0.0000000000000000
  0
LINE
  5
376
100
AcDbEntity
  8
MAIN0
  6
BYBLOCK
 62
0
100
AcDbLine
 10
1062.838459419762
 20
320.1497292632821
 30
0.0000000000000000
 11
1045.838459419762
 21
320.1497292632821
 31
0.0000000000000000
  0
INSERT
  5
377
100
AcDbEntity
  8
MAIN0
  6
BYBLOCK
 62
0
100
AcDbBlockReference
  2
_OPEN
 10
1066.838459419762
 20
320.1497292632821
 30
0.0000000000000000
 41
4.000000000000000
 42
4.000000000000000
 43
4.000000000000000
 50
360.0000000000000
  0
INSERT
  5
378
100
AcDbEntity
  8
MAIN0
  6
BYBLOCK
 62
0
100
AcDbBlockReference
  2
_OPEN
 10
1041.838459419762
 20
320.1497292632821
 30
0.0000000000000000
 41
4.000000000000000
 42
4.000000000000000
 43
4.000000000000000
 50
180.0000000000000
  0
LINE
  5
379
100
AcDbEntity
  8
MAIN0
  6
BYBLOCK
 62
0
100
AcDbLine
 10
1041.838459419762
 20
387.4204007857977
 30
0.0000000000000000
 11
1041.838459419762
 21
316.1497292632821
 31
0.0000000000000000
  0
MTEXT
  5
37A
100
AcDbEntity
  8
MAIN0
  6
BYBLOCK
 62
0
100
AcDbMText
 10
1054.338459419762
 20
323.7497291679147
 30
0.0000000000000000
 40
6.199999809265137
 41
0.0000000000000000
 71
     5
 72
     1
  1
\A1;25
 11
1.000000000000000
 21
0.0000000000000000
 31
0.0000000000000000
  7
STANDARD
  0
ENDBLK
  5
37B
100
AcDbEntity
  8
MAIN0
  6
CONTINUOUS
 62
3
100
AcDbBlockEnd
  0
BLOCK
  5
382
100
AcDbEntity
  8
MAIN0
  6
CONTINUOUS
 62
3
100
AcDbBlockBegin
  2
*D38
 70
    65
 10
0.0
 20
0.0
 30
0.0
  0
LINE
  5
383
100
AcDbEntity
  8
MAIN0
  6
BYBLOCK
 62
0
100
AcDbLine
 10
717.3856159622187
 20
794.7850642129945
 30
0.0000000000000000
 11
645.6663768208241
 21
723.0658250715999
 31
0.0000000000000000
  0
LINE
  5
384
100
AcDbEntity
  8
MAIN0
  6
BYBLOCK
 62
0
100
AcDbLine
 10
645.6663768208241
 20
728.7226793210923
 30
0.0000000000000000
 11
636.4739886653988
 21
737.9150674765175
 31
0.0000000000000000
  0
INSERT
  5
385
100
AcDbEntity
  8
MAIN0
  6
BYBLOCK
 62
0
100
AcDbBlockReference
  2
_OPEN
 10
648.4948039455702
 20
725.8942521963461
 30
0.0000000000000000
 41
4.000000000000000
 42
4.000000000000000
 43
4.000000000000000
 50
315.0000000000003
  0
INSERT
  5
386
100
AcDbEntity
  8
MAIN0
  6
BYBLOCK
 62
0
100
AcDbBlockReference
  2
_OPEN
 10
633.6455615406526
 20
740.7434946012636
 30
0.0000000000000000
 41
4.000000000000000
 42
4.000000000000000
 43
4.000000000000000
 50
135.0000000000004
  0
LINE
  5
387
100
AcDbEntity
  8
MAIN0
  6
BYBLOCK
 62
0
100
AcDbLine
 10
645.9678310623772
 20
753.0657641229883
 30
0.0000000000000000
 11
630.8171344159064
 21
737.9150674765175
 31
0.0000000000000000
  0
MTEXT
  5
388
100
AcDbEntity
  8
MAIN0
  6
BYBLOCK
 62
0
100
AcDbMText
 10
643.6157670879480
 20
735.8644577436414
 30
0.0000000000000000
 40
6.199999809265137
 41
0.0000000000000000
 71
     5
 72
     1
  1
\A1;21
 11
0.7071067811865474
 21
-0.7071067811865477
 31
0.0000000000000000
  7
STANDARD
  0
ENDBLK
  5
389
100
AcDbEntity
  8
MAIN0
  6
CONTINUOUS
 62
3
100
AcDbBlockEnd
  0
BLOCK
  5
38B
100
AcDbEntity
  8
MAIN0
  6
CONTINUOUS
 62
3
100
AcDbBlockBegin
  2
*D39
 70
    65
 10
0.0
 20
0.0
 30
0.0
  0
LINE
  5
38C
100
AcDbEntity
  8
MAIN0
  6
BYBLOCK
 62
0
100
AcDbLine
 10
645.9678310623772
 20
753.0657641229883
 30
0.0000000000000000
 11
630.8171344159064
 21
737.9150674765175
 31
0.0000000000000000
  0
LINE
  5
38D
100
AcDbEntity
  8
MAIN0
  6
BYBLOCK
 62
0
100
AcDbLine
 10
633.6455615406526
 20
740.7434946012636
 30
0.0000000000000000
 11
627.2816005099737
 21
747.1074556319426
 31
0.0000000000000000
  0
INSERT
  5
38E
100
AcDbEntity
  8
MAIN0
  6
BYBLOCK
 62
0
100
AcDbBlockReference
  2
_OPEN
 10
633.6455615406526
 20
740.7434946012636
 30
0.0000000000000000
 41
4.000000000000000
 42
4.000000000000000
 43
4.000000000000000
 50
134.9999999999995
  0
INSERT
  5
38F
100
AcDbEntity
  8
MAIN0
  6
BYBLOCK
 62
0
100
AcDbBlockReference
  2
_OPEN
 10
627.2816005099737
 20
747.1074556319426
 30
0.0000000000000000
 41
4.000000000000000
 42
4.000000000000000
 43
4.000000000000000
 50
314.9999999999995
  0
LINE
  5
390
100
AcDbEntity
  8
MAIN0
  6
BYBLOCK
 62
0
100
AcDbLine
 10
636.4739886653988
 20
737.9150674765175
 30
0.0000000000000000
 11
637.8882022277719
 21
736.5008539141444
 31
0.0000000000000000
  0
LINE
  5
391
100
AcDbEntity
  8
MAIN0
  6
BYBLOCK
 62
0
100
AcDbLine
 10
624.4531733852275
 20
749.9358827566888
 30
0.0000000000000000
 11
623.0389598228544
 21
751.3500963190619
 31
0.0000000000000000
  0
LINE
  5
392
100
AcDbEntity
  8
MAIN0
  6
BYBLOCK
 62
0
100
AcDbLine
 10
639.6038700316983
 20
759.4297251536673
 30
0.0000000000000000
 11
624.4531733852275
 21
744.2790285071965
 31
0.0000000000000000
  0
MTEXT
  5
393
100
AcDbEntity
  8
MAIN0
  6
BYBLOCK
 62
0
100
AcDbMText
 10
633.0091653701497
 20
746.4710594614397
 30
0.0000000000000000
 40
6.199999809265137
 41
0.0000000000000000
 71
     5
 72
     1
  1
\A1;9
 11
0.7071067811865474
 21
-0.7071067811865477
 31
0.0000000000000000
  7
STANDARD
  0
ENDBLK
  5
394
100
AcDbEntity
  8
MAIN0
  6
CONTINUOUS
 62
3
100
AcDbBlockEnd
  0
BLOCK
  5
396
100
AcDbEntity
  8
MAIN0
  6
CONTINUOUS
 62
3
100
AcDbBlockBegin
  2
*D40
 70
    65
 10
0.0
 20
0.0
 30
0.0
  0
LINE
  5
397
100
AcDbEntity
  8
MAIN0
  6
BYBLOCK
 62
0
100
AcDbLine
 10
705.5062220720022
 20
825.3320771939709
 30
0.0000000000000000
 11
720.9741176831199
 21
840.7999728050886
 31
0.0000000000000000
  0
LINE
  5
398
100
AcDbEntity
  8
MAIN0
  6
BYBLOCK
 62
0
100
AcDbLine
 10
720.9741176831199
 20
835.1431185555963
 30
0.0000000000000000
 11
736.5304668692240
 21
819.5867693694922
 31
0.0000000000000000
  0
INSERT
  5
399
100
AcDbEntity
  8
MAIN0
  6
BYBLOCK
 62
0
100
AcDbBlockReference
  2
_OPEN
 10
718.1456905583736
 20
837.9715456803424
 30
0.0000000000000000
 41
4.000000000000000
 42
4.000000000000000
 43
4.000000000000000
 50
135.0000000000002
  0
INSERT
  5
39A
100
AcDbEntity
  8
MAIN0
  6
BYBLOCK
 62
0
100
AcDbBlockReference
  2
_OPEN
 10
739.3588939939701
 20
816.7583422447460
 30
0.0000000000000000
 41
4.000000000000000
 42
4.000000000000000
 43
4.000000000000000
 50
315.0000000000002
  0
LINE
  5
39B
100
AcDbEntity
  8
MAIN0
  6
BYBLOCK
 62
0
100
AcDbLine
 10
726.7194255075985
 20
804.1188737583744
 30
0.0000000000000000
 11
742.1873211187163
 21
819.5867693694922
 31
0.0000000000000000
  0
MTEXT
  5
39C
100
AcDbEntity
  8
MAIN0
  6
BYBLOCK
 62
0
100
AcDbMText
 10
731.2978766210085
 20
829.9105283073809
 30
0.0000000000000000
 40
6.199999809265137
 41
0.0000000000000000
 71
     5
 72
     1
  1
\A1;30
 11
0.7071067811865474
 21
-0.7071067811865477
 31
0.0000000000000000
  7
STANDARD
  0
ENDBLK
  5
39D
100
AcDbEntity
  8
MAIN0
  6
CONTINUOUS
 62
3
100
AcDbBlockEnd
  0
ENDSEC
  0
SECTION
  2
ENTITIES
  0
LINE
  5
46
100
AcDbEntity
  8
MAIN0
  6
CENTER
 62
3
100
AcDbLine
 10
274.4081674440011
 20
329.4754440873684
 30
0.0000000000000000
 11
274.4081674440011
 21
740.9177190812840
 31
0.0000000000000000
  0
LINE
  5
47
100
AcDbEntity
  8
MAIN0
  6
CONTINUOUS
 62
3
100
AcDbLine
 10
211.4081674440011
 20
689.0204008096396
 30
0.0000000000000000
 11
337.4081674440012
 21
689.0204008096396
 31
0.0000000000000000
  0
LINE
  5
48
100
AcDbEntity
  8
MAIN0
  6
CONTINUOUS
 62
3
100
AcDbLine
 10
211.4081674440011
 20
389.0204008096396
 30
0.0000000000000000
 11
337.4081674440011
 21
389.0204008096396
 31
0.0000000000000000
  0
LINE
  5
49
100
AcDbEntity
  8
MAIN0
  6
CONTINUOUS
 62
3
100
AcDbLine
 10
212.1581674440011
 20
349.5204008096396
 30
0.0000000000000000
 11
336.6581674440010
 21
349.5204008096396
 31
0.0000000000000000
  0
LINE
  5
4A
100
AcDbEntity
  8
MAIN0
  6
CONTINUOUS
 62
3
100
AcDbLine
 10
212.1581674440012
 20
728.5204008096396
 30
0.0000000000000000
 11
336.6581674440011
 21
728.5204008096396
 31
0.0000000000000000
  0
LINE
  5
4B
100
AcDbEntity
  8
MAIN0
  6
CONTINUOUS
 62
3
100
AcDbLine
 10
329.4081674440011
 20
484.0204008096396
 30
0.0000000000000000
 11
329.4081674440011
 21
594.0204008096396
 31
0.0000000000000000
  0
LINE
  5
4C
100
AcDbEntity
  8
MAIN0
  6
CONTINUOUS
 62
3
100
AcDbLine
 10
219.4081674440011
 20
484.0204008096396
 30
0.0000000000000000
 11
219.4081674440011
 21
594.0204008096396
 31
0.0000000000000000
  0
LINE
  5
4D
100
AcDbEntity
  8
MAIN0
  6
CONTINUOUS
 62
3
100
AcDbLine
 10
219.4081674440011
 20
484.0204008096396
 30
0.0000000000000000
 11
329.4081674440011
 21
484.0204008096396
 31
0.0000000000000000
  0
LINE
  5
4E
100
AcDbEntity
  8
MAIN0
  6
CONTINUOUS
 62
3
100
AcDbLine
 10
219.4081674440011
 20
594.0204008096396
 30
0.0000000000000000
 11
329.4081674440011
 21
594.0204008096396
 31
0.0000000000000000
  0
LINE
  5
4F
100
AcDbEntity
  8
MAIN0
  6
CONTINUOUS
 62
3
100
AcDbLine
 10
124.4081674440011
 20
476.0204008096396
 30
0.0000000000000000
 11
124.4081674440011
 21
602.0204008096396
 31
0.0000000000000000
  0
LINE
  5
50
100
AcDbEntity
  8
MAIN0
  6
CONTINUOUS
 62
3
100
AcDbLine
 10
424.4081674440011
 20
476.0204008096396
 30
0.0000000000000000
 11
424.4081674440011
 21
602.0204008096396
 31
0.0000000000000000
  0
LINE
  5
51
100
AcDbEntity
  8
MAIN0
  6
CONTINUOUS
 62
3
100
AcDbLine
 10
84.90816744400109
 20
476.7704008096396
 30
0.0000000000000000
 11
84.90816744400109
 21
601.2704008096396
 31
0.0000000000000000
  0
LINE
  5
52
100
AcDbEntity
  8
MAIN0
  6
CONTINUOUS
 62
3
100
AcDbLine
 10
463.9081674440011
 20
476.7704008096396
 30
0.0000000000000000
 11
463.9081674440011
 21
601.2704008096396
 31
0.0000000000000000
  0
LINE
  5
53
100
AcDbEntity
  8
MAIN0
  6
CONTINUOUS
 62
3
100
AcDbLine
 10
212.1581674440011
 20
689.0204008096396
 30
0.0000000000000000
 11
212.1581674440011
 21
728.5204008096396
 31
0.0000000000000000
  0
LINE
  5
54
100
AcDbEntity
  8
MAIN0
  6
CONTINUOUS
 62
3
100
AcDbLine
 10
212.1581674440011
 20
349.5204008096396
 30
0.0000000000000000
 11
212.1581674440011
 21
389.0204008096396
 31
0.0000000000000000
  0
LINE
  5
55
100
AcDbEntity
  8
MAIN0
  6
CONTINUOUS
 62
3
100
AcDbLine
 10
336.6581674440011
 20
349.5204008096396
 30
0.0000000000000000
 11
336.6581674440011
 21
389.0204008096396
 31
0.0000000000000000
  0
LINE
  5
56
100
AcDbEntity
  8
MAIN0
  6
CONTINUOUS
 62
3
100
AcDbLine
 10
424.4081674440011
 20
601.2704008096396
 30
0.0000000000000000
 11
463.9081674440011
 21
601.2704008096396
 31
0.0000000000000000
  0
LINE
  5
57
100
AcDbEntity
  8
MAIN0
  6
CONTINUOUS
 62
3
100
AcDbLine
 10
336.6581674440011
 20
689.0204008096396
 30
0.0000000000000000
 11
336.6581674440011
 21
728.5204008096396
 31
0.0000000000000000
  0
LINE
  5
58
100
AcDbEntity
  8
MAIN0
  6
CONTINUOUS
 62
3
100
AcDbLine
 10
424.4081674440011
 20
476.7704008096396
 30
0.0000000000000000
 11
463.9081674440011
 21
476.7704008096396
 31
0.0000000000000000
  0
LINE
  5
59
100
AcDbEntity
  8
MAIN0
  6
CONTINUOUS
 62
3
100
AcDbLine
 10
84.90816744400109
 20
476.7704008096396
 30
0.0000000000000000
 11
124.4081674440011
 21
476.7704008096396
 31
0.0000000000000000
  0
LINE
  5
5A
100
AcDbEntity
  8
MAIN0
  6
CONTINUOUS
 62
3
100
AcDbLine
 10
84.90816744400109
 20
601.2704008096396
 30
0.0000000000000000
 11
124.4081674440011
 21
601.2704008096396
 31
0.0000000000000000
  0
LINE
  5
5B
100
AcDbEntity
  8
MAIN0
  6
CENTER
 62
3
100
AcDbLine
 10
61.80413646767002
 20
539.0204008096396
 30
0.0000000000000000
 11
553.4591299024191
 21
539.0204008096396
 31
0.0000000000000000
  0
LINE
  5
5C
100
AcDbEntity
  8
MAIN0
  6
CONTINUOUS
 62
3
100
AcDbLine
 10
342.4081674440011
 20
602.0204008096396
 30
0.0000000000000000
 11
424.4081674440012
 21
602.0204008096396
 31
0.0000000000000000
  0
LINE
  5
5D
100
AcDbEntity
  8
MAIN0
  6
CONTINUOUS
 62
3
100
AcDbLine
 10
124.4081674440011
 20
602.0204008096396
 30
0.0000000000000000
 11
206.4081674440011
 21
602.0204008096396
 31
0.0000000000000000
  0
LINE
  5
5E
100
AcDbEntity
  8
MAIN0
  6
CONTINUOUS
 62
3
100
AcDbLine
 10
337.4081674440011
 20
607.0204008096396
 30
0.0000000000000000
 11
337.4081674440011
 21
689.0204008096396
 31
0.0000000000000000
  0
LINE
  5
5F
100
AcDbEntity
  8
MAIN0
  6
CONTINUOUS
 62
3
100
AcDbLine
 10
337.4081674440011
 20
389.0204008096396
 30
0.0000000000000000
 11
337.4081674440011
 21
471.0204008096396
 31
0.0000000000000000
  0
LINE
  5
60
100
AcDbEntity
  8
MAIN0
  6
CONTINUOUS
 62
3
100
AcDbLine
 10
342.4081674440011
 20
476.0204008096396
 30
0.0000000000000000
 11
424.4081674440012
 21
476.0204008096396
 31
0.0000000000000000
  0
LINE
  5
61
100
AcDbEntity
  8
MAIN0
  6
CONTINUOUS
 62
3
100
AcDbLine
 10
124.4081674440011
 20
476.0204008096396
 30
0.0000000000000000
 11
206.4081674440011
 21
476.0204008096396
 31
0.0000000000000000
  0
LINE
  5
62
100
AcDbEntity
  8
MAIN0
  6
CONTINUOUS
 62
3
100
AcDbLine
 10
211.4081674440011
 20
389.0204008096396
 30
0.0000000000000000
 11
211.4081674440011
 21
471.0204008096396
 31
0.0000000000000000
  0
LINE
  5
63
100
AcDbEntity
  8
MAIN0
  6
CONTINUOUS
 62
3
100
AcDbLine
 10
211.4081674440011
 20
607.0204008096396
 30
0.0000000000000000
 11
211.4081674440011
 21
689.0204008096396
 31
0.0000000000000000
  0
LINE
  5
64
100
AcDbEntity
  8
MAIN0
  6
CONTINUOUS
 62
3
100
AcDbLine
 10
337.4081674440011
 20
471.0204008096396
 30
0.0000000000000000
 11
342.4081674440011
 21
471.0204008096396
 31
0.0000000000000000
  0
LINE
  5
65
100
AcDbEntity
  8
MAIN0
  6
CONTINUOUS
 62
3
100
AcDbLine
 10
342.4081674440011
 20
471.0204008096396
 30
0.0000000000000000
 11
342.4081674440011
 21
477.0204008096396
 31
0.0000000000000000
  0
LINE
  5
66
100
AcDbEntity
  8
MAIN0
  6
CONTINUOUS
 62
3
100
AcDbLine
 10
206.4081674440011
 20
471.0204008096396
 30
0.0000000000000000
 11
206.4081674440011
 21
476.0204008096396
 31
0.0000000000000000
  0
LINE
  5
67
100
AcDbEntity
  8
MAIN0
  6
CONTINUOUS
 62
3
100
AcDbLine
 10
206.4081674440011
 20
471.0204008096396
 30
0.0000000000000000
 11
212.4081674440011
 21
471.0204008096396
 31
0.0000000000000000
  0
LINE
  5
68
100
AcDbEntity
  8
MAIN0
  6
CONTINUOUS
 62
3
100
AcDbLine
 10
206.4081674440011
 20
607.0204008096396
 30
0.0000000000000000
 11
211.4081674440011
 21
607.0204008096396
 31
0.0000000000000000
  0
LINE
  5
69
100
AcDbEntity
  8
MAIN0
  6
CONTINUOUS
 62
3
100
AcDbLine
 10
206.4081674440011
 20
601.0204008096396
 30
0.0000000000000000
 11
206.4081674440011
 21
607.0204008096396
 31
0.0000000000000000
  0
LINE
  5
6A
100
AcDbEntity
  8
MAIN0
  6
CONTINUOUS
 62
3
100
AcDbLine
 10
342.4081674440011
 20
602.0204008096396
 30
0.0000000000000000
 11
342.4081674440011
 21
607.0204008096396
 31
0.0000000000000000
  0
LINE
  5
6B
100
AcDbEntity
  8
MAIN0
  6
CONTINUOUS
 62
3
100
AcDbLine
 10
336.4081674440011
 20
607.0204008096396
 30
0.0000000000000000
 11
342.4081674440011
 21
607.0204008096396
 31
0.0000000000000000
  0
LINE
  5
6C
100
AcDbEntity
  8
MAIN0
  6
CONTINUOUS
 62
3
100
AcDbLine
 10
166.4081674440011
 20
601.0204008096396
 30
0.0000000000000000
 11
206.4081674440011
 21
601.0204008096396
 31
0.0000000000000000
  0
LINE
  5
6D
100
AcDbEntity
  8
MAIN0
  6
CONTINUOUS
 62
3
100
AcDbLine
 10
212.4081674440011
 20
431.0204008096396
 30
0.0000000000000000
 11
212.4081674440011
 21
471.0204008096396
 31
0.0000000000000000
  0
LINE
  5
6E
100
AcDbEntity
  8
MAIN0
  6
CONTINUOUS
 62
3
100
AcDbLine
 10
342.4081674440011
 20
477.0204008096396
 30
0.0000000000000000
 11
382.4081674440011
 21
477.0204008096396
 31
0.0000000000000000
  0
LINE
  5
6F
100
AcDbEntity
  8
MAIN0
  6
CONTINUOUS
 62
3
100
AcDbLine
 10
336.4081674440011
 20
607.0204008096396
 30
0.0000000000000000
 11
336.4081674440011
 21
647.0204008096396
 31
0.0000000000000000
  0
LINE
  5
70
100
AcDbEntity
  8
MAIN0
  6
CONTINUOUS
 62
3
100
AcDbLine
 10
166.4081674440011
 20
601.0204008096396
 30
0.0000000000000000
 11
166.4081674440011
 21
602.0204008096396
 31
0.0000000000000000
  0
LINE
  5
71
100
AcDbEntity
  8
MAIN0
  6
CONTINUOUS
 62
3
100
AcDbLine
 10
211.4081674440011
 20
431.0204008096396
 30
0.0000000000000000
 11
212.4081674440011
 21
431.0204008096396
 31
0.0000000000000000
  0
LINE
  5
72
100
AcDbEntity
  8
MAIN0
  6
CONTINUOUS
 62
3
100
AcDbLine
 10
382.4081674440011
 20
476.0204008096396
 30
0.0000000000000000
 11
382.4081674440011
 21
477.0204008096396
 31
0.0000000000000000
  0
LINE
  5
73
100
AcDbEntity
  8
MAIN0
  6
CONTINUOUS
 62
3
100
AcDbLine
 10
336.4081674440011
 20
647.0204008096396
 30
0.0000000000000000
 11
337.4081674440011
 21
647.0204008096396
 31
0.0000000000000000
  0
LINE
  5
74
100
AcDbEntity
  8
MAIN0
  6
CENTER
 62
3
100
AcDbLine
 10
166.2488736209265
 20
789.0204008096396
 30
0.0000000000000000
 11
474.4081674440011
 21
789.0204008096396
 31
0.0000000000000000
  0
LINE
  5
75
100
AcDbEntity
  8
MAIN0
  6
CENTER
 62
3
100
AcDbLine
 10
524.4081674440010
 20
539.0204008096396
 30
0.0000000000000000
 11
524.4081674440010
 21
739.0204008096396
 31
0.0000000000000000
  0
LINE
  5
76
100
AcDbEntity
  8
MAIN0
  6
CENTER
 62
3
100
AcDbLine
 10
474.4081674440011
 20
389.0204008096396
 30
0.0000000000000000
 11
474.4081674440011
 21
539.0204008096396
 31
0.0000000000000000
  0
LINE
  5
77
100
AcDbEntity
  8
MAIN0
  6
CENTER
 62
3
100
AcDbLine
 10
186.7991254848400
 20
339.0204008096396
 30
0.0000000000000000
 11
424.4081674440010
 21
339.0204008096396
 31
0.0000000000000000
  0
LINE
  5
78
100
AcDbEntity
  8
MAIN0
  6
CENTER
 62
3
100
AcDbLine
 10
474.4081674440010
 20
789.0204008096396
 30
0.0000000000000000
 11
524.4081674440010
 21
739.0204008096396
 31
0.0000000000000000
  0
LINE
  5
79
100
AcDbEntity
  8
MAIN0
  6
CENTER
 62
3
100
AcDbLine
 10
424.4081674440010
 20
339.0204008096396
 30
0.0000000000000000
 11
474.4081674440010
 21
389.0204008096396
 31
0.0000000000000000
  0
LINE
  5
7A
100
AcDbEntity
  8
MAIN0
  6
CENTER
 62
3
100
AcDbLine
 10
211.4081674440011
 20
424.0204008096396
 30
0.0000000000000000
 11
337.4081674440011
 21
424.0204008096396
 31
0.0000000000000000
  0
LINE
  5
7B
100
AcDbEntity
  8
MAIN0
  6
CENTER
 62
3
100
AcDbLine
 10
389.4081674440011
 20
476.0204008096396
 30
0.0000000000000000
 11
389.4081674440011
 21
602.0204008096396
 31
0.0000000000000000
  0
LINE
  5
7C
100
AcDbEntity
  8
MAIN0
  6
CENTER
 62
3
100
AcDbLine
 10
211.4081674440011
 20
654.0204008096396
 30
0.0000000000000000
 11
337.4081674440012
 21
654.0204008096396
 31
0.0000000000000000
  0
LINE
  5
7D
100
AcDbEntity
  8
MAIN0
  6
CENTER
 62
3
100
AcDbLine
 10
159.4081674440011
 20
476.0204008096396
 30
0.0000000000000000
 11
159.4081674440011
 21
602.0204008096396
 31
0.0000000000000000
  0
CIRCLE
  5
7E
100
AcDbEntity
  8
MAIN0
  6
CONTINUOUS
 62
3
100
AcDbCircle
 10
389.4081674440011
 20
539.0204008096396
 30
0.0000000000000000
 40
12.00000000000000
  0
CIRCLE
  5
7F
100
AcDbEntity
  8
MAIN0
  6
CONTINUOUS
 62
3
100
AcDbCircle
 10
389.4081674440012
 20
539.0204008096396
 30
0.0000000000000000
 40
21.00000000000000
  0
CIRCLE
  5
80
100
AcDbEntity
  8
MAIN0
  6
CONTINUOUS
 62
3
100
AcDbCircle
 10
389.4081674440012
 20
539.0204008096396
 30
0.0000000000000000
 40
24.75000000000000
  0
LINE
  5
81
100
AcDbEntity
  8
MAIN0
  6
CENTER
 62
3
100
AcDbLine
 10
344.1144004340484
 20
608.7266337996869
 30
0.0000000000000000
 11
412.9618383172220
 21
677.5740716828605
 31
0.0000000000000000
  0
LINE
  5
82
100
AcDbEntity
  8
MAIN0
  6
CENTER
 62
3
100
AcDbLine
 10
390.4081674440011
 20
639.0204008096396
 30
0.0000000000000000
 11
358.4081674440011
 21
639.0204008096396
 31
0.0000000000000000
  0
LINE
  5
83
100
AcDbEntity
  8
MAIN0
  6
CENTER
 62
3
100
AcDbLine
 10
374.4081674440011
 20
655.0204008096396
 30
0.0000000000000000
 11
374.4081674440011
 21
623.0204008096396
 31
0.0000000000000000
  0
LEADER
  5
84
100
AcDbEntity
  8
MAIN0
  6
CONTINUOUS
 62
3
100
AcDbLeader
  3
MAIN001
 73
     3
 74
     0
 75
     0
 76
     4
 10
412.6303310042056
 20
620.3216421017211
 30
0.0000000000000000
 10
426.7724666279428
 20
606.1795064779966
 30
0.0000000000000000
 10
639.2289197819400
 20
818.6359596318454
 30
0.0000000000000000
 10
653.3710554056804
 20
804.4938240081235
 30
0.0000000000000000
1001
ACAD
1000
DSTYLE
1002
{
1070
   173
1070
     1
1070
     6
1000
_OPEN
1070
     7
1000
_OPEN
1002
}
  0
LINE
  5
85
100
AcDbEntity
  8
MAIN0
  6
CENTER
 62
3
100
AcDbLine
 10
370.4081674440011
 20
459.0204008096396
 30
0.0000000000000000
 11
338.4081674440011
 21
459.0204008096396
 31
0.0000000000000000
  0
LINE
  5
86
100
AcDbEntity
  8
MAIN0
  6
CENTER
 62
3
100
AcDbLine
 10
354.4081674440011
 20
475.0204008096396
 30
0.0000000000000000
 11
354.4081674440011
 21
443.0204008096396
 31
0.0000000000000000
  0
CIRCLE
  5
87
100
AcDbEntity
  8
MAIN0
  6
CONTINUOUS
 62
3
100
AcDbCircle
 10
320.4081674440011
 20
493.0204008096382
 30
0.0000000000000000
 40
8.000000000000000
  0
LINE
  5
88
100
AcDbEntity
  8
MAIN0
  6
CONTINUOUS
 62
3
100
AcDbLine
 10
320.4081674440011
 20
488.4015986561212
 30
0.0000000000000000
 11
316.4081674440011
 21
490.7109997328797
 31
0.0000000000000000
  0
LINE
  5
89
100
AcDbEntity
  8
MAIN0
  6
CONTINUOUS
 62
3
100
AcDbLine
 10
316.4081674440011
 20
490.7109997328797
 30
0.0000000000000000
 11
316.4081674440011
 21
495.3298018863967
 31
0.0000000000000000
  0
LINE
  5
8A
100
AcDbEntity
  8
MAIN0
  6
CONTINUOUS
 62
3
100
AcDbLine
 10
316.4081674440011
 20
495.3298018863967
 30
0.0000000000000000
 11
320.4081674440011
 21
497.6392029631552
 31
0.0000000000000000
  0
LINE
  5
8B
100
AcDbEntity
  8
MAIN0
  6
CONTINUOUS
 62
3
100
AcDbLine
 10
320.4081674440011
 20
497.6392029631552
 30
0.0000000000000000
 11
324.4081674440011
 21
495.3298018863967
 31
0.0000000000000000
  0
LINE
  5
8C
100
AcDbEntity
  8
MAIN0
  6
CONTINUOUS
 62
3
100
AcDbLine
 10
324.4081674440011
 20
495.3298018863967
 30
0.0000000000000000
 11
324.4081674440011
 21
490.7109997328797
 31
0.0000000000000000
  0
LINE
  5
8D
100
AcDbEntity
  8
MAIN0
  6
CONTINUOUS
 62
3
100
AcDbLine
 10
324.4081674440011
 20
490.7109997328797
 30
0.0000000000000000
 11
320.4081674440011
 21
488.4015986561212
 31
0.0000000000000000
  0
LINE
  5
8E
100
AcDbEntity
  8
MAIN0
  6
CENTER
 62
3
100
AcDbLine
 10
332.4081674440011
 20
493.0204008096382
 30
0.0000000000000000
 11
308.4081674440011
 21
493.0204008096382
 31
0.0000000000000000
  0
LINE
  5
8F
100
AcDbEntity
  8
MAIN0
  6
CENTER
 62
3
100
AcDbLine
 10
320.4081674440011
 20
481.0204008096382
 30
0.0000000000000000
 11
320.4081674440011
 21
505.0204008096382
 31
0.0000000000000000
  0
CIRCLE
  5
90
100
AcDbEntity
  8
MAIN0
  6
CONTINUOUS
 62
3
100
AcDbCircle
 10
228.4081674440011
 20
493.0204008096382
 30
0.0000000000000000
 40
8.000000000000000
  0
LINE
  5
91
100
AcDbEntity
  8
MAIN0
  6
CONTINUOUS
 62
3
100
AcDbLine
 10
228.4081674440011
 20
488.4015986561212
 30
0.0000000000000000
 11
232.4081674440011
 21
490.7109997328797
 31
0.0000000000000000
  0
LINE
  5
92
100
AcDbEntity
  8
MAIN0
  6
CONTINUOUS
 62
3
100
AcDbLine
 10
232.4081674440011
 20
490.7109997328797
 30
0.0000000000000000
 11
232.4081674440011
 21
495.3298018863967
 31
0.0000000000000000
  0
LINE
  5
93
100
AcDbEntity
  8
MAIN0
  6
CONTINUOUS
 62
3
100
AcDbLine
 10
232.4081674440011
 20
495.3298018863967
 30
0.0000000000000000
 11
228.4081674440011
 21
497.6392029631552
 31
0.0000000000000000
  0
LINE
  5
94
100
AcDbEntity
  8
MAIN0
  6
CONTINUOUS
 62
3
100
AcDbLine
 10
228.4081674440011
 20
497.6392029631552
 30
0.0000000000000000
 11
224.4081674440011
 21
495.3298018863967
 31
0.0000000000000000
  0
LINE
  5
95
100
AcDbEntity
  8
MAIN0
  6
CONTINUOUS
 62
3
100
AcDbLine
 10
224.4081674440011
 20
495.3298018863967
 30
0.0000000000000000
 11
224.4081674440011
 21
490.7109997328797
 31
0.0000000000000000
  0
LINE
  5
96
100
AcDbEntity
  8
MAIN0
  6
CONTINUOUS
 62
3
100
AcDbLine
 10
224.4081674440011
 20
490.7109997328797
 30
0.0000000000000000
 11
228.4081674440011
 21
488.4015986561212
 31
0.0000000000000000
  0
LINE
  5
97
100
AcDbEntity
  8
MAIN0
  6
CENTER
 62
3
100
AcDbLine
 10
216.4081674440011
 20
493.0204008096382
 30
0.0000000000000000
 11
240.4081674440011
 21
493.0204008096382
 31
0.0000000000000000
  0
LINE
  5
98
100
AcDbEntity
  8
MAIN0
  6
CENTER
 62
3
100
AcDbLine
 10
228.4081674440011
 20
481.0204008096382
 30
0.0000000000000000
 11
228.4081674440011
 21
505.0204008096382
 31
0.0000000000000000
  0
LINE
  5
99
100
AcDbEntity
  8
MAIN0
  6
CENTER
 62
3
100
AcDbLine
 10
216.4081674440011
 20
585.0204008096409
 30
0.0000000000000000
 11
240.4081674440011
 21
585.0204008096409
 31
0.0000000000000000
  0
LINE
  5
9A
100
AcDbEntity
  8
MAIN0
  6
CENTER
 62
3
100
AcDbLine
 10
228.4081674440011
 20
597.0204008096409
 30
0.0000000000000000
 11
228.4081674440011
 21
573.0204008096409
 31
0.0000000000000000
  0
LINE
  5
9B
100
AcDbEntity
  8
MAIN0
  6
CONTINUOUS
 62
3
100
AcDbLine
 10
421.9081674440011
 20
493.4161246943453
 30
0.0000000000000000
 11
421.9081674440011
 21
584.6246769249339
 31
0.0000000000000000
  0
ARC
  5
9C
100
AcDbEntity
  8
MAIN0
  6
CONTINUOUS
 62
3
100
AcDbCircle
 10
389.4081674440011
 20
539.0204008096396
 30
0.0000000000000000
 40
56.00000000000000
100
AcDbArc
 50
54.52433391386575
 51
305.4756660861343
  0
ARC
  5
9D
100
AcDbEntity
  8
MAIN0
  6
CONTINUOUS
 62
3
100
AcDbCircle
 10
389.4081674440011
 20
539.0204008096396
 30
0.0000000000000000
 40
38.00000000000000
100
AcDbArc
 50
31.21118049826684
 51
328.7888195017331
  0
CIRCLE
  5
9E
100
AcDbEntity
  8
MAIN0
  6
CONTINUOUS
 62
3
100
AcDbCircle
 10
159.4081674440011
 20
539.0204008096396
 30
0.0000000000000000
 40
12.00000000000000
  0
CIRCLE
  5
9F
100
AcDbEntity
  8
MAIN0
  6
CONTINUOUS
 62
3
100
AcDbCircle
 10
159.4081674440010
 20
539.0204008096396
 30
0.0000000000000000
 40
21.00000000000000
  0
CIRCLE
  5
A0
100
AcDbEntity
  8
MAIN0
  6
CONTINUOUS
 62
3
100
AcDbCircle
 10
159.4081674440010
 20
539.0204008096396
 30
0.0000000000000000
 40
24.75000000000000
  0
LINE
  5
A1
100
AcDbEntity
  8
MAIN0
  6
CONTINUOUS
 62
3
100
AcDbLine
 10
163.2811507902085
 20
546.0204008096396
 30
0.0000000000000000
 11
155.5351840977937
 21
546.0204008096396
 31
0.0000000000000000
  0
LINE
  5
A2
100
AcDbEntity
  8
MAIN0
  6
CONTINUOUS
 62
3
100
AcDbLine
 10
163.2811507902085
 20
532.0204008096396
 30
0.0000000000000000
 11
155.5351840977937
 21
532.0204008096396
 31
0.0000000000000000
  0
LINE
  5
A3
100
AcDbEntity
  8
MAIN0
  6
CONTINUOUS
 62
3
100
AcDbLine
 10
155.5351840977936
 20
546.0204008096396
 30
0.0000000000000000
 11
151.4081674440010
 21
539.0204008096397
 31
0.0000000000000000
  0
LINE
  5
A4
100
AcDbEntity
  8
MAIN0
  6
CONTINUOUS
 62
3
100
AcDbLine
 10
151.4081674440010
 20
539.0204008096396
 30
0.0000000000000000
 11
155.5351840977937
 21
532.0204008096396
 31
0.0000000000000000
  0
LINE
  5
A5
100
AcDbEntity
  8
MAIN0
  6
CONTINUOUS
 62
3
100
AcDbLine
 10
163.2811507902084
 20
532.0204008096397
 30
0.0000000000000000
 11
167.4081674440010
 21
539.0204008096397
 31
0.0000000000000000
  0
LINE
  5
A6
100
AcDbEntity
  8
MAIN0
  6
CONTINUOUS
 62
3
100
AcDbLine
 10
167.4081674440010
 20
539.0204008096397
 30
0.0000000000000000
 11
163.2811507902085
 21
546.0204008096396
 31
0.0000000000000000
  0
LINE
  5
A7
100
AcDbEntity
  8
MAIN0
  6
CONTINUOUS
 62
3
100
AcDbLine
 10
126.9081674440011
 20
493.4161246943453
 30
0.0000000000000000
 11
126.9081674440011
 21
584.6246769249339
 31
0.0000000000000000
  0
ARC
  5
A8
100
AcDbEntity
  8
MAIN0
  6
CONTINUOUS
 62
3
100
AcDbCircle
 10
159.4081674440011
 20
539.0204008096396
 30
0.0000000000000000
 40
56.00000000000000
100
AcDbArc
 50
234.5243339138658
 51
485.4756660861342
  0
ARC
  5
A9
100
AcDbEntity
  8
MAIN0
  6
CONTINUOUS
 62
3
100
AcDbCircle
 10
159.4081674440011
 20
539.0204008096396
 30
0.0000000000000000
 40
38.00000000000000
100
AcDbArc
 50
211.2111804982669
 51
508.7888195017331
  0
CIRCLE
  5
AA
100
AcDbEntity
  8
MAIN0
  6
CONTINUOUS
 62
3
100
AcDbCircle
 10
274.4081674440011
 20
424.0204008096396
 30
0.0000000000000000
 40
12.00000000000000
  0
CIRCLE
  5
AB
100
AcDbEntity
  8
MAIN0
  6
CONTINUOUS
 62
3
100
AcDbCircle
 10
274.4081674440011
 20
424.0204008096395
 30
0.0000000000000000
 40
21.00000000000000
  0
CIRCLE
  5
AC
100
AcDbEntity
  8
MAIN0
  6
CONTINUOUS
 62
3
100
AcDbCircle
 10
274.4081674440011
 20
424.0204008096395
 30
0.0000000000000000
 40
24.75000000000000
  0
LINE
  5
AD
100
AcDbEntity
  8
MAIN0
  6
CONTINUOUS
 62
3
100
AcDbLine
 10
267.4081674440012
 20
427.8933841558470
 30
0.0000000000000000
 11
267.4081674440012
 21
420.1474174634321
 31
0.0000000000000000
  0
LINE
  5
AE
100
AcDbEntity
  8
MAIN0
  6
CONTINUOUS
 62
3
100
AcDbLine
 10
281.4081674440012
 20
427.8933841558470
 30
0.0000000000000000
 11
281.4081674440012
 21
420.1474174634321
 31
0.0000000000000000
  0
LINE
  5
AF
100
AcDbEntity
  8
MAIN0
  6
CONTINUOUS
 62
3
100
AcDbLine
 10
267.4081674440010
 20
420.1474174634320
 30
0.0000000000000000
 11
274.4081674440010
 21
416.0204008096394
 31
0.0000000000000000
  0
LINE
  5
B0
100
AcDbEntity
  8
MAIN0
  6
CONTINUOUS
 62
3
100
AcDbLine
 10
274.4081674440010
 20
416.0204008096396
 30
0.0000000000000000
 11
281.4081674440011
 21
420.1474174634322
 31
0.0000000000000000
  0
LINE
  5
B1
100
AcDbEntity
  8
MAIN0
  6
CONTINUOUS
 62
3
100
AcDbLine
 10
281.4081674440010
 20
427.8933841558468
 30
0.0000000000000000
 11
274.4081674440010
 21
432.0204008096395
 31
0.0000000000000000
  0
LINE
  5
B2
100
AcDbEntity
  8
MAIN0
  6
CONTINUOUS
 62
3
100
AcDbLine
 10
274.4081674440010
 20
432.0204008096395
 30
0.0000000000000000
 11
267.4081674440011
 21
427.8933841558469
 31
0.0000000000000000
  0
LINE
  5
B3
100
AcDbEntity
  8
MAIN0
  6
CONTINUOUS
 62
3
100
AcDbLine
 10
320.0124435592954
 20
391.5204008096396
 30
0.0000000000000000
 11
228.8038913287068
 21
391.5204008096397
 31
0.0000000000000000
  0
ARC
  5
B4
100
AcDbEntity
  8
MAIN0
  6
CONTINUOUS
 62
3
100
AcDbCircle
 10
274.4081674440011
 20
424.0204008096396
 30
0.0000000000000000
 40
56.00000000000000
100
AcDbArc
 50
324.5243339138656
 51
575.4756660861341
  0
ARC
  5
B5
100
AcDbEntity
  8
MAIN0
  6
CONTINUOUS
 62
3
100
AcDbCircle
 10
274.4081674440011
 20
424.0204008096396
 30
0.0000000000000000
 40
38.00000000000000
100
AcDbArc
 50
301.2111804982667
 51
598.7888195017331
  0
ARC
  5
B6
100
AcDbEntity
  8
MAIN0
  6
CONTINUOUS
 62
3
100
AcDbCircle
 10
274.4081674440011
 20
654.0204008096396
 30
0.0000000000000000
 40
56.00000000000000
100
AcDbArc
 50
144.5243339138659
 51
395.4756660861344
  0
LINE
  5
B7
100
AcDbEntity
  8
MAIN0
  6
CONTINUOUS
 62
3
100
AcDbLine
 10
320.0124435592954
 20
686.5204008096396
 30
0.0000000000000000
 11
228.8038913287068
 21
686.5204008096395
 31
0.0000000000000000
  0
ARC
  5
B8
100
AcDbEntity
  8
MAIN0
  6
CONTINUOUS
 62
3
100
AcDbCircle
 10
274.4081674440011
 20
654.0204008096396
 30
0.0000000000000000
 40
38.00000000000000
100
AcDbArc
 50
121.2111804982669
 51
418.7888195017332
  0
CIRCLE
  5
B9
100
AcDbEntity
  8
MAIN0
  6
CONTINUOUS
 62
3
100
AcDbCircle
 10
274.4081674440011
 20
654.0204008096396
 30
0.0000000000000000
 40
24.75000000000000
  0
CIRCLE
  5
BA
100
AcDbEntity
  8
MAIN0
  6
CONTINUOUS
 62
3
100
AcDbCircle
 10
274.4081674440011
 20
654.0204008096396
 30
0.0000000000000000
 40
21.00000000000000
  0
CIRCLE
  5
BB
100
AcDbEntity
  8
MAIN0
  6
CONTINUOUS
 62
3
100
AcDbCircle
 10
274.4081674440011
 20
654.0204008096396
 30
0.0000000000000000
 40
12.00000000000000
  0
LINE
  5
BC
100
AcDbEntity
  8
MAIN0
  6
CONTINUOUS
 62
3
100
AcDbLine
 10
274.4081674440010
 20
662.0204008096396
 30
0.0000000000000000
 11
281.4081674440011
 21
657.8933841558469
 31
0.0000000000000000
  0
LINE
  5
BD
100
AcDbEntity
  8
MAIN0
  6
CONTINUOUS
 62
3
100
AcDbLine
 10
267.4081674440010
 20
657.8933841558471
 30
0.0000000000000000
 11
274.4081674440010
 21
662.0204008096397
 31
0.0000000000000000
  0
LINE
  5
BE
100
AcDbEntity
  8
MAIN0
  6
CONTINUOUS
 62
3
100
AcDbLine
 10
267.4081674440012
 20
650.1474174634323
 30
0.0000000000000000
 11
267.4081674440012
 21
657.8933841558470
 31
0.0000000000000000
  0
LINE
  5
BF
100
AcDbEntity
  8
MAIN0
  6
CONTINUOUS
 62
3
100
AcDbLine
 10
274.4081674440010
 20
646.0204008096397
 30
0.0000000000000000
 11
267.4081674440011
 21
650.1474174634323
 31
0.0000000000000000
  0
LINE
  5
C0
100
AcDbEntity
  8
MAIN0
  6
CONTINUOUS
 62
3
100
AcDbLine
 10
281.4081674440010
 20
650.1474174634323
 30
0.0000000000000000
 11
274.4081674440010
 21
646.0204008096397
 31
0.0000000000000000
  0
LINE
  5
C1
100
AcDbEntity
  8
MAIN0
  6
CONTINUOUS
 62
3
100
AcDbLine
 10
281.4081674440012
 20
650.1474174634323
 30
0.0000000000000000
 11
281.4081674440012
 21
657.8933841558470
 31
0.0000000000000000
  0
ARC
  5
C2
100
AcDbEntity
  8
MAIN0
  6
CONTINUOUS
 62
3
100
AcDbCircle
 10
389.4081674440012
 20
539.0204008096396
 30
0.0000000000000000
 40
37.00000000000000
100
AcDbArc
 50
28.55263736018242
 51
331.4473626398176
  0
ARC
  5
C3
100
AcDbEntity
  8
MAIN0
  6
CONTINUOUS
 62
3
100
AcDbCircle
 10
274.4081674440011
 20
654.0204008096396
 30
0.0000000000000000
 40
37.00000000000000
100
AcDbArc
 50
118.5526373601825
 51
421.4473626398176
  0
ARC
  5
C4
100
AcDbEntity
  8
MAIN0
  6
CONTINUOUS
 62
3
100
AcDbCircle
 10
159.4081674440011
 20
539.0204008096396
 30
0.0000000000000000
 40
37.00000000000000
100
AcDbArc
 50
208.5526373601824
 51
511.4473626398176
  0
ARC
  5
C5
100
AcDbEntity
  8
MAIN0
  6
CONTINUOUS
 62
3
100
AcDbCircle
 10
274.4081674440011
 20
424.0204008096396
 30
0.0000000000000000
 40
37.00000000000000
100
AcDbArc
 50
298.5526373601824
 51
601.4473626398175
  0
LINE
  5
C6
100
AcDbEntity
  8
MAIN0
  6
CONTINUOUS
 62
3
100
AcDbLine
 10
636.3384594197619
 20
633.0204008096386
 30
0.0000000000000000
 11
658.8384594197619
 21
633.0204008096386
 31
0.0000000000000000
  0
LINE
  5
C7
100
AcDbEntity
  8
MAIN0
  6
CONTINUOUS
 62
3
100
AcDbLine
 10
658.8384594197619
 20
617.0204008096393
 30
0.0000000000000000
 11
658.8384594197619
 21
686.5204008096397
 31
0.0000000000000000
  0
LINE
  5
C8
100
AcDbEntity
  8
MAIN0
  6
CONTINUOUS
 62
3
100
AcDbLine
 10
636.3384594197621
 20
633.0204008096386
 30
0.0000000000000000
 11
636.3384594197621
 21
675.0204008096408
 31
0.0000000000000000
  0
LINE
  5
C9
100
AcDbEntity
  8
MAIN0
  6
CONTINUOUS
 62
3
100
AcDbLine
 10
636.3384594197619
 20
675.0204008096407
 30
0.0000000000000000
 11
658.8384594197623
 21
675.0204008096407
 31
0.0000000000000000
  0
LINE
  5
CA
100
AcDbEntity
  8
MAIN0
  6
CONTINUOUS
 62
3
100
AcDbLine
 10
658.8384594197619
 20
686.0204008096392
 30
0.0000000000000000
 11
658.8384594197619
 21
679.0204008096392
 31
0.0000000000000000
  0
LINE
  5
CB
100
AcDbEntity
  8
MAIN0
  6
CONTINUOUS
 62
3
100
AcDbLine
 10
658.8384594197619
 20
617.0204008096393
 30
0.0000000000000000
 11
683.8384594197619
 21
617.0204008096393
 31
0.0000000000000000
  0
LINE
  5
CC
100
AcDbEntity
  8
MAIN0
  6
CONTINUOUS
 62
3
100
AcDbLine
 10
683.8384594197619
 20
616.0204008096392
 30
0.0000000000000000
 11
702.8384594197619
 21
616.0204008096392
 31
0.0000000000000000
  0
LINE
  5
CD
100
AcDbEntity
  8
MAIN0
  6
CONTINUOUS
 62
3
100
AcDbLine
 10
702.8384594197619
 20
598.0204008096392
 30
0.0000000000000000
 11
722.8384594197619
 21
598.0204008096392
 31
0.0000000000000000
  0
LINE
  5
CE
100
AcDbEntity
  8
MAIN0
  6
CONTINUOUS
 62
3
100
AcDbLine
 10
702.8384594197620
 20
686.5204008096397
 30
0.0000000000000000
 11
702.8384594197620
 21
598.0204008096391
 31
0.0000000000000000
  0
LINE
  5
CF
100
AcDbEntity
  8
MAIN0
  6
CONTINUOUS
 62
3
100
AcDbLine
 10
722.8384594197621
 20
686.5204008096396
 30
0.0000000000000000
 11
658.8384594197619
 21
686.5204008096397
 31
0.0000000000000000
  0
LINE
  5
D0
100
AcDbEntity
  8
MAIN0
  6
PHANTOM
 62
3
100
AcDbLine
 10
1107.838459419762
 20
564.0204008096396
 30
0.0000000000000000
 11
1107.838459419762
 21
514.0204008096396
 31
0.0000000000000000
  0
LINE
  5
D1
100
AcDbEntity
  8
MAIN0
  6
CONTINUOUS
 62
3
100
AcDbLine
 10
683.8384594197619
 20
616.0204008096392
 30
0.0000000000000000
 11
683.8384594197619
 21
686.5204008096397
 31
0.0000000000000000
  0
LINE
  5
D2
100
AcDbEntity
  8
MAIN0
  6
CENTER
 62
3
100
AcDbLine
 10
625.5786460751974
 20
654.0204008096396
 30
0.0000000000000000
 11
742.1687009084512
 21
654.0204008096396
 31
0.0000000000000000
  0
LINE
  5
D3
100
AcDbEntity
  8
MAIN0
  6
CONTINUOUS
 62
3
100
AcDbLine
 10
636.3384594197619
 20
445.0204008096406
 30
0.0000000000000000
 11
658.8384594197619
 21
445.0204008096405
 31
0.0000000000000000
  0
LINE
  5
D4
100
AcDbEntity
  8
MAIN0
  6
CONTINUOUS
 62
3
100
AcDbLine
 10
658.8384594197619
 20
461.0204008096398
 30
0.0000000000000000
 11
658.8384594197619
 21
391.5204008096395
 31
0.0000000000000000
  0
LINE
  5
D5
100
AcDbEntity
  8
MAIN0
  6
CONTINUOUS
 62
3
100
AcDbLine
 10
636.3384594197621
 20
445.0204008096405
 30
0.0000000000000000
 11
636.3384594197621
 21
403.0204008096383
 31
0.0000000000000000
  0
LINE
  5
D6
100
AcDbEntity
  8
MAIN0
  6
CONTINUOUS
 62
3
100
AcDbLine
 10
636.3384594197619
 20
403.0204008096384
 30
0.0000000000000000
 11
658.8384594197623
 21
403.0204008096384
 31
0.0000000000000000
  0
LINE
  5
D7
100
AcDbEntity
  8
MAIN0
  6
CONTINUOUS
 62
3
100
AcDbLine
 10
658.8384594197619
 20
392.0204008096399
 30
0.0000000000000000
 11
658.8384594197619
 21
399.0204008096399
 31
0.0000000000000000
  0
LINE
  5
D8
100
AcDbEntity
  8
MAIN0
  6
CONTINUOUS
 62
3
100
AcDbLine
 10
658.8384594197619
 20
461.0204008096398
 30
0.0000000000000000
 11
683.8384594197619
 21
461.0204008096398
 31
0.0000000000000000
  0
LINE
  5
D9
100
AcDbEntity
  8
MAIN0
  6
CONTINUOUS
 62
3
100
AcDbLine
 10
683.8384594197619
 20
462.0204008096399
 30
0.0000000000000000
 11
702.8384594197619
 21
462.0204008096399
 31
0.0000000000000000
  0
LINE
  5
DA
100
AcDbEntity
  8
MAIN0
  6
CONTINUOUS
 62
3
100
AcDbLine
 10
702.8384594197619
 20
480.0204008096399
 30
0.0000000000000000
 11
722.8384594197619
 21
480.0204008096399
 31
0.0000000000000000
  0
LINE
  5
DB
100
AcDbEntity
  8
MAIN0
  6
CONTINUOUS
 62
3
100
AcDbLine
 10
702.8384594197620
 20
391.5204008096395
 30
0.0000000000000000
 11
702.8384594197620
 21
480.0204008096400
 31
0.0000000000000000
  0
LINE
  5
DC
100
AcDbEntity
  8
MAIN0
  6
CONTINUOUS
 62
3
100
AcDbLine
 10
722.8384594197621
 20
391.5204008096395
 30
0.0000000000000000
 11
658.8384594197619
 21
391.5204008096395
 31
0.0000000000000000
  0
LINE
  5
DD
100
AcDbEntity
  8
MAIN0
  6
CONTINUOUS
 62
3
100
AcDbLine
 10
683.8384594197619
 20
462.0204008096399
 30
0.0000000000000000
 11
683.8384594197619
 21
391.5204008096395
 31
0.0000000000000000
  0
LINE
  5
DE
100
AcDbEntity
  8
MAIN0
  6
CENTER
 62
3
100
AcDbLine
 10
625.5786460751974
 20
424.0204008096396
 30
0.0000000000000000
 11
742.1687009084512
 21
424.0204008096396
 31
0.0000000000000000
  0
LINE
  5
DF
100
AcDbEntity
  8
MAIN0
  6
CONTINUOUS
 62
3
100
AcDbLine
 10
722.8384594197621
 20
689.0204008096396
 30
0.0000000000000000
 11
722.8384594197621
 21
389.0204008096396
 31
0.0000000000000000
  0
LINE
  5
E0
100
AcDbEntity
  8
MAIN0
  6
PHANTOM
 62
3
100
AcDbLine
 10
1090.472936618497
 20
564.0204008096396
 30
0.0000000000000000
 11
1107.838459419762
 21
564.0204008096396
 31
0.0000000000000000
  0
LINE
  5
E1
100
AcDbEntity
  8
MAIN0
  6
PHANTOM
 62
3
100
AcDbLine
 10
1090.472936618497
 20
514.0204008096396
 30
0.0000000000000000
 11
1107.838459419762
 21
514.0204008096396
 31
0.0000000000000000
  0
LINE
  5
E2
100
AcDbEntity
  8
MAIN0
  6
CONTINUOUS
 62
3
100
AcDbLine
 10
962.8384594197621
 20
728.5204008096396
 30
0.0000000000000000
 11
1040.838459419762
 21
728.5204008096396
 31
0.0000000000000000
  0
LINE
  5
E3
100
AcDbEntity
  8
MAIN0
  6
CONTINUOUS
 62
3
100
AcDbLine
 10
962.8384594197621
 20
349.5204008096396
 30
0.0000000000000000
 11
1040.838459419762
 21
349.5204008096396
 31
0.0000000000000000
  0
LINE
  5
E4
100
AcDbEntity
  8
MAIN0
  6
CONTINUOUS
 62
3
100
AcDbLine
 10
1040.838459419762
 20
349.5204008096396
 30
0.0000000000000000
 11
1040.838459419762
 21
389.0204008096396
 31
0.0000000000000000
  0
LINE
  5
E5
100
AcDbEntity
  8
MAIN0
  6
CONTINUOUS
 62
3
100
AcDbLine
 10
962.8384594197621
 20
349.5204008096396
 30
0.0000000000000000
 11
962.8384594197621
 21
389.0204008096396
 31
0.0000000000000000
  0
LINE
  5
E6
100
AcDbEntity
  8
MAIN0
  6
CONTINUOUS
 62
3
100
AcDbLine
 10
962.8384594197621
 20
689.0204008096396
 30
0.0000000000000000
 11
962.8384594197621
 21
728.5204008096396
 31
0.0000000000000000
  0
LINE
  5
E7
100
AcDbEntity
  8
MAIN0
  6
CENTER
 62
3
100
AcDbLine
 10
1009.838459419762
 20
359.5204008096396
 30
0.0000000000000000
 11
993.8384594197621
 21
359.5204008096396
 31
0.0000000000000000
  0
LINE
  5
E8
100
AcDbEntity
  8
MAIN0
  6
CENTER
 62
3
100
AcDbLine
 10
1009.838459419762
 20
379.5204008096396
 30
0.0000000000000000
 11
993.8384594197621
 21
379.5204008096396
 31
0.0000000000000000
  0
LINE
  5
E9
100
AcDbEntity
  8
MAIN0
  6
CENTER
 62
3
100
AcDbLine
 10
1009.838459419762
 20
718.5204008096396
 30
0.0000000000000000
 11
993.8384594197621
 21
718.5204008096396
 31
0.0000000000000000
  0
LINE
  5
EA
100
AcDbEntity
  8
MAIN0
  6
CENTER
 62
3
100
AcDbLine
 10
1009.838459419762
 20
698.5204008096396
 30
0.0000000000000000
 11
993.8384594197621
 21
698.5204008096396
 31
0.0000000000000000
  0
CIRCLE
  5
EB
100
AcDbEntity
  8
MAIN0
  6
CONTINUOUS
 62
3
100
AcDbCircle
 10
872.8384594197621
 20
414.0204008096396
 30
0.0000000000000000
 40
4.000000000000000
  0
CIRCLE
  5
EC
100
AcDbEntity
  8
MAIN0
  6
CONTINUOUS
 62
3
100
AcDbCircle
 10
872.8384594197621
 20
414.0204008096396
 30
0.0000000000000000
 40
3.400000000000000
  0
CIRCLE
  5
ED
100
AcDbEntity
  8
MAIN0
  6
CONTINUOUS
 62
3
100
AcDbCircle
 10
947.8384594197619
 20
414.0204008096396
 30
0.0000000000000000
 40
4.000000000000000
  0
CIRCLE
  5
EE
100
AcDbEntity
  8
MAIN0
  6
CONTINUOUS
 62
3
100
AcDbCircle
 10
947.8384594197619
 20
414.0204008096396
 30
0.0000000000000000
 40
3.400000000000000
  0
LINE
  5
EF
100
AcDbEntity
  8
MAIN0
  6
CENTER
 62
3
100
AcDbLine
 10
805.8384594197619
 20
414.0204008096396
 30
0.0000000000000000
 11
789.8384594197619
 21
414.0204008096396
 31
0.0000000000000000
  0
LINE
  5
F0
100
AcDbEntity
  8
MAIN0
  6
CENTER
 62
3
100
AcDbLine
 10
797.8384594197619
 20
422.0204008096396
 30
0.0000000000000000
 11
797.8384594197619
 21
406.0204008096396
 31
0.0000000000000000
  0
LINE
  5
F1
100
AcDbEntity
  8
MAIN0
  6
CENTER
 62
3
100
AcDbLine
 10
880.8384594197621
 20
414.0204008096396
 30
0.0000000000000000
 11
864.8384594197621
 21
414.0204008096396
 31
0.0000000000000000
  0
LINE
  5
F2
100
AcDbEntity
  8
MAIN0
  6
CENTER
 62
3
100
AcDbLine
 10
872.8384594197621
 20
422.0204008096396
 30
0.0000000000000000
 11
872.8384594197621
 21
406.0204008096396
 31
0.0000000000000000
  0
LINE
  5
F3
100
AcDbEntity
  8
MAIN0
  6
CENTER
 62
3
100
AcDbLine
 10
955.8384594197619
 20
414.0204008096396
 30
0.0000000000000000
 11
939.8384594197619
 21
414.0204008096396
 31
0.0000000000000000
  0
LINE
  5
F4
100
AcDbEntity
  8
MAIN0
  6
CENTER
 62
3
100
AcDbLine
 10
947.8384594197619
 20
422.0204008096396
 30
0.0000000000000000
 11
947.8384594197619
 21
406.0204008096396
 31
0.0000000000000000
  0
CIRCLE
  5
F5
100
AcDbEntity
  8
MAIN0
  6
CONTINUOUS
 62
3
100
AcDbCircle
 10
797.8384594197619
 20
664.0204008096396
 30
0.0000000000000000
 40
4.000000000000000
  0
CIRCLE
  5
F6
100
AcDbEntity
  8
MAIN0
  6
CONTINUOUS
 62
3
100
AcDbCircle
 10
797.8384594197619
 20
664.0204008096396
 30
0.0000000000000000
 40
3.400000000000000
  0
CIRCLE
  5
F7
100
AcDbEntity
  8
MAIN0
  6
CONTINUOUS
 62
3
100
AcDbCircle
 10
872.8384594197621
 20
664.0204008096396
 30
0.0000000000000000
 40
4.000000000000000
  0
CIRCLE
  5
F8
100
AcDbEntity
  8
MAIN0
  6
CONTINUOUS
 62
3
100
AcDbCircle
 10
872.8384594197621
 20
664.0204008096396
 30
0.0000000000000000
 40
3.400000000000000
  0
CIRCLE
  5
F9
100
AcDbEntity
  8
MAIN0
  6
CONTINUOUS
 62
3
100
AcDbCircle
 10
947.8384594197619
 20
664.0204008096396
 30
0.0000000000000000
 40
4.000000000000000
  0
CIRCLE
  5
FA
100
AcDbEntity
  8
MAIN0
  6
CONTINUOUS
 62
3
100
AcDbCircle
 10
947.8384594197619
 20
664.0204008096396
 30
0.0000000000000000
 40
3.400000000000000
  0
LINE
  5
FB
100
AcDbEntity
  8
MAIN0
  6
CENTER
 62
3
100
AcDbLine
 10
805.8384594197619
 20
664.0204008096396
 30
0.0000000000000000
 11
789.8384594197619
 21
664.0204008096396
 31
0.0000000000000000
  0
LINE
  5
FC
100
AcDbEntity
  8
MAIN0
  6
CENTER
 62
3
100
AcDbLine
 10
797.8384594197619
 20
656.0204008096396
 30
0.0000000000000000
 11
797.8384594197619
 21
672.0204008096396
 31
0.0000000000000000
  0
LINE
  5
FD
100
AcDbEntity
  8
MAIN0
  6
CENTER
 62
3
100
AcDbLine
 10
880.8384594197621
 20
664.0204008096396
 30
0.0000000000000000
 11
864.8384594197621
 21
664.0204008096396
 31
0.0000000000000000
  0
LINE
  5
FE
100
AcDbEntity
  8
MAIN0
  6
CENTER
 62
3
100
AcDbLine
 10
872.8384594197621
 20
656.0204008096396
 30
0.0000000000000000
 11
872.8384594197621
 21
672.0204008096396
 31
0.0000000000000000
  0
LINE
  5
FF
100
AcDbEntity
  8
MAIN0
  6
CENTER
 62
3
100
AcDbLine
 10
955.8384594197619
 20
664.0204008096396
 30
0.0000000000000000
 11
939.8384594197619
 21
664.0204008096396
 31
0.0000000000000000
  0
LINE
  5
100
100
AcDbEntity
  8
MAIN0
  6
CENTER
 62
3
100
AcDbLine
 10
947.8384594197619
 20
656.0204008096396
 30
0.0000000000000000
 11
947.8384594197619
 21
672.0204008096396
 31
0.0000000000000000
  0
LINE
  5
101
100
AcDbEntity
  8
MAIN0
  6
CONTINUOUS
 62
3
100
AcDbLine
 10
962.8384594197621
 20
476.7704008096396
 30
0.0000000000000000
 11
962.8384594197621
 21
601.2704008096396
 31
0.0000000000000000
  0
LINE
  5
102
100
AcDbEntity
  8
MAIN0
  6
CONTINUOUS
 62
3
100
AcDbLine
 10
962.8384594197621
 20
601.2704008096396
 30
0.0000000000000000
 11
1040.838459419762
 21
601.2704008096396
 31
0.0000000000000000
  0
LINE
  5
103
100
AcDbEntity
  8
MAIN0
  6
CONTINUOUS
 62
3
100
AcDbLine
 10
962.8384594197621
 20
476.7704008096396
 30
0.0000000000000000
 11
1040.838459419762
 21
476.7704008096396
 31
0.0000000000000000
  0
LINE
  5
104
100
AcDbEntity
  8
MAIN0
  6
CENTER
 62
3
100
AcDbLine
 10
1037.338459419762
 20
495.0204008096396
 30
0.0000000000000000
 11
1011.338459419762
 21
495.0204008096396
 31
0.0000000000000000
  0
LINE
  5
105
100
AcDbEntity
  8
MAIN0
  6
CENTER
 62
3
100
AcDbLine
 10
1024.338459419762
 20
508.0204008096396
 30
0.0000000000000000
 11
1024.338459419762
 21
482.0204008096396
 31
0.0000000000000000
  0
LINE
  5
106
100
AcDbEntity
  8
MAIN0
  6
CENTER
 62
3
100
AcDbLine
 10
992.3384594197621
 20
495.0204008096396
 30
0.0000000000000000
 11
966.3384594197621
 21
495.0204008096396
 31
0.0000000000000000
  0
LINE
  5
107
100
AcDbEntity
  8
MAIN0
  6
CENTER
 62
3
100
AcDbLine
 10
979.3384594197621
 20
508.0204008096396
 30
0.0000000000000000
 11
979.3384594197621
 21
482.0204008096396
 31
0.0000000000000000
  0
LINE
  5
108
100
AcDbEntity
  8
MAIN0
  6
CENTER
 62
3
100
AcDbLine
 10
992.3384594197621
 20
583.0204008096396
 30
0.0000000000000000
 11
966.3384594197621
 21
583.0204008096396
 31
0.0000000000000000
  0
LINE
  5
109
100
AcDbEntity
  8
MAIN0
  6
CENTER
 62
3
100
AcDbLine
 10
979.3384594197621
 20
596.0204008096396
 30
0.0000000000000000
 11
979.3384594197621
 21
570.0204008096396
 31
0.0000000000000000
  0
LINE
  5
10A
100
AcDbEntity
  8
MAIN0
  6
CENTER
 62
3
100
AcDbLine
 10
1037.338459419762
 20
583.0204008096396
 30
0.0000000000000000
 11
1011.338459419762
 21
583.0204008096396
 31
0.0000000000000000
  0
LINE
  5
10B
100
AcDbEntity
  8
MAIN0
  6
CENTER
 62
3
100
AcDbLine
 10
1024.338459419762
 20
596.0204008096396
 30
0.0000000000000000
 11
1024.338459419762
 21
570.0204008096396
 31
0.0000000000000000
  0
LINE
  5
10C
100
AcDbEntity
  8
MAIN0
  6
CONTINUOUS
 62
3
100
AcDbLine
 10
857.8384594197621
 20
349.5204008096396
 30
0.0000000000000000
 11
857.8384594197621
 21
389.0204008096396
 31
0.0000000000000000
  0
LINE
  5
10D
100
AcDbEntity
  8
MAIN0
  6
CONTINUOUS
 62
3
100
AcDbLine
 10
857.8384594197621
 20
689.0204008096396
 30
0.0000000000000000
 11
857.8384594197621
 21
728.5204008096396
 31
0.0000000000000000
  0
LINE
  5
10E
100
AcDbEntity
  8
MAIN0
  6
CONTINUOUS
 62
3
100
AcDbLine
 10
783.8384594197620
 20
349.5204008096396
 30
0.0000000000000000
 11
783.8384594197620
 21
389.0204008096396
 31
0.0000000000000000
  0
LINE
  5
10F
100
AcDbEntity
  8
MAIN0
  6
CONTINUOUS
 62
3
100
AcDbLine
 10
783.8384594197620
 20
689.0204008096396
 30
0.0000000000000000
 11
783.8384594197620
 21
728.5204008096396
 31
0.0000000000000000
  0
LINE
  5
110
100
AcDbEntity
  8
MAIN0
  6
CONTINUOUS
 62
3
100
AcDbLine
 10
783.8384594197619
 20
349.5204008096396
 30
0.0000000000000000
 11
857.8384594197621
 21
349.5204008096396
 31
0.0000000000000000
  0
LINE
  5
111
100
AcDbEntity
  8
MAIN0
  6
CONTINUOUS
 62
3
100
AcDbLine
 10
783.8384594197620
 20
728.5204008096396
 30
0.0000000000000000
 11
857.8384594197621
 21
728.5204008096396
 31
0.0000000000000000
  0
LINE
  5
112
100
AcDbEntity
  8
MAIN0
  6
CONTINUOUS
 62
3
100
AcDbLine
 10
857.8384594197621
 20
601.2704008096396
 30
0.0000000000000000
 11
857.8384594197621
 21
476.7704008096396
 31
0.0000000000000000
  0
LINE
  5
113
100
AcDbEntity
  8
MAIN0
  6
CONTINUOUS
 62
3
100
AcDbLine
 10
783.8384594197620
 20
601.2704008096396
 30
0.0000000000000000
 11
783.8384594197620
 21
476.7704008096396
 31
0.0000000000000000
  0
LINE
  5
114
100
AcDbEntity
  8
MAIN0
  6
CONTINUOUS
 62
3
100
AcDbLine
 10
783.8384594197619
 20
601.2704008096396
 30
0.0000000000000000
 11
857.8384594197621
 21
601.2704008096396
 31
0.0000000000000000
  0
LINE
  5
115
100
AcDbEntity
  8
MAIN0
  6
CONTINUOUS
 62
3
100
AcDbLine
 10
783.8384594197620
 20
476.7704008096396
 30
0.0000000000000000
 11
857.8384594197621
 21
476.7704008096396
 31
0.0000000000000000
  0
LINE
  5
116
100
AcDbEntity
  8
MAIN0
  6
CENTER
 62
3
100
AcDbLine
 10
854.8384594197621
 20
556.5204008096396
 30
0.0000000000000000
 11
828.8384594197621
 21
556.5204008096396
 31
0.0000000000000000
  0
LINE
  5
117
100
AcDbEntity
  8
MAIN0
  6
CENTER
 62
3
100
AcDbLine
 10
841.8384594197621
 20
569.5204008096396
 30
0.0000000000000000
 11
841.8384594197621
 21
543.5204008096396
 31
0.0000000000000000
  0
LINE
  5
118
100
AcDbEntity
  8
MAIN0
  6
CENTER
 62
3
100
AcDbLine
 10
854.8384594197621
 20
521.5204008096396
 30
0.0000000000000000
 11
828.8384594197621
 21
521.5204008096396
 31
0.0000000000000000
  0
LINE
  5
119
100
AcDbEntity
  8
MAIN0
  6
CENTER
 62
3
100
AcDbLine
 10
841.8384594197621
 20
534.5204008096396
 30
0.0000000000000000
 11
841.8384594197621
 21
508.5204008096396
 31
0.0000000000000000
  0
LINE
  5
11A
100
AcDbEntity
  8
MAIN0
  6
CENTER
 62
3
100
AcDbLine
 10
812.8384594197619
 20
521.5204008096396
 30
0.0000000000000000
 11
786.8384594197619
 21
521.5204008096396
 31
0.0000000000000000
  0
LINE
  5
11B
100
AcDbEntity
  8
MAIN0
  6
CENTER
 62
3
100
AcDbLine
 10
799.8384594197619
 20
534.5204008096396
 30
0.0000000000000000
 11
799.8384594197619
 21
508.5204008096396
 31
0.0000000000000000
  0
LINE
  5
11C
100
AcDbEntity
  8
MAIN0
  6
CENTER
 62
3
100
AcDbLine
 10
812.8384594197619
 20
556.5204008096396
 30
0.0000000000000000
 11
786.8384594197619
 21
556.5204008096396
 31
0.0000000000000000
  0
LINE
  5
11D
100
AcDbEntity
  8
MAIN0
  6
CENTER
 62
3
100
AcDbLine
 10
799.8384594197619
 20
569.5204008096396
 30
0.0000000000000000
 11
799.8384594197619
 21
543.5204008096396
 31
0.0000000000000000
  0
LINE
  5
11E
100
AcDbEntity
  8
MAIN0
  6
CONTINUOUS
 62
3
100
AcDbLine
 10
989.8384594197621
 20
680.0204008096396
 30
0.0000000000000000
 11
1013.838459419762
 21
680.0204008096396
 31
0.0000000000000000
  0
LINE
  5
11F
100
AcDbEntity
  8
MAIN0
  6
CONTINUOUS
 62
3
100
AcDbLine
 10
989.8384594197621
 20
398.0204008096396
 30
0.0000000000000000
 11
1013.838459419762
 21
398.0204008096396
 31
0.0000000000000000
  0
LINE
  5
120
100
AcDbEntity
  8
MAIN0
  6
CONTINUOUS
 62
3
100
AcDbLine
 10
1013.838459419762
 20
389.0204008096396
 30
0.0000000000000000
 11
1013.838459419762
 21
398.0204008096396
 31
0.0000000000000000
  0
LINE
  5
121
100
AcDbEntity
  8
MAIN0
  6
CONTINUOUS
 62
3
100
AcDbLine
 10
1013.838459419762
 20
680.0204008096396
 30
0.0000000000000000
 11
1013.838459419762
 21
689.0204008096396
 31
0.0000000000000000
  0
LINE
  5
122
100
AcDbEntity
  8
MAIN0
  6
CONTINUOUS
 62
3
100
AcDbLine
 10
989.8384594197621
 20
389.0204008096396
 30
0.0000000000000000
 11
989.8384594197621
 21
398.0204008096396
 31
0.0000000000000000
  0
LINE
  5
123
100
AcDbEntity
  8
MAIN0
  6
CONTINUOUS
 62
3
100
AcDbLine
 10
989.8384594197621
 20
680.0204008096396
 30
0.0000000000000000
 11
989.8384594197621
 21
689.0204008096396
 31
0.0000000000000000
  0
LINE
  5
124
100
AcDbEntity
  8
MAIN0
  6
CONTINUOUS
 62
3
100
AcDbLine
 10
722.8384594197620
 20
389.0204008096396
 30
0.0000000000000000
 11
989.8384594197621
 21
389.0204008096396
 31
0.0000000000000000
  0
LINE
  5
125
100
AcDbEntity
  8
MAIN0
  6
CONTINUOUS
 62
3
100
AcDbLine
 10
1013.838459419762
 20
389.0204008096396
 30
0.0000000000000000
 11
1087.838459419762
 21
389.0204008096396
 31
0.0000000000000000
  0
LINE
  5
126
100
AcDbEntity
  8
MAIN0
  6
CONTINUOUS
 62
3
100
AcDbLine
 10
722.8384594197621
 20
689.0204008096396
 30
0.0000000000000000
 11
989.8384594197621
 21
689.0204008096396
 31
0.0000000000000000
  0
LINE
  5
127
100
AcDbEntity
  8
MAIN0
  6
CONTINUOUS
 62
3
100
AcDbLine
 10
1041.838459419762
 20
595.0204008096396
 30
0.0000000000000000
 11
1066.838459419762
 21
595.0204008096396
 31
0.0000000000000000
  0
LINE
  5
128
100
AcDbEntity
  8
MAIN0
  6
CONTINUOUS
 62
3
100
AcDbLine
 10
1041.838459419762
 20
483.0204008096396
 30
0.0000000000000000
 11
1066.838459419762
 21
483.0204008096396
 31
0.0000000000000000
  0
LINE
  5
129
100
AcDbEntity
  8
MAIN0
  6
CONTINUOUS
 62
3
100
AcDbLine
 10
722.8384594197621
 20
607.0204008096396
 30
0.0000000000000000
 11
1041.838459419762
 21
607.0204008096396
 31
0.0000000000000000
  0
LINE
  5
12A
100
AcDbEntity
  8
MAIN0
  6
CONTINUOUS
 62
3
100
AcDbLine
 10
1066.838459419762
 20
607.0204008096396
 30
0.0000000000000000
 11
1087.838459419762
 21
607.0204008096396
 31
0.0000000000000000
  0
LINE
  5
12B
100
AcDbEntity
  8
MAIN0
  6
CONTINUOUS
 62
3
100
AcDbLine
 10
722.8384594197621
 20
471.0204008096396
 30
0.0000000000000000
 11
1041.838459419762
 21
471.0204008096396
 31
0.0000000000000000
  0
LINE
  5
12C
100
AcDbEntity
  8
MAIN0
  6
CONTINUOUS
 62
3
100
AcDbLine
 10
1066.838459419762
 20
471.0204008096396
 30
0.0000000000000000
 11
1087.838459419762
 21
471.0204008096396
 31
0.0000000000000000
  0
LINE
  5
12D
100
AcDbEntity
  8
MAIN0
  6
CONTINUOUS
 62
3
100
AcDbLine
 10
722.8384594197621
 20
476.0204008096396
 30
0.0000000000000000
 11
1041.838459419762
 21
476.0204008096396
 31
0.0000000000000000
  0
LINE
  5
12E
100
AcDbEntity
  8
MAIN0
  6
CONTINUOUS
 62
3
100
AcDbLine
 10
1066.838459419762
 20
476.0204008096396
 30
0.0000000000000000
 11
1087.838459419762
 21
476.0204008096396
 31
0.0000000000000000
  0
LINE
  5
12F
100
AcDbEntity
  8
MAIN0
  6
CONTINUOUS
 62
3
100
AcDbLine
 10
722.8384594197620
 20
602.0204008096396
 30
0.0000000000000000
 11
1041.838459419762
 21
602.0204008096396
 31
0.0000000000000000
  0
LINE
  5
130
100
AcDbEntity
  8
MAIN0
  6
CONTINUOUS
 62
3
100
AcDbLine
 10
1066.838459419762
 20
602.0204008096396
 30
0.0000000000000000
 11
1087.838459419762
 21
602.0204008096396
 31
0.0000000000000000
  0
LINE
  5
131
100
AcDbEntity
  8
MAIN0
  6
HIDDEN
 62
3
100
AcDbLine
 10
722.8384594197621
 20
591.0204008096396
 30
0.0000000000000000
 11
1075.838459419762
 21
591.0204008096396
 31
0.0000000000000000
  0
LINE
  5
132
100
AcDbEntity
  8
MAIN0
  6
HIDDEN
 62
3
100
AcDbLine
 10
722.8384594197621
 20
487.0204008096396
 30
0.0000000000000000
 11
1075.838459419762
 21
487.0204008096396
 31
0.0000000000000000
  0
LINE
  5
133
100
AcDbEntity
  8
MAIN0
  6
HIDDEN
 62
3
100
AcDbLine
 10
1075.838459419762
 20
594.0204008096396
 30
0.0000000000000000
 11
1075.838459419762
 21
484.0204008096396
 31
0.0000000000000000
  0
LINE
  5
134
100
AcDbEntity
  8
MAIN0
  6
HIDDEN
 62
3
100
AcDbLine
 10
1075.838459419762
 20
594.0204008096396
 30
0.0000000000000000
 11
1087.838459419762
 21
594.0204008096396
 31
0.0000000000000000
  0
LINE
  5
135
100
AcDbEntity
  8
MAIN0
  6
HIDDEN
 62
3
100
AcDbLine
 10
1075.838459419762
 20
484.0204008096396
 30
0.0000000000000000
 11
1087.838459419762
 21
484.0204008096396
 31
0.0000000000000000
  0
LINE
  5
136
100
AcDbEntity
  8
MAIN0
  6
CONTINUOUS
 62
3
100
AcDbLine
 10
1066.838459419762
 20
389.0204008096396
 30
0.0000000000000000
 11
1066.838459419762
 21
483.0204008096396
 31
0.0000000000000000
  0
LINE
  5
137
100
AcDbEntity
  8
MAIN0
  6
CONTINUOUS
 62
3
100
AcDbLine
 10
1066.838459419762
 20
595.0204008096396
 30
0.0000000000000000
 11
1066.838459419762
 21
689.0204008096396
 31
0.0000000000000000
  0
LINE
  5
138
100
AcDbEntity
  8
MAIN0
  6
CONTINUOUS
 62
3
100
AcDbLine
 10
722.8384594197621
 20
647.0204008096396
 30
0.0000000000000000
 11
1040.838459419170
 21
647.0204008096396
 31
0.0000000000000000
  0
CIRCLE
  5
139
100
AcDbEntity
  8
MAIN0
  6
HIDDEN
 62
3
100
AcDbCircle
 10
274.4081674440011
 20
539.0204008096396
 30
0.0000000000000000
 40
52.00000000000000
  0
LINE
  5
13A
100
AcDbEntity
  8
MAIN0
  6
CONTINUOUS
 62
3
100
AcDbLine
 10
1040.838459419762
 20
509.0204008096396
 30
0.0000000000000000
 11
1087.838459419762
 21
509.0204008096396
 31
0.0000000000000000
  0
LINE
  5
13B
100
AcDbEntity
  8
MAIN0
  6
CONTINUOUS
 62
3
100
AcDbLine
 10
857.8384594197621
 20
509.0204008096396
 30
0.0000000000000000
 11
962.8384594197621
 21
509.0204008096396
 31
0.0000000000000000
  0
LINE
  5
13C
100
AcDbEntity
  8
MAIN0
  6
CONTINUOUS
 62
3
100
AcDbLine
 10
722.8384594197621
 20
509.0204008096396
 30
0.0000000000000000
 11
783.8384594197620
 21
509.0204008096396
 31
0.0000000000000000
  0
LINE
  5
13D
100
AcDbEntity
  8
MAIN0
  6
CONTINUOUS
 62
3
100
AcDbLine
 10
722.8384594197621
 20
569.0204008096396
 30
0.0000000000000000
 11
783.8384594197620
 21
569.0204008096396
 31
0.0000000000000000
  0
LINE
  5
13E
100
AcDbEntity
  8
MAIN0
  6
CONTINUOUS
 62
3
100
AcDbLine
 10
857.8384594197621
 20
569.0204008096396
 30
0.0000000000000000
 11
962.8384594197621
 21
569.0204008096396
 31
0.0000000000000000
  0
LINE
  5
13F
100
AcDbEntity
  8
MAIN0
  6
CONTINUOUS
 62
3
100
AcDbLine
 10
1040.838459419762
 20
569.0204008096396
 30
0.0000000000000000
 11
1087.838459419762
 21
569.0204008096396
 31
0.0000000000000000
  0
LINE
  5
140
100
AcDbEntity
  8
MAIN0
  6
CONTINUOUS
 62
3
100
AcDbLine
 10
1013.838459419762
 20
689.0204008096396
 30
0.0000000000000000
 11
1041.838459419762
 21
689.0204008096396
 31
0.0000000000000000
  0
LINE
  5
141
100
AcDbEntity
  8
MAIN0
  6
CONTINUOUS
 62
3
100
AcDbLine
 10
1041.838459419762
 20
689.0204008096396
 30
0.0000000000000000
 11
1087.838459419762
 21
689.0204008096396
 31
0.0000000000000000
  0
LINE
  5
142
100
AcDbEntity
  8
MAIN0
  6
PHANTOM
 62
3
100
AcDbLine
 10
1044.838459419762
 20
482.3549245887515
 30
0.0000000000000000
 11
1066.838459419762
 21
482.3549245887515
 31
0.0000000000000000
  0
LINE
  5
143
100
AcDbEntity
  8
MAIN0
  6
PHANTOM
 62
3
100
AcDbLine
 10
1044.838459419762
 20
416.5939939384467
 30
0.0000000000000000
 11
1066.838459419762
 21
416.5939939384467
 31
0.0000000000000000
  0
LINE
  5
144
100
AcDbEntity
  8
MAIN0
  6
PHANTOM
 62
3
100
AcDbLine
 10
1044.838459419762
 20
416.5939939384467
 30
0.0000000000000000
 11
1044.838459419762
 21
482.3549245887515
 31
0.0000000000000000
  0
LINE
  5
145
100
AcDbEntity
  8
MAIN0
  6
CENTER
 62
3
100
AcDbLine
 10
1022.198053671365
 20
459.0204008096396
 30
0.0000000000000000
 11
1111.141054519842
 21
459.0204008096396
 31
0.0000000000000000
  0
LINE
  5
146
100
AcDbEntity
  8
MAIN0
  6
PHANTOM
 62
3
100
AcDbLine
 10
1057.838459419762
 20
596.2404405477950
 30
0.0000000000000000
 11
1066.838459419762
 21
596.2404405477950
 31
0.0000000000000000
  0
LINE
  5
147
100
AcDbEntity
  8
MAIN0
  6
PHANTOM
 62
3
100
AcDbLine
 10
1066.838459419762
 20
603.6650617501498
 30
0.0000000000000000
 11
1086.838459419762
 21
603.6650617501498
 31
0.0000000000000000
  0
LINE
  5
148
100
AcDbEntity
  8
MAIN0
  6
PHANTOM
 62
3
100
AcDbLine
 10
1057.838459419762
 20
697.3567102575297
 30
0.0000000000000000
 11
1087.838459419762
 21
697.3567102575297
 31
0.0000000000000000
  0
LINE
  5
149
100
AcDbEntity
  8
MAIN0
  6
PHANTOM
 62
3
100
AcDbLine
 10
1086.838459419762
 20
644.3237016685384
 30
0.0000000000000000
 11
1087.838459419762
 21
644.3237016685384
 31
0.0000000000000000
  0
LINE
  5
14A
100
AcDbEntity
  8
MAIN0
  6
PHANTOM
 62
3
100
AcDbLine
 10
1057.838459419762
 20
596.2404405477950
 30
0.0000000000000000
 11
1057.838459419762
 21
697.3567102575297
 31
0.0000000000000000
  0
LINE
  5
14B
100
AcDbEntity
  8
MAIN0
  6
PHANTOM
 62
3
100
AcDbLine
 10
1087.838459419762
 20
697.3567102575297
 30
0.0000000000000000
 11
1087.838459419762
 21
689.0204008096396
 31
0.0000000000000000
  0
LINE
  5
14C
100
AcDbEntity
  8
MAIN0
  6
PHANTOM
 62
3
100
AcDbLine
 10
1057.838459419762
 20
651.3947694804039
 30
0.0000000000000000
 11
1087.838459419762
 21
651.3947694804039
 31
0.0000000000000000
  0
LINE
  5
14D
100
AcDbEntity
  8
MAIN0
  6
CONTINUOUS
 62
3
100
AcDbLine
 10
1066.838459419762
 20
689.0204008096396
 30
0.0000000000000000
 11
1066.838459419762
 21
679.0204008096396
 31
0.0000000000000000
  0
LINE
  5
14E
100
AcDbEntity
  8
MAIN0
  6
CENTER
 62
3
100
AcDbLine
 10
1035.169897422258
 20
639.0204008096396
 30
0.0000000000000000
 11
1096.391187128631
 21
639.0204008096396
 31
0.0000000000000000
  0
DIMENSION
  5
157
100
AcDbEntity
  8
MAIN0
  6
CONTINUOUS
 62
3
100
AcDbDimension
  2
*D0
 10
374.4081674440011
 20
806.7894851460924
 30
0.0000000000000000
 11
324.4081674440011
 21
807.2894851460924
 31
0.0000000000000000
 70
32
  3
MAIN001
100
AcDbAlignedDimension
 13
274.4081674440011
 23
740.9177190812840
 33
0.0000000000000000
 14
374.4081674440011
 24
655.0204008096396
 34
0.0000000000000000
100
AcDbRotatedDimension
1001
ACAD
1000
DSTYLE
1002
{
1070
   173
1070
     1
1070
     6
1000
_OPEN
1070
     7
1000
_OPEN
1070
    41
1040
4.000000
1002
}
  0
INSERT
  5
15F
100
AcDbEntity
  8
MAIN0
  6
CONTINUOUS
 62
3
100
AcDbBlockReference
  2
D1
 10
274.4081674440011
 20
740.9177190812840
 30
0.0000000000000000
 50
0.0000000000000000
  0
DIMENSION
  5
168
100
AcDbEntity
  8
MAIN0
  6
CONTINUOUS
 62
3
100
AcDbDimension
  2
*D2
 10
354.4081674440011
 20
307.4697276685167
 30
0.0000000000000000
 11
314.4081674440011
 21
307.9697276685167
 31
0.0000000000000000
 70
32
  3
MAIN001
100
AcDbAlignedDimension
 13
274.4081674440011
 23
329.4754440873684
 33
0.0000000000000000
 14
354.4081674440011
 24
443.0204008096396
 34
0.0000000000000000
100
AcDbRotatedDimension
1001
ACAD
1000
DSTYLE
1002
{
1070
   173
1070
     1
1070
     6
1000
_OPEN
1070
     7
1000
_OPEN
1070
    41
1040
4.000000
1002
}
  0
INSERT
  5
170
100
AcDbEntity
  8
MAIN0
  6
CONTINUOUS
 62
3
100
AcDbBlockReference
  2
D3
 10
274.4081674440011
 20
329.4754440873684
 30
0.0000000000000000
 50
0.0000000000000000
  0
DIMENSION
  5
179
100
AcDbEntity
  8
MAIN0
  6
CONTINUOUS
 62
3
100
AcDbDimension
  2
*D4
 10
544.3509906953572
 20
601.2704008096396
 30
0.0000000000000000
 11
543.3509906953572
 21
562.4525439796764
 31
0.0000000000000000
 70
160
  3
MAIN001
100
AcDbAlignedDimension
 13
463.9081674440011
 23
476.7704008096396
 33
0.0000000000000000
 14
463.9081674440011
 24
601.2704008096396
 34
0.0000000000000000
 50
90.00000000000000
100
AcDbRotatedDimension
1001
ACAD
1000
DSTYLE
1002
{
1070
   173
1070
     1
1070
     6
1000
_OPEN
1070
     7
1000
_OPEN
1070
    41
1040
4.000000
1002
}
  0
DIMENSION
  5
182
100
AcDbEntity
  8
MAIN0
  6
CONTINUOUS
 62
3
100
AcDbDimension
  2
*D5
 10
566.6253406093640
 20
389.0204008096396
 30
0.0000000000000000
 11
566.1253406093640
 21
539.0204008096396
 31
0.0000000000000000
 70
32
  3
MAIN001
100
AcDbAlignedDimension
 13
337.4081674440012
 23
689.0204008096396
 33
0.0000000000000000
 14
337.4081674440011
 24
389.0204008096396
 34
0.0000000000000000
 50
90.00000000000000
100
AcDbRotatedDimension
1001
ACAD
1000
DSTYLE
1002
{
1070
   173
1070
     1
1070
     6
1000
_OPEN
1070
     7
1000
_OPEN
1070
    41
1040
4.000000
1002
}
  0
DIMENSION
  5
18B
100
AcDbEntity
  8
MAIN0
  6
CONTINUOUS
 62
3
100
AcDbDimension
  2
*D6
 10
589.1361793196012
 20
728.5204008096396
 30
0.0000000000000000
 11
588.6361793196012
 21
539.0204008096396
 31
0.0000000000000000
 70
32
  3
MAIN001
100
AcDbAlignedDimension
 13
336.6581674440010
 23
349.5204008096396
 33
0.0000000000000000
 14
336.6581674440011
 24
728.5204008096396
 34
0.0000000000000000
 50
90.00000000000000
100
AcDbRotatedDimension
1001
ACAD
1000
DSTYLE
1002
{
1070
   173
1070
     1
1070
     6
1000
_OPEN
1070
     7
1000
_OPEN
1070
    41
1040
4.000000
1002
}
  0
DIMENSION
  5
194
100
AcDbEntity
  8
MAIN0
  6
CONTINUOUS
 62
3
100
AcDbDimension
  2
*D7
 10
566.6253406093640
 20
389.0204008096396
 30
0.0000000000000000
 11
566.1253406093640
 21
369.2704008096396
 31
0.0000000000000000
 70
32
  3
MAIN001
100
AcDbAlignedDimension
 13
336.6581674440010
 23
349.5204008096396
 33
0.0000000000000000
 14
337.4081674440011
 24
389.0204008096396
 34
0.0000000000000000
 50
90.00000000000000
100
AcDbRotatedDimension
1001
ACAD
1000
DSTYLE
1002
{
1070
   173
1070
     1
1070
     6
1000
_OPEN
1070
     7
1000
_OPEN
1070
    41
1040
4.000000
1002
}
  0
DIMENSION
  5
19D
100
AcDbEntity
  8
MAIN0
  6
CONTINUOUS
 62
3
100
AcDbDimension
  2
*D8
 10
566.6253406093640
 20
689.0204008096396
 30
0.0000000000000000
 11
566.1253406093640
 21
708.7704008096396
 31
0.0000000000000000
 70
32
  3
MAIN001
100
AcDbAlignedDimension
 13
336.6581674440011
 23
728.5204008096396
 33
0.0000000000000000
 14
337.4081674440012
 24
689.0204008096396
 34
0.0000000000000000
 50
90.00000000000000
100
AcDbRotatedDimension
1001
ACAD
1000
DSTYLE
1002
{
1070
   173
1070
     1
1070
     6
1000
_OPEN
1070
     7
1000
_OPEN
1070
    41
1040
4.000000
1002
}
  0
MTEXT
  5
19E
100
AcDbEntity
  8
MAIN0
  6
CONTINUOUS
 62
3
100
AcDbMText
 10
391.0696049565468
 20
652.1776278841818
 30
0.0000000000000000
 40
6.199999809265137
 41
0.0000000000000000
 71
     1
 72
     1
  1
{\H0.90x;{M16}}
 11
1.000000000000000
 21
0.0000000000000000
 31
0.0000000000000000
  7
STANDARD
  0
MTEXT
  5
19F
100
AcDbEntity
  8
MAIN0
  6
CONTINUOUS
 62
3
100
AcDbMText
 10
368.5690413817266
 20
470.4305731657570
 30
0.0000000000000000
 40
6.199999809265137
 41
0.0000000000000000
 71
     1
 72
     1
  1
{\H0.90x;{M16}}
 11
1.000000000000000
 21
0.0000000000000000
 31
0.0000000000000000
  7
STANDARD
  0
LEADER
  5
1A0
100
AcDbEntity
  8
MAIN0
  6
CONTINUOUS
 62
3
100
AcDbLeader
  3
MAIN001
 73
     0
 74
     0
 75
     1
 40
6.199999809265137
 41
66.44204596210932
 76
     3
 10
398.1303807426280
 20
686.0088656296673
 30
0.0000000000000000
 10
392.8253340515995
 20
741.1227110692639
 30
0.0000000000000000
 10
396.6763339400196
 20
741.1227110692639
 30
0.0000000000000000
340
1A1
213
2.397955620990047
223
-1.000000000000000
233
0.0000000000000000
1001
ACAD
1000
DSTYLE
1002
{
1070
   147
1040
0.0
1070
    77
1070
     1
1070
   173
1070
     1
1070
     6
1000
_OPEN
1070
     7
1000
_OPEN
1002
}
  0
MTEXT
  5
1A1
102
{ACAD_REACTORS
330
1A0
102
}
100
AcDbEntity
  8
MAIN0
  6
CONTINUOUS
 62
3
100
AcDbMText
 10
394.2783783190296
 20
748.3227108785291
 30
0.0000000000000000
 40
6.199999809265137
 41
0.0000000000000000
 71
     1
 72
     1
  1
{\H0.94x;{クランプ（標準付属）\P（□500）}}
 11
1.000000000000000
 21
0.0000000000000000
 31
0.0000000000000000
  7
KNJYOKO
  0
LEADER
  5
1A2
100
AcDbEntity
  8
MAIN0
  6
CONTINUOUS
 62
3
100
AcDbLeader
  3
MAIN001
 73
     0
 74
     0
 75
     1
 40
6.199999809265137
 41
68.84100158309934
 76
     3
 10
371.9720783774344
 20
448.3000404956109
 30
0.0000000000000000
 10
375.6512503996361
 20
430.0241988104216
 30
0.0000000000000000
 10
379.5022502880563
 20
430.0241988104217
 30
0.0000000000000000
340
1A3
213
0.0000000000000000
223
-1.000000000000000
233
0.0000000000000000
1001
ACAD
1000
DSTYLE
1002
{
1070
   147
1040
0.0
1070
    77
1070
     1
1070
   173
1070
     1
1070
     6
1000
_OPEN
1070
     7
1000
_OPEN
1002
}
  0
MTEXT
  5
1A3
102
{ACAD_REACTORS
330
1A2
102
}
100
AcDbEntity
  8
MAIN0
  6
CONTINUOUS
 62
3
100
AcDbMText
 10
379.5032502880562
 20
437.2241986196868
 30
0.0000000000000000
 40
6.199999809265137
 41
0.0000000000000000
 71
     1
 72
     1
  1
{\H0.94x;{クランプ（特別付属）\P（□400）}}
 11
1.000000000000000
 21
0.0000000000000000
 31
0.0000000000000000
  7
KNJYOKO
  0
DIMENSION
  5
1AC
100
AcDbEntity
  8
MAIN0
  6
CONTINUOUS
 62
3
100
AcDbDimension
  2
*D9
 10
562.9866459180271
 20
332.4603517719415
 30
0.0000000000000000
 11
571.1183739016724
 21
325.0357305694827
 31
0.0000000000000000
 70
33
  3
MAIN001
100
AcDbAlignedDimension
 13
565.8180516333458
 23
304.1790591150522
 33
0.0000000000000000
 14
550.2617024472417
 24
319.7354083011562
 34
0.0000000000000000
 50
135.0000000000000
1001
ACAD
1000
DSTYLE
1002
{
1070
   173
1070
     1
1070
     6
1000
_OPEN
1070
     7
1000
_OPEN
1070
    41
1040
4.000000
1002
}
  0
DIMENSION
  5
1B5
100
AcDbEntity
  8
MAIN0
  6
CONTINUOUS
 62
3
100
AcDbDimension
  2
*D10
 10
593.3922375090485
 20
302.0547601809200
 30
0.0000000000000000
 11
586.3211696971831
 21
309.8329347739721
 31
0.0000000000000000
 70
32
  1
\A1;（21）
  3
MAIN001
100
AcDbAlignedDimension
 13
565.8180516333457
 23
304.1790591150521
 33
0.0000000000000000
 14
562.8800798178047
 24
271.5426024896762
 34
0.0000000000000000
 50
135.0000000000000
100
AcDbRotatedDimension
1001
ACAD
1000
DSTYLE
1002
{
1070
   173
1070
     1
1070
     6
1000
_OPEN
1070
     7
1000
_OPEN
1070
    41
1040
4.000000
1070
   340
1005
1B6
1002
}
  0
DIMENSION
  5
1BF
100
AcDbEntity
  8
MAIN0
  6
CONTINUOUS
 62
3
100
AcDbDimension
  2
*D11
 10
1132.664590959446
 20
564.0204008096396
 30
0.0000000000000000
 11
1132.164590959446
 21
536.9204008081495
 31
0.0000000000000000
 70
32
  1
\A1;\U+220550h6
  3
MAIN001
100
AcDbAlignedDimension
 13
1107.838459419762
 23
514.0204008096396
 33
0.0000000000000000
 14
1107.838459419762
 24
564.0204008096396
 34
0.0000000000000000
 50
90.00000000000000
100
AcDbRotatedDimension
1001
ACAD
1000
DSTYLE
1002
{
1070
   173
1070
     1
1070
     6
1000
_OPEN
1070
     7
1000
_OPEN
1070
    41
1040
4.000000
1002
}
  0
DIMENSION
  5
1C8
100
AcDbEntity
  8
MAIN0
  6
CONTINUOUS
 62
3
100
AcDbDimension
  2
*D12
 10
1147.553405962188
 20
594.0204008096396
 30
0.0000000000000000
 11
1147.053405962188
 21
536.9204008081495
 31
0.0000000000000000
 70
32
  1
\A1;\U+2205110H6
  3
MAIN001
100
AcDbAlignedDimension
 13
1087.838459419762
 23
484.0204008096396
 33
0.0000000000000000
 14
1087.838459419762
 24
594.0204008096396
 34
0.0000000000000000
 50
90.00000000000000
100
AcDbRotatedDimension
1001
ACAD
1000
DSTYLE
1002
{
1070
   173
1070
     1
1070
     6
1000
_OPEN
1070
     7
1000
_OPEN
1070
    41
1040
4.000000
1002
}
  0
LEADER
  5
1C9
100
AcDbEntity
  8
MAIN0
  6
CONTINUOUS
 62
3
100
AcDbLeader
  3
MAIN001
 73
     0
 74
     0
 75
     1
 40
6.199999809265137
 41
47.96100111103056
 76
     3
 10
1093.670065862112
 20
514.0204008096396
 30
0.0000000000000000
 10
1112.926354317081
 20
467.4969629705586
 30
0.0000000000000000
 10
1116.777354205501
 20
467.4969629705586
 30
0.0000000000000000
340
1CA
213
0.0000000000000000
223
-1.000000000000000
233
0.0000000000000000
1001
ACAD
1000
DSTYLE
1002
{
1070
   147
1040
0.0
1070
    77
1070
     1
1070
   173
1070
     1
1070
     6
1000
_OPEN
1070
     7
1000
_OPEN
1002
}
  0
MTEXT
  5
1CA
102
{ACAD_REACTORS
330
1C9
102
}
100
AcDbEntity
  8
MAIN0
  6
CONTINUOUS
 62
3
100
AcDbMText
 10
1116.778354205501
 20
474.6969627798237
 30
0.0000000000000000
 40
6.199999809265137
 41
0.0000000000000000
 71
     1
 72
     1
  1
{\H0.93x;{プラグ\P（オプション）}}
 11
1.000000000000000
 21
0.0000000000000000
 31
0.0000000000000000
  7
KNJYOKO
  0
DIMENSION
  5
1D2
100
AcDbEntity
  8
MAIN0
  6
CONTINUOUS
 62
3
100
AcDbDimension
  2
*D13
 10
722.8384594197621
 20
438.6376319959338
 30
0.0000000000000000
 11
760.3384594197620
 21
439.1376319959338
 31
0.0000000000000000
 70
32
  3
MAIN001
100
AcDbAlignedDimension
 13
797.8384594197619
 23
422.0204008096396
 33
0.0000000000000000
 14
722.8384594197621
 24
389.0204008096396
 34
0.0000000000000000
100
AcDbRotatedDimension
1001
ACAD
1000
DSTYLE
1002
{
1070
   173
1070
     1
1070
     6
1000
_OPEN
1070
     7
1000
_OPEN
1070
    41
1040
4.000000
1002
}
  0
DIMENSION
  5
1DB
100
AcDbEntity
  8
MAIN0
  6
CONTINUOUS
 62
3
100
AcDbDimension
  2
*D14
 10
797.8384594197619
 20
438.6376319959338
 30
0.0000000000000000
 11
835.3384594197619
 21
439.1376319959338
 31
0.0000000000000000
 70
32
  3
MAIN001
100
AcDbAlignedDimension
 13
872.8384594197621
 23
422.0204008096396
 33
0.0000000000000000
 14
797.8384594197619
 24
422.0204008096396
 34
0.0000000000000000
100
AcDbRotatedDimension
1001
ACAD
1000
DSTYLE
1002
{
1070
   173
1070
     1
1070
     6
1000
_OPEN
1070
     7
1000
_OPEN
1070
    41
1040
4.000000
1002
}
  0
DIMENSION
  5
1E4
100
AcDbEntity
  8
MAIN0
  6
CONTINUOUS
 62
3
100
AcDbDimension
  2
*D15
 10
872.8384594197621
 20
438.6376319959338
 30
0.0000000000000000
 11
910.3384594197619
 21
439.1376319959338
 31
0.0000000000000000
 70
32
  3
MAIN001
100
AcDbAlignedDimension
 13
947.8384594197619
 23
422.0204008096396
 33
0.0000000000000000
 14
872.8384594197621
 24
422.0204008096396
 34
0.0000000000000000
100
AcDbRotatedDimension
1001
ACAD
1000
DSTYLE
1002
{
1070
   173
1070
     1
1070
     6
1000
_OPEN
1070
     7
1000
_OPEN
1070
    41
1040
4.000000
1002
}
  0
DIMENSION
  5
1EC
100
AcDbEntity
  8
MAIN0
  6
CONTINUOUS
 62
3
100
AcDbDimension
  2
*D16
 10
764.3657543115453
 20
414.0204008096396
 30
0.0000000000000000
 11
763.8657543115453
 21
401.5204008096396
 31
0.0000000000000000
 70
32
  3
MAIN001
100
AcDbAlignedDimension
 13
722.8384594197620
 23
389.0204008096396
 33
0.0000000000000000
 14
789.8384594197619
 24
414.0204008096396
 34
0.0000000000000000
 50
90.00000000000000
100
AcDbRotatedDimension
1001
ACAD
1000
DSTYLE
1002
{
1070
   173
1070
     1
1070
     6
1000
_OPEN
1070
     7
1000
_OPEN
1070
    41
1040
4.000000
1002
}
  0
DIMENSION
  5
1F5
100
AcDbEntity
  8
MAIN0
  6
CONTINUOUS
 62
3
100
AcDbDimension
  2
*D17
 10
1001.838459419762
 20
320.1497292632821
 30
0.0000000000000000
 11
982.3384594197621
 21
320.6497292632821
 31
0.0000000000000000
 70
32
  3
MAIN001
100
AcDbAlignedDimension
 13
962.8384594197621
 23
349.5204008096396
 33
0.0000000000000000
 14
1001.838459419762
 24
351.5204008096396
 34
0.0000000000000000
100
AcDbRotatedDimension
1001
ACAD
1000
DSTYLE
1002
{
1070
   173
1070
     1
1070
     6
1000
_OPEN
1070
     7
1000
_OPEN
1070
    41
1040
4.000000
1002
}
  0
DIMENSION
  5
1FE
100
AcDbEntity
  8
MAIN0
  6
CONTINUOUS
 62
3
100
AcDbDimension
  2
*D18
 10
1087.838459419762
 20
299.2401065539024
 30
0.0000000000000000
 11
1064.338459419762
 21
299.7401065539024
 31
0.0000000000000000
 70
32
  3
MAIN001
100
AcDbAlignedDimension
 13
1040.838459419762
 23
349.5204008096396
 33
0.0000000000000000
 14
1087.838459419762
 24
389.0204008096396
 34
0.0000000000000000
100
AcDbRotatedDimension
1001
ACAD
1000
DSTYLE
1002
{
1070
   173
1070
     1
1070
     6
1000
_OPEN
1070
     7
1000
_OPEN
1070
    41
1040
4.000000
1002
}
  0
DIMENSION
  5
207
100
AcDbEntity
  8
MAIN0
  6
CONTINUOUS
 62
3
100
AcDbDimension
  2
*D19
 10
1040.838459419762
 20
299.2401065539024
 30
0.0000000000000000
 11
1001.838459419762
 21
299.7401065539024
 31
0.0000000000000000
 70
32
  3
MAIN001
100
AcDbAlignedDimension
 13
962.8384594197621
 23
349.5204008096396
 33
0.0000000000000000
 14
1040.838459419762
 24
349.5204008096396
 34
0.0000000000000000
100
AcDbRotatedDimension
1001
ACAD
1000
DSTYLE
1002
{
1070
   173
1070
     1
1070
     6
1000
_OPEN
1070
     7
1000
_OPEN
1070
    41
1040
4.000000
1002
}
  0
DIMENSION
  5
210
100
AcDbEntity
  8
MAIN0
  6
CONTINUOUS
 62
3
100
AcDbDimension
  2
*D20
 10
1087.838459419762
 20
278.3304736663143
 30
0.0000000000000000
 11
1025.338459419762
 21
278.8304736663143
 31
0.0000000000000000
 70
32
  3
MAIN001
100
AcDbAlignedDimension
 13
962.8384594197621
 23
349.5204008096396
 33
0.0000000000000000
 14
1087.838459419762
 24
389.0204008096396
 34
0.0000000000000000
100
AcDbRotatedDimension
1001
ACAD
1000
DSTYLE
1002
{
1070
   173
1070
     1
1070
     6
1000
_OPEN
1070
     7
1000
_OPEN
1070
    41
1040
4.000000
1002
}
  0
DIMENSION
  5
219
100
AcDbEntity
  8
MAIN0
  6
CONTINUOUS
 62
3
100
AcDbDimension
  2
*D21
 10
962.8384594197621
 20
278.3304736663143
 30
0.0000000000000000
 11
910.3384594197621
 21
278.8304736663143
 31
0.0000000000000000
 70
32
  1
\A1;MAX168
  3
MAIN001
100
AcDbAlignedDimension
 13
857.8384594197621
 23
349.5204008096396
 33
0.0000000000000000
 14
962.8384594197621
 24
349.5204008096396
 34
0.0000000000000000
100
AcDbRotatedDimension
1001
ACAD
1000
DSTYLE
1002
{
1070
   173
1070
     1
1070
     6
1000
_OPEN
1070
     7
1000
_OPEN
1070
    41
1040
4.000000
1002
}
  0
DIMENSION
  5
222
100
AcDbEntity
  8
MAIN0
  6
CONTINUOUS
 62
3
100
AcDbDimension
  2
*D22
 10
1087.838459419762
 20
260.1015569412685
 30
0.0000000000000000
 11
905.3384594197621
 21
260.6015569412685
 31
0.0000000000000000
 70
32
  3
MAIN001
100
AcDbAlignedDimension
 13
722.8384594197621
 23
389.0204008096396
 33
0.0000000000000000
 14
1087.838459419762
 24
389.0204008096396
 34
0.0000000000000000
100
AcDbRotatedDimension
1001
ACAD
1000
DSTYLE
1002
{
1070
   173
1070
     1
1070
     6
1000
_OPEN
1070
     7
1000
_OPEN
1070
    41
1040
4.000000
1002
}
  0
DIMENSION
  5
22B
100
AcDbEntity
  8
MAIN0
  6
CONTINUOUS
 62
3
100
AcDbDimension
  2
*D23
 10
722.8384594197621
 20
260.1015569412685
 30
0.0000000000000000
 11
679.5884594197621
 21
260.6015569412685
 31
0.0000000000000000
 70
32
  3
MAIN001
100
AcDbAlignedDimension
 13
636.3384594197621
 23
403.0204008096383
 33
0.0000000000000000
 14
722.8384594197621
 24
389.0204008096396
 34
0.0000000000000000
100
AcDbRotatedDimension
1001
ACAD
1000
DSTYLE
1002
{
1070
   173
1070
     1
1070
     6
1000
_OPEN
1070
     7
1000
_OPEN
1070
    41
1040
4.000000
1002
}
  0
DIMENSION
  5
234
100
AcDbEntity
  8
MAIN0
  6
CONTINUOUS
 62
3
100
AcDbDimension
  2
*D24
 10
1107.838459419762
 20
238.6557869280970
 30
0.0000000000000000
 11
1097.838459419762
 21
239.1557869280970
 31
0.0000000000000000
 70
32
  3
MAIN001
100
AcDbAlignedDimension
 13
1087.838459419762
 23
389.0204008096396
 33
0.0000000000000000
 14
1107.838459419762
 24
514.0204008096396
 34
0.0000000000000000
100
AcDbRotatedDimension
1001
ACAD
1000
DSTYLE
1002
{
1070
   173
1070
     1
1070
     6
1000
_OPEN
1070
     7
1000
_OPEN
1070
    41
1040
4.000000
1002
}
  0
DIMENSION
  5
23D
100
AcDbEntity
  8
MAIN0
  6
CONTINUOUS
 62
3
100
AcDbDimension
  2
*D25
 10
1087.838459419762
 20
238.6557869280970
 30
0.0000000000000000
 11
862.0884594197621
 21
239.1557869280970
 31
0.0000000000000000
 70
32
  3
MAIN001
100
AcDbAlignedDimension
 13
636.3384594197621
 23
403.0204008096383
 33
0.0000000000000000
 14
1087.838459419762
 24
389.0204008096396
 34
0.0000000000000000
100
AcDbRotatedDimension
1001
ACAD
1000
DSTYLE
1002
{
1070
   173
1070
     1
1070
     6
1000
_OPEN
1070
     7
1000
_OPEN
1070
    41
1040
4.000000
1002
}
  0
LEADER
  5
23E
100
AcDbEntity
  8
MAIN0
  6
CONTINUOUS
 62
3
100
AcDbLeader
  3
MAIN001
 73
     0
 74
     0
 75
     1
 40
6.199999809265137
 41
88.52100260353086
 76
     3
 10
1004.030320641778
 20
355.0264332548585
 30
0.0000000000000000
 10
1033.733857758631
 20
214.2253317036435
 30
0.0000000000000000
 10
1037.584857647051
 20
214.2253317036435
 30
0.0000000000000000
340
23F
213
-0.001000000000203727
223
-1.000000000000000
233
0.0000000000000000
1001
ACAD
1000
DSTYLE
1002
{
1070
   147
1040
0.0
1070
    77
1070
     1
1070
   173
1070
     1
1070
     6
1000
_OPEN
1070
     7
1000
_OPEN
1002
}
  0
MTEXT
  5
23F
102
{ACAD_REACTORS
330
23E
102
}
100
AcDbEntity
  8
MAIN0
  6
CONTINUOUS
 62
3
100
AcDbMText
 10
1037.585857647051
 20
221.4253315129086
 30
0.0000000000000000
 40
6.199999809265137
 41
0.0000000000000000
 71
     1
 72
     1
  1
{\H0.93x;{4×2×2-M10 深20\P           DEPTH}}
 11
1.000000000000000
 21
0.0000000000000000
 31
0.0000000000000000
  7
KNJYOKO
  0
DIMENSION
  5
248
100
AcDbEntity
  8
MAIN0
  6
CONTINUOUS
 62
3
100
AcDbDimension
  2
*D26
 10
1034.723434485466
 20
379.5204008096396
 30
0.0000000000000000
 11
1034.223434485466
 21
369.5204008096396
 31
0.0000000000000000
 70
32
  3
MAIN001
100
AcDbAlignedDimension
 13
1009.838459419762
 23
359.5204008096396
 33
0.0000000000000000
 14
1009.838459419762
 24
379.5204008096396
 34
0.0000000000000000
 50
90.00000000000000
100
AcDbRotatedDimension
1001
ACAD
1000
DSTYLE
1002
{
1070
   173
1070
     1
1070
     6
1000
_OPEN
1070
     7
1000
_OPEN
1070
    41
1040
4.000000
1002
}
  0
DIMENSION
  5
252
100
AcDbEntity
  8
MAIN0
  6
CONTINUOUS
 62
3
100
AcDbDimension
  2
*D27
 10
1034.723434485466
 20
359.5204008096396
 30
0.0000000000000000
 11
1033.723434485466
 21
339.4086873037232
 31
0.0000000000000000
 70
160
  3
MAIN001
100
AcDbAlignedDimension
 13
1040.838459419762
 23
349.5204008096396
 33
0.0000000000000000
 14
1009.838459419762
 24
359.5204008096396
 34
0.0000000000000000
 50
90.00000000000000
100
AcDbRotatedDimension
1001
ACAD
1000
DSTYLE
1002
{
1070
   173
1070
     1
1070
     6
1000
_OPEN
1070
     7
1000
_OPEN
1070
    41
1040
4.000000
1070
   287
1070
     0
1002
}
  0
LEADER
  5
253
100
AcDbEntity
  8
MAIN0
  6
CONTINUOUS
 62
3
100
AcDbLeader
  3
MAIN001
 73
     0
 74
     0
 75
     1
 40
6.199999809265137
 41
59.91665453733856
 76
     3
 10
796.5794097075309
 20
410.2237188606042
 30
0.0000000000000000
 10
768.2777532803511
 20
324.8796795895430
 30
0.0000000000000000
 10
772.1287531687713
 20
324.8796795895430
 30
0.0000000000000000
340
254
213
0.7033472555691560
223
-1.000000000000000
233
0.0000000000000000
1001
ACAD
1000
DSTYLE
1002
{
1070
   147
1040
0.0
1070
    77
1070
     1
1070
   173
1070
     1
1070
     6
1000
_OPEN
1070
     7
1000
_OPEN
1002
}
  0
MTEXT
  5
254
102
{ACAD_REACTORS
330
253
102
}
100
AcDbEntity
  8
MAIN0
  6
CONTINUOUS
 62
3
100
AcDbMText
 10
771.4254059132021
 20
332.0796793988081
 30
0.0000000000000000
 40
6.199999809265137
 41
0.0000000000000000
 71
     1
 72
     1
  1
{\H0.93x;{24-M8 深16\P      DEPTH}}
 11
1.000000000000000
 21
0.0000000000000000
 31
0.0000000000000000
  7
KNJYOKO
  0
LEADER
  5
255
100
AcDbEntity
  8
MAIN0
  6
CONTINUOUS
 62
3
100
AcDbLeader
  3
MAIN001
 73
     0
 75
     1
 40
6.199999809265137
 41
43.87900130653384
 76
     3
 10
271.1313170701181
 20
533.9942440644531
 30
0.0000000000000000
 10
198.4477767291583
 20
422.5094874028764
 30
0.0000000000000000
 10
194.5947768407382
 20
422.5094874028764
 30
0.0000000000000000
340
256
213
0.0000000000000000
223
-1.000000000000000
233
0.0000000000000000
1001
ACAD
1000
DSTYLE
1002
{
1070
   147
1040
0.0
1070
    77
1070
     1
1070
   173
1070
     1
1070
     6
1000
_OPEN
1070
     7
1000
_OPEN
1002
}
  0
MTEXT
  5
256
102
{ACAD_REACTORS
330
255
102
}
100
AcDbEntity
  8
MAIN0
  6
CONTINUOUS
 62
3
100
AcDbMText
 10
150.7157755342043
 20
429.7094872121415
 30
0.0000000000000000
 40
6.199999809265137
 41
0.0000000000000000
 71
     1
 72
     1
  1
{\H0.93x;{M12　吊り用\PEYE BOLT}}
 11
1.000000000000000
 21
0.0000000000000000
 31
0.0000000000000000
  7
KNJYOKO
  0
MTEXT
  5
257
100
AcDbEntity
  8
MAIN0
  6
CONTINUOUS
 62
3
100
AcDbMText
 10
1125.661941756660
 20
522.3220268424755
 30
0.0000000000000000
 40
6.199999809265137
 41
0.0000000000000000
 71
     1
 72
     1
  1
{\H0.92x;{(    )}}
 11
6.123233995736766e-017
 21
1.000000000000000
 31
0.0000000000000000
  7
STANDARD
  0
LINE
  5
258
100
AcDbEntity
  8
MAIN0
  6
CENTER
 62
3
100
AcDbLine
 10
972.8384594197621
 20
573.4061398434799
 30
0.0000000000000000
 11
972.8384594197621
 21
554.9534423133459
 31
0.0000000000000000
  0
LINE
  5
259
100
AcDbEntity
  8
MAIN0
  6
CENTER
 62
3
100
AcDbLine
 10
982.0020604606459
 20
564.0204008096396
 30
0.0000000000000000
 11
965.3351063946871
 21
564.0204008096396
 31
0.0000000000000000
  0
LINE
  5
25A
100
AcDbEntity
  8
MAIN0
  6
CENTER
 62
3
100
AcDbLine
 10
847.8384594197621
 20
588.5849762393331
 30
0.0000000000000000
 11
847.8384594197621
 21
569.6858400180946
 31
0.0000000000000000
  0
LINE
  5
25B
100
AcDbEntity
  8
MAIN0
  6
CENTER
 62
3
100
AcDbLine
 10
855.8094046147373
 20
579.0204008096396
 30
0.0000000000000000
 11
838.5472003731697
 21
579.0204008096396
 31
0.0000000000000000
  0
LINE
  5
25C
100
AcDbEntity
  8
MAIN0
  6
CENTER
 62
3
100
AcDbLine
 10
820.8384594197621
 20
552.0204008096396
 30
0.0000000000000000
 11
820.8384594197621
 21
526.0204008096396
 31
0.0000000000000000
  0
LINE
  5
25D
100
AcDbEntity
  8
MAIN0
  6
CENTER
 62
3
100
AcDbLine
 10
1001.838459419762
 20
552.0204008096396
 30
0.0000000000000000
 11
1001.838459419762
 21
526.0204008096396
 31
0.0000000000000000
  0
LINE
  5
25E
100
AcDbEntity
  8
MAIN0
  6
CENTER
 62
3
100
AcDbLine
 10
1001.838459419762
 20
388.7335558324130
 30
0.0000000000000000
 11
1001.838459419762
 21
351.5204008096396
 31
0.0000000000000000
  0
LINE
  5
25F
100
AcDbEntity
  8
MAIN0
  6
CENTER
 62
3
100
AcDbLine
 10
1001.838459419762
 20
492.3735942742995
 30
0.0000000000000000
 11
1001.838459419762
 21
467.1081109024907
 31
0.0000000000000000
  0
LINE
  5
260
100
AcDbEntity
  8
MAIN0
  6
CENTER
 62
3
100
AcDbLine
 10
1001.838459419762
 20
586.2168182267321
 30
0.0000000000000000
 11
1001.838459419762
 21
605.8104863600864
 31
0.0000000000000000
  0
LINE
  5
261
100
AcDbEntity
  8
MAIN0
  6
CENTER
 62
3
100
AcDbLine
 10
1001.838459419762
 20
689.3412513394669
 30
0.0000000000000000
 11
1001.838459419762
 21
726.5204008096396
 31
0.0000000000000000
  0
LINE
  5
262
100
AcDbEntity
  8
MAIN0
  6
CENTER
 62
3
100
AcDbLine
 10
797.8384594197621
 20
588.5849762393331
 30
0.0000000000000000
 11
797.8384594197621
 21
569.6858400180946
 31
0.0000000000000000
  0
LINE
  5
263
100
AcDbEntity
  8
MAIN0
  6
CENTER
 62
3
100
AcDbLine
 10
805.8094046147373
 20
579.0204008096396
 30
0.0000000000000000
 11
788.5472003731697
 21
579.0204008096396
 31
0.0000000000000000
  0
CIRCLE
  5
264
100
AcDbEntity
  8
MAIN0
  6
CONTINUOUS
 62
3
100
AcDbCircle
 10
797.8384594197621
 20
579.0204008096396
 30
0.0000000000000000
 40
5.000000000000000
  0
CIRCLE
  5
265
100
AcDbEntity
  8
MAIN0
  6
CONTINUOUS
 62
3
100
AcDbCircle
 10
797.8384594197621
 20
579.0204008096396
 30
0.0000000000000000
 40
4.188101000000000
  0
LINE
  5
266
100
AcDbEntity
  8
MAIN0
  6
CONTINUOUS
 62
3
100
AcDbLine
 10
797.8384594197619
 20
581.9071521555877
 30
0.0000000000000000
 11
795.3384594197619
 21
580.4637764826136
 31
0.0000000000000000
  0
LINE
  5
267
100
AcDbEntity
  8
MAIN0
  6
CONTINUOUS
 62
3
100
AcDbLine
 10
795.3384594197621
 20
580.4637764826136
 30
0.0000000000000000
 11
795.3384594197621
 21
577.5770251366655
 31
0.0000000000000000
  0
LINE
  5
268
100
AcDbEntity
  8
MAIN0
  6
CONTINUOUS
 62
3
100
AcDbLine
 10
795.3384594197619
 20
577.5770251366655
 30
0.0000000000000000
 11
797.8384594197619
 21
576.1336494636914
 31
0.0000000000000000
  0
LINE
  5
269
100
AcDbEntity
  8
MAIN0
  6
CONTINUOUS
 62
3
100
AcDbLine
 10
797.8384594197621
 20
576.1336494636914
 30
0.0000000000000000
 11
800.3384594197619
 21
577.5770251366655
 31
0.0000000000000000
  0
LINE
  5
26A
100
AcDbEntity
  8
MAIN0
  6
CONTINUOUS
 62
3
100
AcDbLine
 10
800.3384594197621
 20
577.5770251366655
 30
0.0000000000000000
 11
800.3384594197621
 21
580.4637764826136
 31
0.0000000000000000
  0
LINE
  5
26B
100
AcDbEntity
  8
MAIN0
  6
CONTINUOUS
 62
3
100
AcDbLine
 10
800.3384594197619
 20
580.4637764826136
 30
0.0000000000000000
 11
797.8384594197619
 21
581.9071521555877
 31
0.0000000000000000
  0
LINE
  5
26C
100
AcDbEntity
  8
MAIN0
  6
CENTER
 62
3
100
AcDbLine
 10
847.8384594197621
 20
489.4558253799461
 30
0.0000000000000000
 11
847.8384594197621
 21
508.3549616011845
 31
0.0000000000000000
  0
LINE
  5
26D
100
AcDbEntity
  8
MAIN0
  6
CENTER
 62
3
100
AcDbLine
 10
855.8094046147373
 20
499.0204008096396
 30
0.0000000000000000
 11
838.5472003731697
 21
499.0204008096396
 31
0.0000000000000000
  0
CIRCLE
  5
26E
100
AcDbEntity
  8
MAIN0
  6
CONTINUOUS
 62
3
100
AcDbCircle
 10
847.8384594197621
 20
499.0204008096396
 30
0.0000000000000000
 40
5.000000000000000
  0
CIRCLE
  5
26F
100
AcDbEntity
  8
MAIN0
  6
CONTINUOUS
 62
3
100
AcDbCircle
 10
847.8384594197621
 20
499.0204008096396
 30
0.0000000000000000
 40
4.188101000000000
  0
LINE
  5
270
100
AcDbEntity
  8
MAIN0
  6
CONTINUOUS
 62
3
100
AcDbLine
 10
847.8384594197619
 20
496.1336494636914
 30
0.0000000000000000
 11
845.3384594197619
 21
497.5770251366655
 31
0.0000000000000000
  0
LINE
  5
271
100
AcDbEntity
  8
MAIN0
  6
CONTINUOUS
 62
3
100
AcDbLine
 10
845.3384594197621
 20
497.5770251366655
 30
0.0000000000000000
 11
845.3384594197621
 21
500.4637764826136
 31
0.0000000000000000
  0
LINE
  5
272
100
AcDbEntity
  8
MAIN0
  6
CONTINUOUS
 62
3
100
AcDbLine
 10
845.3384594197619
 20
500.4637764826136
 30
0.0000000000000000
 11
847.8384594197619
 21
501.9071521555877
 31
0.0000000000000000
  0
LINE
  5
273
100
AcDbEntity
  8
MAIN0
  6
CONTINUOUS
 62
3
100
AcDbLine
 10
847.8384594197621
 20
501.9071521555877
 30
0.0000000000000000
 11
850.3384594197619
 21
500.4637764826136
 31
0.0000000000000000
  0
LINE
  5
274
100
AcDbEntity
  8
MAIN0
  6
CONTINUOUS
 62
3
100
AcDbLine
 10
850.3384594197621
 20
500.4637764826136
 30
0.0000000000000000
 11
850.3384594197621
 21
497.5770251366655
 31
0.0000000000000000
  0
LINE
  5
275
100
AcDbEntity
  8
MAIN0
  6
CONTINUOUS
 62
3
100
AcDbLine
 10
850.3384594197619
 20
497.5770251366655
 30
0.0000000000000000
 11
847.8384594197619
 21
496.1336494636914
 31
0.0000000000000000
  0
LINE
  5
276
100
AcDbEntity
  8
MAIN0
  6
CENTER
 62
3
100
AcDbLine
 10
797.8384594197621
 20
489.4558253799461
 30
0.0000000000000000
 11
797.8384594197621
 21
508.3549616011845
 31
0.0000000000000000
  0
LINE
  5
277
100
AcDbEntity
  8
MAIN0
  6
CENTER
 62
3
100
AcDbLine
 10
805.8094046147373
 20
499.0204008096396
 30
0.0000000000000000
 11
788.5472003731697
 21
499.0204008096396
 31
0.0000000000000000
  0
CIRCLE
  5
278
100
AcDbEntity
  8
MAIN0
  6
CONTINUOUS
 62
3
100
AcDbCircle
 10
797.8384594197621
 20
499.0204008096396
 30
0.0000000000000000
 40
5.000000000000000
  0
CIRCLE
  5
279
100
AcDbEntity
  8
MAIN0
  6
CONTINUOUS
 62
3
100
AcDbCircle
 10
797.8384594197621
 20
499.0204008096396
 30
0.0000000000000000
 40
4.188101000000000
  0
LINE
  5
27A
100
AcDbEntity
  8
MAIN0
  6
CONTINUOUS
 62
3
100
AcDbLine
 10
797.8384594197619
 20
496.1336494636915
 30
0.0000000000000000
 11
795.3384594197619
 21
497.5770251366656
 31
0.0000000000000000
  0
LINE
  5
27B
100
AcDbEntity
  8
MAIN0
  6
CONTINUOUS
 62
3
100
AcDbLine
 10
795.3384594197621
 20
497.5770251366655
 30
0.0000000000000000
 11
795.3384594197621
 21
500.4637764826136
 31
0.0000000000000000
  0
LINE
  5
27C
100
AcDbEntity
  8
MAIN0
  6
CONTINUOUS
 62
3
100
AcDbLine
 10
795.3384594197619
 20
500.4637764826136
 30
0.0000000000000000
 11
797.8384594197619
 21
501.9071521555877
 31
0.0000000000000000
  0
LINE
  5
27D
100
AcDbEntity
  8
MAIN0
  6
CONTINUOUS
 62
3
100
AcDbLine
 10
797.8384594197621
 20
501.9071521555877
 30
0.0000000000000000
 11
800.3384594197619
 21
500.4637764826136
 31
0.0000000000000000
  0
LINE
  5
27E
100
AcDbEntity
  8
MAIN0
  6
CONTINUOUS
 62
3
100
AcDbLine
 10
800.3384594197621
 20
500.4637764826136
 30
0.0000000000000000
 11
800.3384594197621
 21
497.5770251366655
 31
0.0000000000000000
  0
LINE
  5
27F
100
AcDbEntity
  8
MAIN0
  6
CONTINUOUS
 62
3
100
AcDbLine
 10
800.3384594197619
 20
497.5770251366655
 30
0.0000000000000000
 11
797.8384594197619
 21
496.1336494636914
 31
0.0000000000000000
  0
LINE
  5
280
100
AcDbEntity
  8
MAIN0
  6
CENTER
 62
3
100
AcDbLine
 10
1027.838459419762
 20
573.4061398434799
 30
0.0000000000000000
 11
1027.838459419762
 21
554.9534423133459
 31
0.0000000000000000
  0
LINE
  5
281
100
AcDbEntity
  8
MAIN0
  6
CENTER
 62
3
100
AcDbLine
 10
1037.002060460646
 20
564.0204008096396
 30
0.0000000000000000
 11
1020.335106394687
 21
564.0204008096396
 31
0.0000000000000000
  0
CIRCLE
  5
282
100
AcDbEntity
  8
MAIN0
  6
CONTINUOUS
 62
3
100
AcDbCircle
 10
1027.838459419762
 20
564.0204008096396
 30
0.0000000000000000
 40
5.000000000000000
  0
CIRCLE
  5
283
100
AcDbEntity
  8
MAIN0
  6
CONTINUOUS
 62
3
100
AcDbCircle
 10
1027.838459419762
 20
564.0204008096396
 30
0.0000000000000000
 40
4.188101000000000
  0
LINE
  5
284
100
AcDbEntity
  8
MAIN0
  6
CONTINUOUS
 62
3
100
AcDbLine
 10
1027.838459419762
 20
566.9071521555877
 30
0.0000000000000000
 11
1025.338459419762
 21
565.4637764826136
 31
0.0000000000000000
  0
LINE
  5
285
100
AcDbEntity
  8
MAIN0
  6
CONTINUOUS
 62
3
100
AcDbLine
 10
1025.338459419762
 20
565.4637764826136
 30
0.0000000000000000
 11
1025.338459419762
 21
562.5770251366655
 31
0.0000000000000000
  0
LINE
  5
286
100
AcDbEntity
  8
MAIN0
  6
CONTINUOUS
 62
3
100
AcDbLine
 10
1025.338459419762
 20
562.5770251366655
 30
0.0000000000000000
 11
1027.838459419762
 21
561.1336494636914
 31
0.0000000000000000
  0
LINE
  5
287
100
AcDbEntity
  8
MAIN0
  6
CONTINUOUS
 62
3
100
AcDbLine
 10
1027.838459419762
 20
561.1336494636914
 30
0.0000000000000000
 11
1030.338459419762
 21
562.5770251366655
 31
0.0000000000000000
  0
LINE
  5
288
100
AcDbEntity
  8
MAIN0
  6
CONTINUOUS
 62
3
100
AcDbLine
 10
1030.338459419762
 20
562.5770251366655
 30
0.0000000000000000
 11
1030.338459419762
 21
565.4637764826136
 31
0.0000000000000000
  0
LINE
  5
289
100
AcDbEntity
  8
MAIN0
  6
CONTINUOUS
 62
3
100
AcDbLine
 10
1030.338459419762
 20
565.4637764826136
 30
0.0000000000000000
 11
1027.838459419762
 21
566.9071521555877
 31
0.0000000000000000
  0
LINE
  5
28A
100
AcDbEntity
  8
MAIN0
  6
CENTER
 62
3
100
AcDbLine
 10
972.8384594197621
 20
504.6346617757993
 30
0.0000000000000000
 11
972.8384594197621
 21
523.0873593059332
 31
0.0000000000000000
  0
LINE
  5
28B
100
AcDbEntity
  8
MAIN0
  6
CENTER
 62
3
100
AcDbLine
 10
982.0020604606459
 20
514.0204008096396
 30
0.0000000000000000
 11
965.3351063946871
 21
514.0204008096396
 31
0.0000000000000000
  0
CIRCLE
  5
28C
100
AcDbEntity
  8
MAIN0
  6
CONTINUOUS
 62
3
100
AcDbCircle
 10
972.8384594197621
 20
514.0204008096396
 30
0.0000000000000000
 40
5.000000000000000
  0
CIRCLE
  5
28D
100
AcDbEntity
  8
MAIN0
  6
CONTINUOUS
 62
3
100
AcDbCircle
 10
972.8384594197621
 20
514.0204008096396
 30
0.0000000000000000
 40
4.188101000000000
  0
LINE
  5
28E
100
AcDbEntity
  8
MAIN0
  6
CONTINUOUS
 62
3
100
AcDbLine
 10
972.8384594197619
 20
511.1336494636914
 30
0.0000000000000000
 11
970.3384594197619
 21
512.5770251366655
 31
0.0000000000000000
  0
LINE
  5
28F
100
AcDbEntity
  8
MAIN0
  6
CONTINUOUS
 62
3
100
AcDbLine
 10
970.3384594197621
 20
512.5770251366655
 30
0.0000000000000000
 11
970.3384594197621
 21
515.4637764826136
 31
0.0000000000000000
  0
LINE
  5
290
100
AcDbEntity
  8
MAIN0
  6
CONTINUOUS
 62
3
100
AcDbLine
 10
970.3384594197619
 20
515.4637764826136
 30
0.0000000000000000
 11
972.8384594197619
 21
516.9071521555877
 31
0.0000000000000000
  0
LINE
  5
291
100
AcDbEntity
  8
MAIN0
  6
CONTINUOUS
 62
3
100
AcDbLine
 10
972.8384594197619
 20
516.9071521555877
 30
0.0000000000000000
 11
975.3384594197619
 21
515.4637764826136
 31
0.0000000000000000
  0
LINE
  5
292
100
AcDbEntity
  8
MAIN0
  6
CONTINUOUS
 62
3
100
AcDbLine
 10
975.3384594197621
 20
515.4637764826136
 30
0.0000000000000000
 11
975.3384594197621
 21
512.5770251366655
 31
0.0000000000000000
  0
LINE
  5
293
100
AcDbEntity
  8
MAIN0
  6
CONTINUOUS
 62
3
100
AcDbLine
 10
975.3384594197619
 20
512.5770251366655
 30
0.0000000000000000
 11
972.8384594197619
 21
511.1336494636915
 31
0.0000000000000000
  0
LINE
  5
294
100
AcDbEntity
  8
MAIN0
  6
CENTER
 62
3
100
AcDbLine
 10
1027.838459419762
 20
504.6346617757993
 30
0.0000000000000000
 11
1027.838459419762
 21
523.0873593059332
 31
0.0000000000000000
  0
LINE
  5
295
100
AcDbEntity
  8
MAIN0
  6
CENTER
 62
3
100
AcDbLine
 10
1037.002060460646
 20
514.0204008096396
 30
0.0000000000000000
 11
1020.335106394687
 21
514.0204008096396
 31
0.0000000000000000
  0
CIRCLE
  5
296
100
AcDbEntity
  8
MAIN0
  6
CONTINUOUS
 62
3
100
AcDbCircle
 10
1027.838459419762
 20
514.0204008096396
 30
0.0000000000000000
 40
5.000000000000000
  0
CIRCLE
  5
297
100
AcDbEntity
  8
MAIN0
  6
CONTINUOUS
 62
3
100
AcDbCircle
 10
1027.838459419762
 20
514.0204008096396
 30
0.0000000000000000
 40
4.188101000000000
  0
LINE
  5
298
100
AcDbEntity
  8
MAIN0
  6
CONTINUOUS
 62
3
100
AcDbLine
 10
1027.838459419762
 20
511.1336494636915
 30
0.0000000000000000
 11
1025.338459419762
 21
512.5770251366655
 31
0.0000000000000000
  0
LINE
  5
299
100
AcDbEntity
  8
MAIN0
  6
CONTINUOUS
 62
3
100
AcDbLine
 10
1025.338459419762
 20
512.5770251366655
 30
0.0000000000000000
 11
1025.338459419762
 21
515.4637764826136
 31
0.0000000000000000
  0
LINE
  5
29A
100
AcDbEntity
  8
MAIN0
  6
CONTINUOUS
 62
3
100
AcDbLine
 10
1025.338459419762
 20
515.4637764826136
 30
0.0000000000000000
 11
1027.838459419762
 21
516.9071521555877
 31
0.0000000000000000
  0
LINE
  5
29B
100
AcDbEntity
  8
MAIN0
  6
CONTINUOUS
 62
3
100
AcDbLine
 10
1027.838459419762
 20
516.9071521555877
 30
0.0000000000000000
 11
1030.338459419762
 21
515.4637764826136
 31
0.0000000000000000
  0
LINE
  5
29C
100
AcDbEntity
  8
MAIN0
  6
CONTINUOUS
 62
3
100
AcDbLine
 10
1030.338459419762
 20
515.4637764826136
 30
0.0000000000000000
 11
1030.338459419762
 21
512.5770251366655
 31
0.0000000000000000
  0
LINE
  5
29D
100
AcDbEntity
  8
MAIN0
  6
CONTINUOUS
 62
3
100
AcDbLine
 10
1030.338459419762
 20
512.5770251366655
 30
0.0000000000000000
 11
1027.838459419762
 21
511.1336494636915
 31
0.0000000000000000
  0
DIMENSION
  5
2A6
100
AcDbEntity
  8
MAIN0
  6
CONTINUOUS
 62
3
100
AcDbDimension
  2
*D28
 10
1062.395382800906
 20
514.0204008096396
 30
0.0000000000000000
 11
1061.895382800906
 21
539.0204008096396
 31
0.0000000000000000
 70
32
  3
MAIN001
100
AcDbAlignedDimension
 13
1037.002060460646
 23
564.0204008096396
 33
0.0000000000000000
 14
1037.002060460646
 24
514.0204008096396
 34
0.0000000000000000
 50
90.00000000000000
100
AcDbRotatedDimension
1001
ACAD
1000
DSTYLE
1002
{
1070
   173
1070
     1
1070
     6
1000
_OPEN
1070
     7
1000
_OPEN
1070
    41
1040
4.000000
1002
}
  0
DIMENSION
  5
2AF
100
AcDbEntity
  8
MAIN0
  6
CONTINUOUS
 62
3
100
AcDbDimension
  2
*D29
 10
764.3657543115453
 20
499.0204008096396
 30
0.0000000000000000
 11
763.8657543115453
 21
539.0204008096396
 31
0.0000000000000000
 70
32
  3
MAIN001
100
AcDbAlignedDimension
 13
788.5472003731697
 23
579.0204008096396
 33
0.0000000000000000
 14
788.5472003731697
 24
499.0204008096396
 34
0.0000000000000000
 50
90.00000000000000
100
AcDbRotatedDimension
1001
ACAD
1000
DSTYLE
1002
{
1070
   173
1070
     1
1070
     6
1000
_OPEN
1070
     7
1000
_OPEN
1070
    41
1040
4.000000
1002
}
  0
DIMENSION
  5
2B8
100
AcDbEntity
  8
MAIN0
  6
CONTINUOUS
 62
3
100
AcDbDimension
  2
*D30
 10
797.8384594197621
 20
456.6688976456641
 30
0.0000000000000000
 11
822.8384594197621
 21
457.1688976456641
 31
0.0000000000000000
 70
32
  3
MAIN001
100
AcDbAlignedDimension
 13
847.8384594197621
 23
489.4558253799461
 33
0.0000000000000000
 14
797.8384594197621
 24
489.4558253799461
 34
0.0000000000000000
100
AcDbRotatedDimension
1001
ACAD
1000
DSTYLE
1002
{
1070
   173
1070
     1
1070
     6
1000
_OPEN
1070
     7
1000
_OPEN
1070
    41
1040
4.000000
1002
}
  0
DIMENSION
  5
2C3
100
AcDbEntity
  8
MAIN0
  6
CONTINUOUS
 62
3
100
AcDbDimension
  2
*D31
 10
847.8384594197621
 20
456.6688976456641
 30
0.0000000000000000
 11
852.8384594197621
 21
457.1688976456641
 31
0.0000000000000000
 70
32
  3
MAIN001
100
AcDbAlignedDimension
 13
857.8384594197621
 23
476.7704008096396
 33
0.0000000000000000
 14
847.8384594197621
 24
489.4558253799461
 34
0.0000000000000000
100
AcDbRotatedDimension
1001
ACAD
1000
DSTYLE
1002
{
1070
   173
1070
     1
1070
     6
1000
_OPEN
1070
     7
1000
_OPEN
1070
    41
1040
4.000000
1070
   287
1070
     0
1002
}
  0
DIMENSION
  5
2CE
100
AcDbEntity
  8
MAIN0
  6
CONTINUOUS
 62
3
100
AcDbDimension
  2
*D32
 10
962.8384594197621
 20
456.6688976456641
 30
0.0000000000000000
 11
967.8384594197621
 21
457.1688976456641
 31
0.0000000000000000
 70
32
  3
MAIN001
100
AcDbAlignedDimension
 13
972.8384594197621
 23
504.6346617757993
 33
0.0000000000000000
 14
962.8384594197621
 24
476.7704008096396
 34
0.0000000000000000
100
AcDbRotatedDimension
1001
ACAD
1000
DSTYLE
1002
{
1070
   173
1070
     1
1070
     6
1000
_OPEN
1070
     7
1000
_OPEN
1070
    41
1040
4.000000
1070
   287
1070
     0
1002
}
  0
DIMENSION
  5
2D7
100
AcDbEntity
  8
MAIN0
  6
CONTINUOUS
 62
3
100
AcDbDimension
  2
*D33
 10
972.8384594197621
 20
456.6688976456641
 30
0.0000000000000000
 11
1000.338459419762
 21
457.1688976456641
 31
0.0000000000000000
 70
32
  3
MAIN001
100
AcDbAlignedDimension
 13
1027.838459419762
 23
504.6346617757993
 33
0.0000000000000000
 14
972.8384594197621
 24
504.6346617757993
 34
0.0000000000000000
100
AcDbRotatedDimension
1001
ACAD
1000
DSTYLE
1002
{
1070
   173
1070
     1
1070
     6
1000
_OPEN
1070
     7
1000
_OPEN
1070
    41
1040
4.000000
1002
}
  0
DIMENSION
  5
2E0
100
AcDbEntity
  8
MAIN0
  6
CONTINUOUS
 62
3
100
AcDbDimension
  2
*D34
 10
820.8384594197621
 20
620.6367523843057
 30
0.0000000000000000
 11
839.3384594197621
 21
621.1367523843057
 31
0.0000000000000000
 70
32
  3
MAIN001
100
AcDbAlignedDimension
 13
857.8384594197621
 23
601.2704008096396
 33
0.0000000000000000
 14
820.8384594197621
 24
552.0204008096396
 34
0.0000000000000000
100
AcDbRotatedDimension
1001
ACAD
1000
DSTYLE
1002
{
1070
   173
1070
     1
1070
     6
1000
_OPEN
1070
     7
1000
_OPEN
1070
    41
1040
4.000000
1002
}
  0
DIMENSION
  5
2E9
100
AcDbEntity
  8
MAIN0
  6
CONTINUOUS
 62
3
100
AcDbDimension
  2
*D35
 10
962.8384594197621
 20
620.6367523843057
 30
0.0000000000000000
 11
982.3384594197621
 21
621.1367523843057
 31
0.0000000000000000
 70
32
  3
MAIN001
100
AcDbAlignedDimension
 13
1001.838459419762
 23
552.0204008096396
 33
0.0000000000000000
 14
962.8384594197621
 24
601.2704008096396
 34
0.0000000000000000
100
AcDbRotatedDimension
1001
ACAD
1000
DSTYLE
1002
{
1070
   173
1070
     1
1070
     6
1000
_OPEN
1070
     7
1000
_OPEN
1070
    41
1040
4.000000
1002
}
  0
LINE
  5
2EA
100
AcDbEntity
  8
MAIN0
  6
CENTER
 62
3
100
AcDbLine
 10
979.3384594197621
 20
410.7206461085712
 30
0.0000000000000000
 11
979.3384594197621
 21
345.8101391985705
 31
0.0000000000000000
  0
LINE
  5
2EB
100
AcDbEntity
  8
MAIN0
  6
CENTER
 62
3
100
AcDbLine
 10
1024.338459419762
 20
397.8879757913565
 30
0.0000000000000000
 11
1024.338459419762
 21
345.8101391985705
 31
0.0000000000000000
  0
LINE
  5
2EC
100
AcDbEntity
  8
MAIN0
  6
CENTER
 62
3
100
AcDbLine
 10
841.8384594197621
 20
410.7206461085712
 30
0.0000000000000000
 11
841.8384594197621
 21
345.8101391985705
 31
0.0000000000000000
  0
LINE
  5
2ED
100
AcDbEntity
  8
MAIN0
  6
CENTER
 62
3
100
AcDbLine
 10
799.8384594197619
 20
397.8879757913565
 30
0.0000000000000000
 11
799.8384594197619
 21
345.8101391985705
 31
0.0000000000000000
  0
LINE
  5
2EE
100
AcDbEntity
  8
MAIN0
  6
CENTER
 62
3
100
AcDbLine
 10
799.8384594197619
 20
680.1528258279227
 30
0.0000000000000000
 11
799.8384594197619
 21
732.2306624207087
 31
0.0000000000000000
  0
LINE
  5
2EF
100
AcDbEntity
  8
MAIN0
  6
CENTER
 62
3
100
AcDbLine
 10
841.8384594197621
 20
680.1528258279227
 30
0.0000000000000000
 11
841.8384594197621
 21
732.2306624207087
 31
0.0000000000000000
  0
LINE
  5
2F0
100
AcDbEntity
  8
MAIN0
  6
CENTER
 62
3
100
AcDbLine
 10
979.3384594197621
 20
680.1528258279227
 30
0.0000000000000000
 11
979.3384594197621
 21
732.2306624207087
 31
0.0000000000000000
  0
LINE
  5
2F1
100
AcDbEntity
  8
MAIN0
  6
CENTER
 62
3
100
AcDbLine
 10
1024.338459419762
 20
680.1528258279227
 30
0.0000000000000000
 11
1024.338459419762
 21
732.2306624207087
 31
0.0000000000000000
  0
LINE
  5
2F2
100
AcDbEntity
  8
MAIN0
  6
CENTER
 62
3
100
AcDbLine
 10
468.9756938381449
 20
556.5204008096396
 30
0.0000000000000000
 11
427.4081674440010
 21
556.5204008096396
 31
0.0000000000000000
  0
LINE
  5
2F3
100
AcDbEntity
  8
MAIN0
  6
CENTER
 62
3
100
AcDbLine
 10
468.9756938381449
 20
521.5204008096396
 30
0.0000000000000000
 11
427.4081674440010
 21
521.5204008096396
 31
0.0000000000000000
  0
LINE
  5
2F4
100
AcDbEntity
  8
MAIN0
  6
CENTER
 62
3
100
AcDbLine
 10
256.9081674440011
 20
733.5879272037835
 30
0.0000000000000000
 11
256.9081674440011
 21
692.0204008096395
 31
0.0000000000000000
  0
LINE
  5
2F5
100
AcDbEntity
  8
MAIN0
  6
CENTER
 62
3
100
AcDbLine
 10
291.9081674440011
 20
733.5879272037835
 30
0.0000000000000000
 11
291.9081674440011
 21
692.0204008096395
 31
0.0000000000000000
  0
LINE
  5
2F6
100
AcDbEntity
  8
MAIN0
  6
CENTER
 62
3
100
AcDbLine
 10
79.84064104985725
 20
521.5204008096396
 30
0.0000000000000000
 11
121.4081674440012
 21
521.5204008096396
 31
0.0000000000000000
  0
LINE
  5
2F7
100
AcDbEntity
  8
MAIN0
  6
CENTER
 62
3
100
AcDbLine
 10
79.84064104985725
 20
556.5204008096396
 30
0.0000000000000000
 11
121.4081674440012
 21
556.5204008096396
 31
0.0000000000000000
  0
LINE
  5
2F8
100
AcDbEntity
  8
MAIN0
  6
CENTER
 62
3
100
AcDbLine
 10
291.9081674440010
 20
344.4528744154957
 30
0.0000000000000000
 11
291.9081674440010
 21
386.0204008096397
 31
0.0000000000000000
  0
LINE
  5
2F9
100
AcDbEntity
  8
MAIN0
  6
CENTER
 62
3
100
AcDbLine
 10
256.9081674440010
 20
344.4528744154957
 30
0.0000000000000000
 11
256.9081674440010
 21
386.0204008096397
 31
0.0000000000000000
  0
LEADER
  5
2FA
100
AcDbEntity
  8
MAIN0
  6
CONTINUOUS
 62
3
100
AcDbLeader
  3
MAIN001
 73
     0
 74
     0
 75
     1
 40
6.199999809265137
 41
77.36100227928159
 76
     3
 10
1031.397874877354
 20
567.5318907498579
 30
0.0000000000000000
 10
1077.425920643392
 20
621.7697552241908
 30
0.0000000000000000
 10
1081.276920531812
 20
621.7697552241908
 30
0.0000000000000000
340
2FB
213
0.0000000000000000
223
-1.000000000000000
233
0.0000000000000000
1001
ACAD
1000
DSTYLE
1002
{
1070
   147
1040
0.0
1070
    77
1070
     1
1070
   173
1070
     1
1070
     6
1000
_OPEN
1070
     7
1000
_OPEN
1002
}
  0
MTEXT
  5
2FB
102
{ACAD_REACTORS
330
2FA
102
}
100
AcDbEntity
  8
MAIN0
  6
CONTINUOUS
 62
3
100
AcDbMText
 10
1081.277920531812
 20
628.9697550334560
 30
0.0000000000000000
 40
6.199999809265137
 41
0.0000000000000000
 71
     1
 72
     1
  1
{\H0.93x;{4×10-M10 深20\P         DEPTH}}
 11
1.000000000000000
 21
0.0000000000000000
 31
0.0000000000000000
  7
KNJYOKO
  0
CIRCLE
  5
2FC
100
AcDbEntity
  8
MAIN0
  6
CONTINUOUS
 62
3
100
AcDbCircle
 10
841.8384594197621
 20
521.5204008096396
 30
0.0000000000000000
 40
10.00000000000000
  0
CIRCLE
  5
2FD
100
AcDbEntity
  8
MAIN0
  6
CONTINUOUS
 62
3
100
AcDbCircle
 10
799.8384594197619
 20
521.5204008096396
 30
0.0000000000000000
 40
10.00000000000000
  0
CIRCLE
  5
2FE
100
AcDbEntity
  8
MAIN0
  6
CONTINUOUS
 62
3
100
AcDbCircle
 10
799.8384594197619
 20
556.5204008096396
 30
0.0000000000000000
 40
10.00000000000000
  0
CIRCLE
  5
2FF
100
AcDbEntity
  8
MAIN0
  6
CONTINUOUS
 62
3
100
AcDbCircle
 10
841.8384594197621
 20
556.5204008096396
 30
0.0000000000000000
 40
10.00000000000000
  0
CIRCLE
  5
300
100
AcDbEntity
  8
MAIN0
  6
CONTINUOUS
 62
3
100
AcDbCircle
 10
979.3384594197621
 20
583.0204008096396
 30
0.0000000000000000
 40
10.00000000000000
  0
CIRCLE
  5
301
100
AcDbEntity
  8
MAIN0
  6
CONTINUOUS
 62
3
100
AcDbCircle
 10
1024.338459419762
 20
583.0204008096396
 30
0.0000000000000000
 40
10.00000000000000
  0
CIRCLE
  5
302
100
AcDbEntity
  8
MAIN0
  6
CONTINUOUS
 62
3
100
AcDbCircle
 10
1024.338459419762
 20
495.0204008096396
 30
0.0000000000000000
 40
10.00000000000000
  0
CIRCLE
  5
303
100
AcDbEntity
  8
MAIN0
  6
CONTINUOUS
 62
3
100
AcDbCircle
 10
979.3384594197621
 20
495.0204008096396
 30
0.0000000000000000
 40
10.00000000000000
  0
LINE
  5
304
100
AcDbEntity
  8
MAIN0
  6
CENTER
 62
3
100
AcDbLine
 10
1064.395382800906
 20
539.0204008096396
 30
0.0000000000000000
 11
1120.286255779903
 21
539.0204008096396
 31
0.0000000000000000
  0
LINE
  5
305
100
AcDbEntity
  8
MAIN0
  6
CENTER
 62
3
100
AcDbLine
 10
618.4271340834803
 20
539.0204008096396
 30
0.0000000000000000
 11
754.1657545022802
 21
539.0204008096396
 31
0.0000000000000000
  0
LINE
  5
306
100
AcDbEntity
  8
MAIN0
  6
CENTER
 62
3
100
AcDbLine
 10
766.3657543115453
 20
539.0204008096396
 30
0.0000000000000000
 11
1052.195382991641
 21
539.0204008096396
 31
0.0000000000000000
  0
LINE
  5
307
100
AcDbEntity
  8
MAIN0
  6
HIDDEN
 62
3
100
AcDbLine
 10
972.3384594197619
 20
351.0204008096396
 30
0.0000000000000000
 11
986.3384594197619
 21
351.0204008096396
 31
0.0000000000000000
  0
LINE
  5
308
100
AcDbEntity
  8
MAIN0
  6
HIDDEN
 62
3
100
AcDbLine
 10
969.8384594197621
 20
354.2204008096396
 30
0.0000000000000000
 11
988.8384594197619
 21
354.2204008096396
 31
0.0000000000000000
  0
LINE
  5
309
100
AcDbEntity
  8
MAIN0
  6
HIDDEN
 62
3
100
AcDbLine
 10
972.3384594197621
 20
351.0204008096396
 30
0.0000000000000000
 11
972.3384594197621
 21
354.2204008096396
 31
0.0000000000000000
  0
LINE
  5
30A
100
AcDbEntity
  8
MAIN0
  6
HIDDEN
 62
3
100
AcDbLine
 10
969.8384594197621
 20
349.5204008096396
 30
0.0000000000000000
 11
969.8384594197621
 21
354.2204008096396
 31
0.0000000000000000
  0
LINE
  5
30B
100
AcDbEntity
  8
MAIN0
  6
HIDDEN
 62
3
100
AcDbLine
 10
986.3384594197619
 20
351.0204008096396
 30
0.0000000000000000
 11
986.3384594197619
 21
354.2204008096396
 31
0.0000000000000000
  0
LINE
  5
30C
100
AcDbEntity
  8
MAIN0
  6
HIDDEN
 62
3
100
AcDbLine
 10
988.8384594197619
 20
349.5204008096396
 30
0.0000000000000000
 11
988.8384594197619
 21
354.2204008096396
 31
0.0000000000000000
  0
LINE
  5
30D
100
AcDbEntity
  8
MAIN0
  6
HIDDEN
 62
3
100
AcDbLine
 10
851.4384594197625
 20
349.5204008096396
 30
0.0000000000000000
 11
850.8384594197626
 21
350.1204008096396
 31
0.0000000000000000
  0
LINE
  5
30E
100
AcDbEntity
  8
MAIN0
  6
HIDDEN
 62
3
100
AcDbLine
 10
850.8384594197623
 20
350.1204008096396
 30
0.0000000000000000
 11
850.8384594197623
 21
367.0204008096396
 31
0.0000000000000000
  0
LINE
  5
30F
100
AcDbEntity
  8
MAIN0
  6
HIDDEN
 62
3
100
AcDbLine
 10
850.8384594197623
 20
367.0204008096396
 30
0.0000000000000000
 11
831.8384594197623
 21
367.0204008096396
 31
0.0000000000000000
  0
LINE
  5
310
100
AcDbEntity
  8
MAIN0
  6
HIDDEN
 62
3
100
AcDbLine
 10
831.8384594197623
 20
367.0204008096396
 30
0.0000000000000000
 11
831.8384594197623
 21
350.1204008096396
 31
0.0000000000000000
  0
LINE
  5
311
100
AcDbEntity
  8
MAIN0
  6
HIDDEN
 62
3
100
AcDbLine
 10
831.8384594197626
 20
350.1204008096396
 30
0.0000000000000000
 11
831.2384594197624
 21
349.5204008096396
 31
0.0000000000000000
  0
LINE
  5
312
100
AcDbEntity
  8
MAIN0
  6
HIDDEN
 62
3
100
AcDbLine
 10
847.8384594197623
 20
367.0204008096396
 30
0.0000000000000000
 11
847.8384594197623
 21
387.9204008096396
 31
0.0000000000000000
  0
LINE
  5
313
100
AcDbEntity
  8
MAIN0
  6
HIDDEN
 62
3
100
AcDbLine
 10
847.8384594197623
 20
387.9204008096396
 30
0.0000000000000000
 11
848.4384594197625
 21
388.5204008096396
 31
0.0000000000000000
  0
LINE
  5
314
100
AcDbEntity
  8
MAIN0
  6
HIDDEN
 62
3
100
AcDbLine
 10
834.8384594197623
 20
367.0204008096396
 30
0.0000000000000000
 11
834.8384594197623
 21
387.9204008096396
 31
0.0000000000000000
  0
LINE
  5
315
100
AcDbEntity
  8
MAIN0
  6
HIDDEN
 62
3
100
AcDbLine
 10
834.8384594197623
 20
387.9204008096396
 30
0.0000000000000000
 11
834.2384594197624
 21
388.5204008096396
 31
0.0000000000000000
  0
LINE
  5
316
100
AcDbEntity
  8
MAIN0
  6
HIDDEN
 62
3
100
AcDbLine
 10
850.3384594197623
 20
367.0204008096396
 30
0.0000000000000000
 11
850.3384594197623
 21
356.2204008096396
 31
0.0000000000000000
  0
LINE
  5
317
100
AcDbEntity
  8
MAIN0
  6
HIDDEN
 62
3
100
AcDbLine
 10
850.3384594197621
 20
356.2204008096395
 30
0.0000000000000000
 11
848.2599984506794
 21
355.0204008096395
 31
0.0000000000000000
  0
LINE
  5
318
100
AcDbEntity
  8
MAIN0
  6
HIDDEN
 62
3
100
AcDbLine
 10
848.2599984506796
 20
355.0204008096396
 30
0.0000000000000000
 11
834.4169203888450
 21
355.0204008096396
 31
0.0000000000000000
  0
LINE
  5
319
100
AcDbEntity
  8
MAIN0
  6
HIDDEN
 62
3
100
AcDbLine
 10
834.4169203888448
 20
355.0204008096395
 30
0.0000000000000000
 11
832.3384594197621
 21
356.2204008096396
 31
0.0000000000000000
  0
LINE
  5
31A
100
AcDbEntity
  8
MAIN0
  6
HIDDEN
 62
3
100
AcDbLine
 10
832.3384594197623
 20
356.2204008096396
 30
0.0000000000000000
 11
832.3384594197623
 21
367.0204008096396
 31
0.0000000000000000
  0
LINE
  5
31B
100
AcDbEntity
  8
MAIN0
  6
HIDDEN
 62
3
100
AcDbLine
 10
850.3384594197623
 20
356.2204008096396
 30
0.0000000000000000
 11
832.3384594197623
 21
356.2204008096396
 31
0.0000000000000000
  0
LINE
  5
31C
100
AcDbEntity
  8
MAIN0
  6
HIDDEN
 62
3
100
AcDbLine
 10
847.3384594197623
 20
367.0204008096396
 30
0.0000000000000000
 11
847.3384594197623
 21
407.0204008096396
 31
0.0000000000000000
  0
LINE
  5
31D
100
AcDbEntity
  8
MAIN0
  6
HIDDEN
 62
3
100
AcDbLine
 10
847.3384594197623
 20
407.0204008096396
 30
0.0000000000000000
 11
835.3384594197623
 21
407.0204008096396
 31
0.0000000000000000
  0
LINE
  5
31E
100
AcDbEntity
  8
MAIN0
  6
HIDDEN
 62
3
100
AcDbLine
 10
835.3384594197623
 20
407.0204008096396
 30
0.0000000000000000
 11
835.3384594197623
 21
367.0204008096396
 31
0.0000000000000000
  0
LINE
  5
31F
100
AcDbEntity
  8
MAIN0
  6
HIDDEN
 62
3
100
AcDbLine
 10
846.3912439197623
 20
367.0204008096396
 30
0.0000000000000000
 11
846.3912439197623
 21
407.0204008096396
 31
0.0000000000000000
  0
LINE
  5
320
100
AcDbEntity
  8
MAIN0
  6
HIDDEN
 62
3
100
AcDbLine
 10
836.2856749197622
 20
367.0204008096396
 30
0.0000000000000000
 11
836.2856749197622
 21
407.0204008096396
 31
0.0000000000000000
  0
LINE
  5
321
100
AcDbEntity
  8
MAIN0
  6
HIDDEN
 62
3
100
AcDbLine
 10
848.3384594197623
 20
351.0204008096396
 30
0.0000000000000000
 11
834.3384594197626
 21
351.0204008096396
 31
0.0000000000000000
  0
LINE
  5
322
100
AcDbEntity
  8
MAIN0
  6
HIDDEN
 62
3
100
AcDbLine
 10
850.8384594197623
 20
354.2204008096396
 30
0.0000000000000000
 11
831.8384594197626
 21
354.2204008096396
 31
0.0000000000000000
  0
LINE
  5
323
100
AcDbEntity
  8
MAIN0
  6
HIDDEN
 62
3
100
AcDbLine
 10
848.3384594197623
 20
351.0204008096396
 30
0.0000000000000000
 11
848.3384594197623
 21
354.2204008096396
 31
0.0000000000000000
  0
LINE
  5
324
100
AcDbEntity
  8
MAIN0
  6
HIDDEN
 62
3
100
AcDbLine
 10
850.8384594197623
 20
349.5204008096396
 30
0.0000000000000000
 11
850.8384594197623
 21
354.2204008096396
 31
0.0000000000000000
  0
LINE
  5
325
100
AcDbEntity
  8
MAIN0
  6
HIDDEN
 62
3
100
AcDbLine
 10
834.3384594197626
 20
351.0204008096396
 30
0.0000000000000000
 11
834.3384594197626
 21
354.2204008096396
 31
0.0000000000000000
  0
LINE
  5
326
100
AcDbEntity
  8
MAIN0
  6
HIDDEN
 62
3
100
AcDbLine
 10
831.8384594197626
 20
349.5204008096396
 30
0.0000000000000000
 11
831.8384594197626
 21
354.2204008096396
 31
0.0000000000000000
  0
CIRCLE
  5
327
100
AcDbEntity
  8
MAIN0
  6
CONTINUOUS
 62
3
100
AcDbCircle
 10
820.8384594197621
 20
539.0204008096396
 30
0.0000000000000000
 40
4.188101000000000
  0
LINE
  5
328
100
AcDbEntity
  8
MAIN0
  6
CONTINUOUS
 62
3
100
AcDbLine
 10
823.3384594197619
 20
537.5770251366655
 30
0.0000000000000000
 11
820.8384594197619
 21
536.1336494636914
 31
0.0000000000000000
  0
LINE
  5
329
100
AcDbEntity
  8
MAIN0
  6
CONTINUOUS
 62
3
100
AcDbLine
 10
820.8384594197619
 20
536.1336494636914
 30
0.0000000000000000
 11
818.3384594197619
 21
537.5770251366655
 31
0.0000000000000000
  0
LINE
  5
32A
100
AcDbEntity
  8
MAIN0
  6
CONTINUOUS
 62
3
100
AcDbLine
 10
818.3384594197621
 20
537.5770251366655
 30
0.0000000000000000
 11
818.3384594197621
 21
540.4637764826136
 31
0.0000000000000000
  0
LINE
  5
32B
100
AcDbEntity
  8
MAIN0
  6
CONTINUOUS
 62
3
100
AcDbLine
 10
818.3384594197619
 20
540.4637764826136
 30
0.0000000000000000
 11
820.8384594197619
 21
541.9071521555877
 31
0.0000000000000000
  0
LINE
  5
32C
100
AcDbEntity
  8
MAIN0
  6
CONTINUOUS
 62
3
100
AcDbLine
 10
823.3384594197621
 20
540.4637764826136
 30
0.0000000000000000
 11
823.3384594197621
 21
537.5770251366655
 31
0.0000000000000000
  0
LINE
  5
32D
100
AcDbEntity
  8
MAIN0
  6
CONTINUOUS
 62
3
100
AcDbLine
 10
820.8384594197621
 20
541.9071521555877
 30
0.0000000000000000
 11
823.3384594197619
 21
540.4637764826136
 31
0.0000000000000000
  0
CIRCLE
  5
32E
100
AcDbEntity
  8
MAIN0
  6
CONTINUOUS
 62
3
100
AcDbCircle
 10
1001.838459419762
 20
539.0204008096396
 30
0.0000000000000000
 40
4.188101000000000
  0
LINE
  5
32F
100
AcDbEntity
  8
MAIN0
  6
CONTINUOUS
 62
3
100
AcDbLine
 10
1004.338459419762
 20
537.5770251366656
 30
0.0000000000000000
 11
1001.838459419762
 21
536.1336494636915
 31
0.0000000000000000
  0
LINE
  5
330
100
AcDbEntity
  8
MAIN0
  6
CONTINUOUS
 62
3
100
AcDbLine
 10
1001.838459419762
 20
536.1336494636914
 30
0.0000000000000000
 11
999.3384594197619
 21
537.5770251366655
 31
0.0000000000000000
  0
LINE
  5
331
100
AcDbEntity
  8
MAIN0
  6
CONTINUOUS
 62
3
100
AcDbLine
 10
999.3384594197621
 20
537.5770251366655
 30
0.0000000000000000
 11
999.3384594197621
 21
540.4637764826136
 31
0.0000000000000000
  0
LINE
  5
332
100
AcDbEntity
  8
MAIN0
  6
CONTINUOUS
 62
3
100
AcDbLine
 10
999.3384594197619
 20
540.4637764826136
 30
0.0000000000000000
 11
1001.838459419762
 21
541.9071521555877
 31
0.0000000000000000
  0
LINE
  5
333
100
AcDbEntity
  8
MAIN0
  6
CONTINUOUS
 62
3
100
AcDbLine
 10
1004.338459419762
 20
540.4637764826136
 30
0.0000000000000000
 11
1004.338459419762
 21
537.5770251366655
 31
0.0000000000000000
  0
LINE
  5
334
100
AcDbEntity
  8
MAIN0
  6
CONTINUOUS
 62
3
100
AcDbLine
 10
1001.838459419762
 20
541.9071521555876
 30
0.0000000000000000
 11
1004.338459419762
 21
540.4637764826136
 31
0.0000000000000000
  0
LINE
  5
335
100
AcDbEntity
  8
MAIN0
  6
PHANTOM
 62
3
100
AcDbLine
 10
1086.838459419762
 20
603.6650617501498
 30
0.0000000000000000
 11
1086.838459419762
 21
611.5697554149257
 31
0.0000000000000000
  0
LINE
  5
336
100
AcDbEntity
  8
MAIN0
  6
CONTINUOUS
 62
3
100
AcDbLine
 10
1087.838459419762
 20
389.0204008096396
 30
0.0000000000000000
 11
1087.838459419762
 21
611.5697554149257
 31
0.0000000000000000
  0
LINE
  5
337
100
AcDbEntity
  8
MAIN0
  6
CONTINUOUS
 62
3
100
AcDbLine
 10
1087.838459419762
 20
631.9697550334560
 30
0.0000000000000000
 11
1087.838459419762
 21
689.0204008096396
 31
0.0000000000000000
  0
LINE
  5
338
100
AcDbEntity
  8
MAIN0
  6
PHANTOM
 62
3
100
AcDbLine
 10
1086.838459419762
 20
631.9697550334560
 30
0.0000000000000000
 11
1086.838459419762
 21
644.3237016685384
 31
0.0000000000000000
  0
MTEXT
  5
339
100
AcDbEntity
  8
MAIN0
  6
CONTINUOUS
 62
3
100
AcDbMText
 10
397.2247961521922
 20
724.6968785180141
 30
0.0000000000000000
 40
6.199999809265137
 41
0.0000000000000000
 71
     1
 72
     1
  1
{\H0.94x;{CLAMP\P(STANDARD ATTACHMENTS)}}
 11
1.000000000000000
 21
0.0000000000000000
 31
0.0000000000000000
  7
STANDARD
  0
LINE
  5
33A
100
AcDbEntity
  8
MAIN0
  6
CONTINUOUS
 62
3
100
AcDbLine
 10
323.3877752234632
 20
206.2785331511311
 30
0.0000000000000000
 11
362.5383708391274
 21
206.2785331511311
 31
0.0000000000000000
  0
LINE
  5
33B
100
AcDbEntity
  8
MAIN0
  6
CONTINUOUS
 62
3
100
AcDbLine
 10
323.3877752234646
 20
196.2785331511311
 30
0.0000000000000000
 11
425.6684987561574
 21
196.2785331511311
 31
0.0000000000000000
  0
LINE
  5
33C
100
AcDbEntity
  8
MAIN0
  6
CONTINUOUS
 62
3
100
AcDbLine
 10
323.3877752234660
 20
176.2785331511311
 30
0.0000000000000000
 11
494.7703025273795
 21
176.2785331511311
 31
0.0000000000000000
  0
LINE
  5
33D
100
AcDbEntity
  8
MAIN0
  6
CONTINUOUS
 62
3
100
AcDbLine
 10
323.3877752234673
 20
166.2785331511311
 30
0.0000000000000000
 11
494.7703025273795
 21
166.2785331511311
 31
0.0000000000000000
  0
LINE
  5
33E
100
AcDbEntity
  8
MAIN0
  6
CONTINUOUS
 62
3
100
AcDbLine
 10
323.3877752234687
 20
156.2785331511311
 30
0.0000000000000000
 11
494.7703025273795
 21
156.2785331511311
 31
0.0000000000000000
  0
LINE
  5
33F
100
AcDbEntity
  8
MAIN0
  6
CONTINUOUS
 62
3
100
AcDbLine
 10
323.3877752234700
 20
146.2785331511311
 30
0.0000000000000000
 11
494.7703025273795
 21
146.2785331511311
 31
0.0000000000000000
  0
LINE
  5
340
100
AcDbEntity
  8
MAIN0
  6
CONTINUOUS
 62
3
100
AcDbLine
 10
323.3877752234714
 20
136.2785331511311
 30
0.0000000000000000
 11
494.7703025273795
 21
136.2785331511311
 31
0.0000000000000000
  0
LINE
  5
341
100
AcDbEntity
  8
MAIN0
  6
CONTINUOUS
 62
3
100
AcDbLine
 10
323.3877752234728
 20
126.2785331511311
 30
0.0000000000000000
 11
494.7703025273795
 21
126.2785331511311
 31
0.0000000000000000
  0
LINE
  5
342
100
AcDbEntity
  8
MAIN0
  6
CONTINUOUS
 62
3
100
AcDbLine
 10
323.3877752234741
 20
116.2785331511311
 30
0.0000000000000000
 11
494.7703025273795
 21
116.2785331511311
 31
0.0000000000000000
  0
MTEXT
  5
343
100
AcDbEntity
  8
MAIN0
  6
CONTINUOUS
 62
3
100
AcDbMText
 10
324.3877752234660
 20
183.4785329603963
 30
0.0000000000000000
 40
6.199999809265137
 41
0.0000000000000000
 71
     1
 72
     1
  1
{\H0.93x;{ハンドル(長さ180)}}
 11
1.000000000000000
 21
0.0000000000000000
 31
0.0000000000000000
  7
KNJYOKO
  0
MTEXT
  5
344
100
AcDbEntity
  8
MAIN0
  6
CONTINUOUS
 62
3
100
AcDbMText
 10
324.3877752234687
 20
163.4785329603963
 30
0.0000000000000000
 40
6.199999809265137
 41
0.0000000000000000
 71
     1
 72
     1
  1
{\H0.94x;{スライドカバー(内蔵式)}}
 11
1.000000000000000
 21
0.0000000000000000
 31
0.0000000000000000
  7
KNJYOKO
  0
MTEXT
  5
345
100
AcDbEntity
  8
MAIN0
  6
CONTINUOUS
 62
3
100
AcDbMText
 10
324.3877752234714
 20
143.4785329603963
 30
0.0000000000000000
 40
6.199999809265137
 41
0.0000000000000000
 71
     1
 72
     1
  1
{\H0.94x;{クランプ器具（□500パレット用）}}
 11
1.000000000000000
 21
0.0000000000000000
 31
0.0000000000000000
  7
KNJYOKO
  0
MTEXT
  5
346
100
AcDbEntity
  8
MAIN0
  6
CONTINUOUS
 62
3
100
AcDbMText
 10
324.3877752234741
 20
123.4785329603963
 30
0.0000000000000000
 40
6.199999809265137
 41
0.0000000000000000
 71
     1
 72
     1
  1
{\H0.93x;{アイボルト　M12}}
 11
1.000000000000000
 21
0.0000000000000000
 31
0.0000000000000000
  7
KNJYOKO
  0
LINE
  5
347
100
AcDbEntity
  8
MAIN0
  6
CONTINUOUS
 62
3
100
AcDbLine
 10
323.3877752234755
 20
106.2785331511311
 30
0.0000000000000000
 11
494.7703025273795
 21
106.2785331511311
 31
0.0000000000000000
  0
MTEXT
  5
348
100
AcDbEntity
  8
MAIN0
  6
CONTINUOUS
 62
3
100
AcDbMText
 10
324.3877752234755
 20
113.4785329603963
 30
0.0000000000000000
 40
6.199999809265137
 41
0.0000000000000000
 71
     1
 72
     1
  1
{\H0.93x;{EYE BOLT M12}}
 11
1.000000000000000
 21
0.0000000000000000
 31
0.0000000000000000
  7
STANDARD
  0
MTEXT
  5
349
100
AcDbEntity
  8
MAIN0
  6
CONTINUOUS
 62
3
100
AcDbMText
 10
454.3877752234660
 20
183.4785329603963
 30
0.0000000000000000
 40
6.199999809265137
 41
0.0000000000000000
 71
     1
 72
     1
  1
{\H0.89x;{1本}}
 11
1.000000000000000
 21
0.0000000000000000
 31
0.0000000000000000
  7
KNJYOKO
  0
MTEXT
  5
34A
100
AcDbEntity
  8
MAIN0
  6
CONTINUOUS
 62
3
100
AcDbMText
 10
454.3877752234741
 20
123.4785329603963
 30
0.0000000000000000
 40
6.199999809265137
 41
0.0000000000000000
 71
     1
 72
     1
  1
{\H0.89x;{1本}}
 11
1.000000000000000
 21
0.0000000000000000
 31
0.0000000000000000
  7
KNJYOKO
  0
MTEXT
  5
34B
100
AcDbEntity
  8
MAIN0
  6
CONTINUOUS
 62
3
100
AcDbMText
 10
454.3877752234687
 20
163.4785329603963
 30
0.0000000000000000
 40
6.199999809265137
 41
0.0000000000000000
 71
     1
 72
     1
  1
{\H0.92x;{1セット}}
 11
1.000000000000000
 21
0.0000000000000000
 31
0.0000000000000000
  7
KNJYOKO
  0
MTEXT
  5
34C
100
AcDbEntity
  8
MAIN0
  6
CONTINUOUS
 62
3
100
AcDbMText
 10
454.3877752234700
 20
152.8785330557637
 30
0.0000000000000000
 40
5.599999904632568
 41
0.0000000000000000
 71
     1
 72
     1
  1
{\H0.92x;{1 SET}}
 11
1.000000000000000
 21
0.0000000000000000
 31
0.0000000000000000
  7
STANDARD
  0
MTEXT
  5
34D
100
AcDbEntity
  8
MAIN0
  6
CONTINUOUS
 62
3
100
AcDbMText
 10
454.3877752234714
 20
143.4785329603963
 30
0.0000000000000000
 40
6.199999809265137
 41
0.0000000000000000
 71
     1
 72
     1
  1
{\H0.92x;{1セット}}
 11
1.000000000000000
 21
0.0000000000000000
 31
0.0000000000000000
  7
KNJYOKO
  0
MTEXT
  5
34E
100
AcDbEntity
  8
MAIN0
  6
CONTINUOUS
 62
3
100
AcDbMText
 10
324.3877752234632
 20
213.4785329603963
 30
0.0000000000000000
 40
6.199999809265137
 41
0.0000000000000000
 71
     1
 72
     1
  1
{\H0.93x;{標準付属品}}
 11
1.000000000000000
 21
0.0000000000000000
 31
0.0000000000000000
  7
KNJYOKO
  0
MTEXT
  5
34F
100
AcDbEntity
  8
MAIN0
  6
CONTINUOUS
 62
3
100
AcDbMText
 10
324.3877752234673
 20
173.4785329603963
 30
0.0000000000000000
 40
6.199999809265137
 41
0.0000000000000000
 71
     1
 72
     1
  1
{\H0.94x;{HANDLE(Length 180)}}
 11
1.000000000000000
 21
0.0000000000000000
 31
0.0000000000000000
  7
STANDARD
  0
MTEXT
  5
350
100
AcDbEntity
  8
MAIN0
  6
CONTINUOUS
 62
3
100
AcDbMText
 10
324.3877752234700
 20
153.4785329603963
 30
0.0000000000000000
 40
6.199999809265137
 41
0.0000000000000000
 71
     1
 72
     1
  1
{\H0.93x;{SLIDE COVER}}
 11
1.000000000000000
 21
0.0000000000000000
 31
0.0000000000000000
  7
STANDARD
  0
MTEXT
  5
351
100
AcDbEntity
  8
MAIN0
  6
CONTINUOUS
 62
3
100
AcDbMText
 10
324.3877752234728
 20
133.4785329603963
 30
0.0000000000000000
 40
6.199999809265137
 41
0.0000000000000000
 71
     1
 72
     1
  1
{\H0.94x;{CLAMP DEVICE (□500)}}
 11
1.000000000000000
 21
0.0000000000000000
 31
0.0000000000000000
  7
KNJYOKO
  0
MTEXT
  5
352
100
AcDbEntity
  8
MAIN0
  6
CONTINUOUS
 62
3
100
AcDbMText
 10
562.5588706175618
 20
165.6000535331816
 30
0.0000000000000000
 40
6.199999809265137
 41
0.0000000000000000
 71
     1
 72
     1
  1
{\H0.93x;{特別付属品}}
 11
1.000000000000000
 21
0.0000000000000000
 31
0.0000000000000000
  7
KNJYOKO
  0
LINE
  5
353
100
AcDbEntity
  8
MAIN0
  6
CONTINUOUS
 62
3
100
AcDbLine
 10
561.5588706175618
 20
158.4000537239165
 30
0.0000000000000000
 11
600.7094662332258
 21
158.4000537239165
 31
0.0000000000000000
  0
LINE
  5
354
100
AcDbEntity
  8
MAIN0
  6
CONTINUOUS
 62
3
100
AcDbLine
 10
561.5588706175631
 20
148.4000537239165
 30
0.0000000000000000
 11
658.7333087596992
 21
148.4000537239165
 31
0.0000000000000000
  0
LINE
  5
355
100
AcDbEntity
  8
MAIN0
  6
CONTINUOUS
 62
3
100
AcDbLine
 10
561.5588706175645
 20
128.4000537239165
 30
0.0000000000000000
 11
704.9968004119546
 21
128.4000537239165
 31
0.0000000000000000
  0
LINE
  5
356
100
AcDbEntity
  8
MAIN0
  6
CONTINUOUS
 62
3
100
AcDbLine
 10
561.5588706175658
 20
118.4000537239165
 30
0.0000000000000000
 11
704.9968004119546
 21
118.4000537239165
 31
0.0000000000000000
  0
LINE
  5
357
100
AcDbEntity
  8
MAIN0
  6
CONTINUOUS
 62
3
100
AcDbLine
 10
561.5588706175672
 20
108.4000537239165
 30
0.0000000000000000
 11
704.9968004119546
 21
108.4000537239165
 31
0.0000000000000000
  0
LINE
  5
358
100
AcDbEntity
  8
MAIN0
  6
CONTINUOUS
 62
3
100
AcDbLine
 10
561.5588706175686
 20
98.40005372391647
 30
0.0000000000000000
 11
704.9968004119546
 21
98.40005372391647
 31
0.0000000000000000
  0
MTEXT
  5
359
100
AcDbEntity
  8
MAIN0
  6
CONTINUOUS
 62
3
100
AcDbMText
 10
562.5588706175631
 20
155.0000536285490
 30
0.0000000000000000
 40
5.599999904632568
 41
0.0000000000000000
 71
     1
 72
     1
  1
{\H0.94x;{SPECIAL ATTACHMENTS}}
 11
1.000000000000000
 21
0.0000000000000000
 31
0.0000000000000000
  7
STANDARD
  0
MTEXT
  5
35A
100
AcDbEntity
  8
MAIN0
  6
CONTINUOUS
 62
3
100
AcDbMText
 10
562.5588706175658
 20
125.6000535331816
 30
0.0000000000000000
 40
6.199999809265137
 41
0.0000000000000000
 71
     1
 72
     1
  1
{\H0.94x;{CLAMP DEVICE (□400)}}
 11
1.000000000000000
 21
0.0000000000000000
 31
0.0000000000000000
  7
KNJYOKO
  0
MTEXT
  5
35B
100
AcDbEntity
  8
MAIN0
  6
CONTINUOUS
 62
3
100
AcDbMText
 10
562.5588706175645
 20
135.6000535331816
 30
0.0000000000000000
 40
6.199999809265137
 41
0.0000000000000000
 71
     1
 72
     1
  1
{\H0.94x;{クランプ器具（□４００パレット用、他）}}
 11
1.000000000000000
 21
0.0000000000000000
 31
0.0000000000000000
  7
KNJYOKO
  0
MTEXT
  5
35C
100
AcDbEntity
  8
MAIN0
  6
CONTINUOUS
 62
3
100
AcDbMText
 10
562.5588706175672
 20
115.6000535331816
 30
0.0000000000000000
 40
6.199999809265137
 41
0.0000000000000000
 71
     1
 72
     1
  1
{\H0.93x;{センタプラグ}}
 11
1.000000000000000
 21
0.0000000000000000
 31
0.0000000000000000
  7
KNJYOKO
  0
MTEXT
  5
35D
100
AcDbEntity
  8
MAIN0
  6
CONTINUOUS
 62
3
100
AcDbMText
 10
562.5588706175686
 20
105.6000535331816
 30
0.0000000000000000
 40
6.199999809265137
 41
0.0000000000000000
 71
     1
 72
     1
  1
{\H0.93x;{CENTER PLUG}}
 11
1.000000000000000
 21
0.0000000000000000
 31
0.0000000000000000
  7
STANDARD
  0
MTEXT
  5
35E
100
AcDbEntity
  8
MAIN0
  6
CONTINUOUS
 62
3
100
AcDbMText
 10
368.9001852585928
 20
421.1165904139300
 30
0.0000000000000000
 40
5.599999904632568
 41
0.0000000000000000
 71
     1
 72
     1
  1
{\H0.94x;{CLAMP\P(SPECIAL ATTACHMENTS)}}
 11
1.000000000000000
 21
0.0000000000000000
 31
0.0000000000000000
  7
STANDARD
  0
MTEXT
  5
35F
100
AcDbEntity
  8
MAIN0
  6
CONTINUOUS
 62
3
100
AcDbMText
 10
324.3877752234646
 20
202.8785330557637
 30
0.0000000000000000
 40
5.599999904632568
 41
0.0000000000000000
 71
     1
 72
     1
  1
{\H0.94x;{STANDARD ATTACHMENTS}}
 11
1.000000000000000
 21
0.0000000000000000
 31
0.0000000000000000
  7
STANDARD
  0
MTEXT
  5
360
100
AcDbEntity
  8
MAIN0
  6
CONTINUOUS
 62
3
100
AcDbMText
 10
454.3877752234673
 20
172.8785330557637
 30
0.0000000000000000
 40
5.599999904632568
 41
0.0000000000000000
 71
     1
 72
     1
  1
{\H0.93x;{1 PIECES}}
 11
1.000000000000000
 21
0.0000000000000000
 31
0.0000000000000000
  7
STANDARD
  0
MTEXT
  5
361
100
AcDbEntity
  8
MAIN0
  6
CONTINUOUS
 62
3
100
AcDbMText
 10
454.3877752234755
 20
112.8785330557637
 30
0.0000000000000000
 40
5.599999904632568
 41
0.0000000000000000
 71
     1
 72
     1
  1
{\H0.93x;{1 PIECES}}
 11
1.000000000000000
 21
0.0000000000000000
 31
0.0000000000000000
  7
STANDARD
  0
MTEXT
  5
362
100
AcDbEntity
  8
MAIN0
  6
CONTINUOUS
 62
3
100
AcDbMText
 10
454.3877752234728
 20
132.8785330557637
 30
0.0000000000000000
 40
5.599999904632568
 41
0.0000000000000000
 71
     1
 72
     1
  1
{\H0.92x;{1 SET}}
 11
1.000000000000000
 21
0.0000000000000000
 31
0.0000000000000000
  7
STANDARD
  0
MTEXT
  5
363
100
AcDbEntity
  8
MAIN0
  6
CONTINUOUS
 62
3
100
AcDbMText
 10
278.2087840847577
 20
269.6950601870232
 30
0.0000000000000000
 40
5.599999904632568
 41
0.0000000000000000
 71
     1
 72
     1
  1
{\H0.93x;{(PALLET SIZE)\P}
 11
1.000000000000000
 21
0.0000000000000000
 31
0.0000000000000000
  7
STANDARD
  0
MTEXT
  5
364
100
AcDbEntity
  8
MAIN0
  6
CONTINUOUS
 62
3
100
AcDbMText
 10
278.2433176017711
 20
829.7468296601622
 30
0.0000000000000000
 40
5.599999904632568
 41
0.0000000000000000
 71
     1
 72
     1
  1
{\H0.93x;{(PALLET SIZE)\P}
 11
1.000000000000000
 21
0.0000000000000000
 31
0.0000000000000000
  7
STANDARD
  0
LINE
  5
365
100
AcDbEntity
  8
MAIN0
  6
CONTINUOUS
 62
3
100
AcDbLine
 10
1041.838459419762
 20
389.0204008096396
 30
0.0000000000000000
 11
1041.838459419762
 21
483.0204008096396
 31
0.0000000000000000
  0
ELLIPSE
  5
366
100
AcDbEntity
  8
MAIN0
  6
CONTINUOUS
 62
3
100
AcDbEllipse
 10
1054.338459419762
 20
471.0204008096396
 30
0.0000000000000000
 11
-12.50000000000000
 21
0.0000000000000000
 31
0.0000000000000000
210
0.0000000000000000
220
0.0000000000000000
230
1.000000000000000
 40
0.8000000000000000
 41
3.141592653589793
 42
0.0000000000000000
  0
ELLIPSE
  5
367
100
AcDbEntity
  8
MAIN0
  6
CONTINUOUS
 62
3
100
AcDbEllipse
 10
1054.338459419762
 20
607.0204008096396
 30
0.0000000000000000
 11
12.50000000000000
 21
0.0000000000000000
 31
0.0000000000000000
210
0.0000000000000000
220
0.0000000000000000
230
1.000000000000000
 40
0.8000000000000000
 41
3.141592653589793
 42
0.0000000000000000
  0
LINE
  5
368
100
AcDbEntity
  8
MAIN0
  6
CONTINUOUS
 62
3
100
AcDbLine
 10
1041.838459419762
 20
689.0204008096396
 30
0.0000000000000000
 11
1041.838459419762
 21
595.0204008096396
 31
0.0000000000000000
  0
LINE
  5
369
100
AcDbEntity
  8
MAIN0
  6
CONTINUOUS
 62
3
100
AcDbLine
 10
1040.838459418001
 20
476.7704008096396
 30
0.0000000000000000
 11
1040.838459417725
 21
601.2704008096396
 31
0.0000000000000000
  0
LINE
  5
36A
100
AcDbEntity
  8
MAIN0
  6
CONTINUOUS
 62
3
100
AcDbLine
 10
1040.838459417530
 20
689.0204008096396
 30
0.0000000000000000
 11
1040.838459417443
 21
728.5204008096396
 31
0.0000000000000000
  0
DIMENSION
  5
373
100
AcDbEntity
  8
MAIN0
  6
CONTINUOUS
 62
3
100
AcDbDimension
  2
*D36
 10
1087.838459419762
 20
320.1497292632821
 30
0.0000000000000000
 11
1077.338459419762
 21
320.6497292632821
 31
0.0000000000000000
 70
32
  3
MAIN001
100
AcDbAlignedDimension
 13
1066.838459419762
 23
389.0204008096396
 33
0.0000000000000000
 14
1087.838459419762
 24
389.0204008096396
 34
0.0000000000000000
100
AcDbRotatedDimension
1001
ACAD
1000
DSTYLE
1002
{
1070
   173
1070
     1
1070
     6
1000
_OPEN
1070
     7
1000
_OPEN
1070
    41
1040
4.000000
1002
}
  0
DIMENSION
  5
37C
100
AcDbEntity
  8
MAIN0
  6
CONTINUOUS
 62
3
100
AcDbDimension
  2
*D37
 10
1066.838459419762
 20
320.1497292632821
 30
0.0000000000000000
 11
1054.338459419762
 21
320.6497292632821
 31
0.0000000000000000
 70
32
  3
MAIN001
100
AcDbAlignedDimension
 13
1041.838459419762
 23
389.0204008096396
 33
0.0000000000000000
 14
1066.838459419762
 24
389.0204008096396
 34
0.0000000000000000
100
AcDbRotatedDimension
1001
ACAD
1000
DSTYLE
1002
{
1070
   173
1070
     1
1070
     6
1000
_OPEN
1070
     7
1000
_OPEN
1070
    41
1040
4.000000
1002
}
  0
LINE
  5
37D
100
AcDbEntity
  8
MAIN0
  6
CONTINUOUS
 62
3
100
AcDbLine
 10
1085.338459419700
 20
695.0204008097805
 30
0.0000000000000000
 11
1085.338459419704
 21
689.0204008097805
 31
0.0000000000000000
  0
LINE
  5
37E
100
AcDbEntity
  8
MAIN0
  6
HIDDEN
 62
3
100
AcDbLine
 10
1084.338459419701
 20
694.0204008097800
 30
0.0000000000000000
 11
1084.338459419704
 21
689.0204008097800
 31
0.0000000000000000
  0
LINE
  5
37F
100
AcDbEntity
  8
MAIN0
  6
HIDDEN
 62
3
100
AcDbLine
 10
1041.838459419701
 20
694.0204008097531
 30
0.0000000000000000
 11
1084.338459419701
 21
694.0204008097800
 31
0.0000000000000000
  0
LINE
  5
380
100
AcDbEntity
  8
MAIN0
  6
CONTINUOUS
 62
3
100
AcDbLine
 10
1040.838459419700
 20
695.0204008097526
 30
0.0000000000000000
 11
1085.338459419700
 21
695.0204008097805
 31
0.0000000000000000
  0
LINE
  5
381
100
AcDbEntity
  8
MAIN0
  6
HIDDEN
 62
3
100
AcDbLine
 10
1041.838459419701
 20
694.0204008097533
 30
0.0000000000000000
 11
1041.838459419704
 21
689.0204008097533
 31
0.0000000000000000
  0
DIMENSION
  5
38A
100
AcDbEntity
  8
MAIN0
  6
CONTINUOUS
 62
3
100
AcDbDimension
  2
*D38
 10
648.4948039455702
 20
725.8942521963461
 30
0.0000000000000000
 11
641.4237361337047
 21
733.6724267893982
 31
0.0000000000000000
 70
32
  3
MAIN001
100
AcDbAlignedDimension
 13
647.0992019291346
 23
754.1971349897456
 33
0.0000000000000000
 14
718.5169868289759
 24
795.9164350797518
 34
0.0000000000000000
 50
135.0000000000002
100
AcDbRotatedDimension
1001
ACAD
1000
DSTYLE
1002
{
1070
   173
1070
     1
1070
     6
1000
_OPEN
1070
     7
1000
_OPEN
1070
    41
1040
4.000000
1002
}
  0
DIMENSION
  5
395
100
AcDbEntity
  8
MAIN0
  6
CONTINUOUS
 62
3
100
AcDbDimension
  2
*D39
 10
633.6455615406526
 20
740.7434946012636
 30
0.0000000000000000
 11
630.8171344159064
 21
744.2790285071965
 31
0.0000000000000000
 70
32
  3
MAIN001
100
AcDbAlignedDimension
 13
640.7352408984555
 23
760.5610960204244
 33
0.0000000000000000
 14
647.0992019291346
 24
754.1971349897456
 34
0.0000000000000000
 50
134.9999999999995
100
AcDbRotatedDimension
1001
ACAD
1000
DSTYLE
1002
{
1070
   173
1070
     1
1070
     6
1000
_OPEN
1070
     7
1000
_OPEN
1070
    41
1040
4.000000
1070
   287
1070
     0
1002
}
  0
DIMENSION
  5
39E
100
AcDbEntity
  8
MAIN0
  6
CONTINUOUS
 62
3
100
AcDbDimension
  2
*D40
 10
718.1456905583736
 20
837.9715456803424
 30
0.0000000000000000
 11
729.1058456667652
 21
827.7184973531375
 31
0.0000000000000000
 70
33
  3
MAIN001
100
AcDbAlignedDimension
 13
725.5880546408414
 23
802.9875028916172
 33
0.0000000000000000
 14
704.3748512052449
 24
824.2007063272137
 34
0.0000000000000000
 50
135.0000000000002
1001
ACAD
1000
DSTYLE
1002
{
1070
   173
1070
     1
1070
     6
1000
_OPEN
1070
     7
1000
_OPEN
1070
    41
1040
4.000000
1002
}
  0
LINE
  5
39F
100
AcDbEntity
  8
MAIN0
  6
CENTER
 62
3
100
AcDbLine
 10
653.3710554056804
 20
804.4938240081236
 30
0.0000000000000000
 11
715.8813281535726
 21
741.9835512602316
 31
0.0000000000000000
  0
MTEXT
  5
3A0
100
AcDbEntity
  8
MAIN0
  6
CONTINUOUS
 62
3
100
AcDbMText
 10
1117.112091036148
 20
452.8785981636403
 30
0.0000000000000000
 40
6.199999809265137
 41
0.0000000000000000
 71
     1
 72
     1
  1
{\H0.93x;{PLUG\P(OPTION)}}
 11
1.000000000000000
 21
0.0000000000000000
 31
0.0000000000000000
  7
STANDARD
  0
CIRCLE
  5
3A1
100
AcDbEntity
  8
MAIN0
  6
CONTINUOUS
 62
3
100
AcDbCircle
 10
274.4081674440012
 20
539.0204008096396
 30
0.0000000000000000
 40
6.000000000000000
  0
CIRCLE
  5
3A2
100
AcDbEntity
  8
MAIN0
  6
CONTINUOUS
 62
3
100
AcDbCircle
 10
274.4081674440012
 20
539.0204008096396
 30
0.0000000000000000
 40
5.100000000000001
  0
CIRCLE
  5
3A3
100
AcDbEntity
  8
MAIN0
  6
PHANTOM
 62
3
100
AcDbCircle
 10
354.4081674440011
 20
459.0204008096396
 30
0.0000000000000000
 40
12.00000000000000
  0
LINE
  5
3A4
100
AcDbEntity
  8
MAIN0
  6
PHANTOM
 62
3
100
AcDbLine
 10
354.4081674440011
 20
467.1033045782943
 30
0.0000000000000000
 11
347.4081674440011
 21
463.0618526939670
 31
0.0000000000000000
  0
LINE
  5
3A5
100
AcDbEntity
  8
MAIN0
  6
PHANTOM
 62
3
100
AcDbLine
 10
347.4081674440011
 20
463.0618526939669
 30
0.0000000000000000
 11
347.4081674440011
 21
454.9789489253121
 31
0.0000000000000000
  0
LINE
  5
3A6
100
AcDbEntity
  8
MAIN0
  6
PHANTOM
 62
3
100
AcDbLine
 10
347.4081674440011
 20
454.9789489253121
 30
0.0000000000000000
 11
354.4081674440012
 21
450.9374970409848
 31
0.0000000000000000
  0
LINE
  5
3A7
100
AcDbEntity
  8
MAIN0
  6
PHANTOM
 62
3
100
AcDbLine
 10
354.4081674440010
 20
450.9374970409848
 30
0.0000000000000000
 11
361.4081674440010
 21
454.9789489253122
 31
0.0000000000000000
  0
LINE
  5
3A8
100
AcDbEntity
  8
MAIN0
  6
PHANTOM
 62
3
100
AcDbLine
 10
361.4081674440011
 20
454.9789489253121
 30
0.0000000000000000
 11
361.4081674440011
 21
463.0618526939669
 31
0.0000000000000000
  0
LINE
  5
3A9
100
AcDbEntity
  8
MAIN0
  6
PHANTOM
 62
3
100
AcDbLine
 10
361.4081674440010
 20
463.0618526939670
 30
0.0000000000000000
 11
354.4081674440011
 21
467.1033045782943
 31
0.0000000000000000
  0
CIRCLE
  5
3AA
100
AcDbEntity
  8
MAIN0
  6
PHANTOM
 62
3
100
AcDbCircle
 10
374.4081674440011
 20
639.0204008096396
 30
0.0000000000000000
 40
12.00000000000000
  0
LINE
  5
3AB
100
AcDbEntity
  8
MAIN0
  6
PHANTOM
 62
3
100
AcDbLine
 10
374.4081674440010
 20
647.1033045782942
 30
0.0000000000000000
 11
367.4081674440010
 21
643.0618526939669
 31
0.0000000000000000
  0
LINE
  5
3AC
100
AcDbEntity
  8
MAIN0
  6
PHANTOM
 62
3
100
AcDbLine
 10
367.4081674440011
 20
643.0618526939669
 30
0.0000000000000000
 11
367.4081674440011
 21
634.9789489253121
 31
0.0000000000000000
  0
LINE
  5
3AD
100
AcDbEntity
  8
MAIN0
  6
PHANTOM
 62
3
100
AcDbLine
 10
367.4081674440011
 20
634.9789489253121
 30
0.0000000000000000
 11
374.4081674440011
 21
630.9374970409847
 31
0.0000000000000000
  0
LINE
  5
3AE
100
AcDbEntity
  8
MAIN0
  6
PHANTOM
 62
3
100
AcDbLine
 10
374.4081674440010
 20
630.9374970409847
 30
0.0000000000000000
 11
381.4081674440010
 21
634.9789489253121
 31
0.0000000000000000
  0
LINE
  5
3AF
100
AcDbEntity
  8
MAIN0
  6
PHANTOM
 62
3
100
AcDbLine
 10
381.4081674440011
 20
634.9789489253121
 30
0.0000000000000000
 11
381.4081674440011
 21
643.0618526939669
 31
0.0000000000000000
  0
LINE
  5
3B0
100
AcDbEntity
  8
MAIN0
  6
PHANTOM
 62
3
100
AcDbLine
 10
381.4081674440010
 20
643.0618526939669
 30
0.0000000000000000
 11
374.4081674440011
 21
647.1033045782942
 31
0.0000000000000000
  0
LINE
  5
3B1
100
AcDbEntity
  8
MAIN0
  6
PHANTOM
 62
3
100
AcDbLine
 10
360.6195852108632
 20
596.2404405478535
 30
0.0000000000000000
 11
331.6282071822147
 21
625.2318185765021
 31
0.0000000000000000
  0
LINE
  5
3B2
100
AcDbEntity
  8
MAIN0
  6
PHANTOM
 62
3
100
AcDbLine
 10
432.7444768918912
 20
651.3947694804039
 30
0.0000000000000000
 11
386.7825361147658
 21
697.3567102575296
 31
0.0000000000000000
  0
LINE
  5
3B3
100
AcDbEntity
  8
MAIN0
  6
PHANTOM
 62
3
100
AcDbLine
 10
432.7444768918912
 20
651.3947694804040
 30
0.0000000000000000
 11
377.5901479592819
 21
596.2404405477950
 31
0.0000000000000000
  0
LINE
  5
3B4
100
AcDbEntity
  8
MAIN0
  6
PHANTOM
 62
3
100
AcDbLine
 10
386.7825361147658
 20
697.3567102575297
 30
0.0000000000000000
 11
331.6282071822938
 21
642.2023813250580
 31
0.0000000000000000
  0
LINE
  5
3B5
100
AcDbEntity
  8
MAIN0
  6
PHANTOM
 62
3
100
AcDbLine
 10
360.6195852108632
 20
596.2404405478534
 30
0.0000000000000000
 11
377.5901479592548
 21
596.2404405477950
 31
0.0000000000000000
  0
LINE
  5
3B6
100
AcDbEntity
  8
MAIN0
  6
PHANTOM
 62
3
100
AcDbLine
 10
331.6282071822148
 20
625.2318185765021
 30
0.0000000000000000
 11
331.6282071822939
 21
642.2023813250854
 31
0.0000000000000000
  0
LINE
  5
3B7
100
AcDbEntity
  8
MAIN0
  6
CONTINUOUS
 62
3
100
AcDbLine
 10
725.5880546408414
 20
802.9875028916173
 30
0.0000000000000000
 11
718.5169868289759
 21
795.9164350797519
 31
0.0000000000000000
  0
LINE
  5
3B8
100
AcDbEntity
  8
MAIN0
  6
CONTINUOUS
 62
3
100
AcDbLine
 10
717.8098800477893
 20
796.6235418609384
 30
0.0000000000000000
 11
661.2413375528652
 21
740.0549993660144
 31
0.0000000000000000
  0
LINE
  5
3B9
100
AcDbEntity
  8
MAIN0
  6
CONTINUOUS
 62
3
100
AcDbLine
 10
663.0091045061038
 20
770.1070375667148
 30
0.0000000000000000
 11
647.0992019291343
 21
754.1971349897455
 31
0.0000000000000000
  0
LINE
  5
3BA
100
AcDbEntity
  8
MAIN0
  6
CONTINUOUS
 62
3
100
AcDbLine
 10
704.3748512052450
 20
824.2007063272138
 30
0.0000000000000000
 11
640.7352408984555
 21
760.5610960204244
 31
0.0000000000000000
  0
LINE
  5
3BB
100
AcDbEntity
  8
MAIN0
  6
CONTINUOUS
 62
3
100
AcDbLine
 10
640.7352408984555
 20
760.5610960204242
 30
0.0000000000000000
 11
661.2413375528654
 21
740.0549993660144
 31
0.0000000000000000
  0
LINE
  5
3BC
100
AcDbEntity
  8
MAIN0
  6
CONTINUOUS
 62
3
100
AcDbLine
 10
704.3748512052448
 20
824.2007063272138
 30
0.0000000000000000
 11
725.5880546408413
 21
802.9875028916173
 31
0.0000000000000000
  0
LINE
  5
3BD
100
AcDbEntity
  8
MAIN0
  6
CONTINUOUS
 62
3
100
AcDbLine
 10
717.8098800477892
 20
796.6235418609382
 30
0.0000000000000000
 11
718.5169868289756
 21
795.9164350797516
 31
0.0000000000000000
  0
LINE
  5
3BE
100
AcDbEntity
  8
MAIN0
  6
CONTINUOUS
 62
3
100
AcDbLine
 10
663.0091045061038
 20
770.1070375667148
 30
0.0000000000000000
 11
677.1512401298346
 21
755.9649019429838
 31
0.0000000000000000
  0
LINE
  5
3BF
100
AcDbEntity
  8
MAIN0
  6
CONTINUOUS
 62
3
100
AcDbLine
 10
385.5351840977937
 20
546.0204008096396
 30
0.0000000000000000
 11
393.2811507902085
 21
546.0204008096396
 31
0.0000000000000000
  0
LINE
  5
3C0
100
AcDbEntity
  8
MAIN0
  6
CONTINUOUS
 62
3
100
AcDbLine
 10
385.5351840977937
 20
532.0204008096396
 30
0.0000000000000000
 11
393.2811507902085
 21
532.0204008096396
 31
0.0000000000000000
  0
LINE
  5
3C1
100
AcDbEntity
  8
MAIN0
  6
CONTINUOUS
 62
3
100
AcDbLine
 10
393.2811507902086
 20
546.0204008096396
 30
0.0000000000000000
 11
397.4081674440012
 21
539.0204008096396
 31
0.0000000000000000
  0
LINE
  5
3C2
100
AcDbEntity
  8
MAIN0
  6
CONTINUOUS
 62
3
100
AcDbLine
 10
397.4081674440012
 20
539.0204008096396
 30
0.0000000000000000
 11
393.2811507902085
 21
532.0204008096396
 31
0.0000000000000000
  0
LINE
  5
3C3
100
AcDbEntity
  8
MAIN0
  6
CONTINUOUS
 62
3
100
AcDbLine
 10
385.5351840977938
 20
532.0204008096396
 30
0.0000000000000000
 11
381.4081674440012
 21
539.0204008096396
 31
0.0000000000000000
  0
LINE
  5
3C4
100
AcDbEntity
  8
MAIN0
  6
CONTINUOUS
 62
3
100
AcDbLine
 10
381.4081674440012
 20
539.0204008096397
 30
0.0000000000000000
 11
385.5351840977937
 21
546.0204008096396
 31
0.0000000000000000
  0
LINE
  5
3C5
100
AcDbEntity
  8
MAIN0
  6
PHANTOM
 62
3
100
AcDbLine
 10
352.2868471004414
 20
482.3549245887956
 30
0.0000000000000000
 11
331.0736436648450
 21
461.1417211531991
 31
0.0000000000000000
  0
LINE
  5
3C6
100
AcDbEntity
  8
MAIN0
  6
PHANTOM
 62
3
100
AcDbLine
 10
396.8345743151939
 20
473.1625364333706
 30
0.0000000000000000
 11
340.2660318202702
 21
416.5939939384467
 31
0.0000000000000000
  0
LINE
  5
3C7
100
AcDbEntity
  8
MAIN0
  6
PHANTOM
 62
3
100
AcDbLine
 10
396.8345743151940
 20
473.1625364333706
 30
0.0000000000000000
 11
387.6421861598129
 21
482.3549245887515
 31
0.0000000000000000
  0
LINE
  5
3C8
100
AcDbEntity
  8
MAIN0
  6
PHANTOM
 62
3
100
AcDbLine
 10
340.2660318202703
 20
416.5939939384467
 30
0.0000000000000000
 11
331.0736436648675
 21
425.7863820938493
 31
0.0000000000000000
  0
LINE
  5
3C9
100
AcDbEntity
  8
MAIN0
  6
PHANTOM
 62
3
100
AcDbLine
 10
331.0736436648450
 20
461.1417211531991
 30
0.0000000000000000
 11
331.0736436648675
 21
425.7863820938276
 31
0.0000000000000000
  0
LINE
  5
3CA
100
AcDbEntity
  8
MAIN0
  6
PHANTOM
 62
3
100
AcDbLine
 10
352.2868471004414
 20
482.3549245887956
 30
0.0000000000000000
 11
387.6421861597912
 21
482.3549245887515
 31
0.0000000000000000
  0
LINE
  5
3CB
100
AcDbEntity
  8
MAIN0
  6
CONTINUOUS
 62
3
100
AcDbLine
 10
493.6931599523178
 20
263.1668658062324
 30
0.0000000000000000
 11
509.2495091384219
 21
247.6105166201284
 31
0.0000000000000000
  0
LINE
  5
3CC
100
AcDbEntity
  8
MAIN0
  6
CONTINUOUS
 62
3
100
AcDbLine
 10
550.2617024472418
 20
319.7354083011562
 30
0.0000000000000000
 11
565.8180516333458
 21
304.1790591150521
 31
0.0000000000000000
  0
LINE
  5
3CD
100
AcDbEntity
  8
MAIN0
  6
CONTINUOUS
 62
3
100
AcDbLine
 10
509.2495091384219
 20
247.6105166201285
 30
0.0000000000000000
 11
565.8180516333457
 21
304.1790591150522
 31
0.0000000000000000
  0
LINE
  5
3CE
100
AcDbEntity
  8
MAIN0
  6
CONTINUOUS
 62
3
100
AcDbLine
 10
493.6931599523178
 20
263.1668658062325
 30
0.0000000000000000
 11
550.2617024472418
 21
319.7354083011562
 31
0.0000000000000000
  0
LINE
  5
3CF
100
AcDbEntity
  8
MAIN0
  6
CENTER
 62
3
100
AcDbLine
 10
540.2447657506034
 20
248.9072884224749
 30
0.0000000000000000
 11
562.8800798178047
 21
271.5426024896762
 31
0.0000000000000000
  0
LINE
  5
3D0
100
AcDbEntity
  8
MAIN0
  6
CENTER
 62
3
100
AcDbLine
 10
507.0803458937432
 20
306.3482223598976
 30
0.0000000000000000
 11
576.4533836062406
 21
236.9751846474002
 31
0.0000000000000000
  0
LINE
  5
3D1
100
AcDbEntity
  8
MAIN0
  6
CENTER
 62
3
100
AcDbLine
 10
332.4081674440011
 20
585.0204008096409
 30
0.0000000000000000
 11
308.4081674440011
 21
585.0204008096409
 31
0.0000000000000000
  0
LINE
  5
3D2
100
AcDbEntity
  8
MAIN0
  6
CENTER
 62
3
100
AcDbLine
 10
320.4081674440011
 20
597.0204008096409
 30
0.0000000000000000
 11
320.4081674440011
 21
573.0204008096409
 31
0.0000000000000000
  0
CIRCLE
  5
3D3
100
AcDbEntity
  8
MAIN0
  6
CONTINUOUS
 62
3
100
AcDbCircle
 10
228.4081674440011
 20
585.0204008096409
 30
0.0000000000000000
 40
8.000000000000000
  0
LINE
  5
3D4
100
AcDbEntity
  8
MAIN0
  6
CONTINUOUS
 62
3
100
AcDbLine
 10
228.4081674440011
 20
589.6392029631579
 30
0.0000000000000000
 11
232.4081674440011
 21
587.3298018863994
 31
0.0000000000000000
  0
LINE
  5
3D5
100
AcDbEntity
  8
MAIN0
  6
CONTINUOUS
 62
3
100
AcDbLine
 10
232.4081674440011
 20
587.3298018863994
 30
0.0000000000000000
 11
232.4081674440011
 21
582.7109997328824
 31
0.0000000000000000
  0
LINE
  5
3D6
100
AcDbEntity
  8
MAIN0
  6
CONTINUOUS
 62
3
100
AcDbLine
 10
232.4081674440011
 20
582.7109997328824
 30
0.0000000000000000
 11
228.4081674440011
 21
580.4015986561240
 31
0.0000000000000000
  0
LINE
  5
3D7
100
AcDbEntity
  8
MAIN0
  6
CONTINUOUS
 62
3
100
AcDbLine
 10
228.4081674440011
 20
580.4015986561240
 30
0.0000000000000000
 11
224.4081674440011
 21
582.7109997328824
 31
0.0000000000000000
  0
LINE
  5
3D8
100
AcDbEntity
  8
MAIN0
  6
CONTINUOUS
 62
3
100
AcDbLine
 10
224.4081674440011
 20
582.7109997328824
 30
0.0000000000000000
 11
224.4081674440011
 21
587.3298018863994
 31
0.0000000000000000
  0
LINE
  5
3D9
100
AcDbEntity
  8
MAIN0
  6
CONTINUOUS
 62
3
100
AcDbLine
 10
224.4081674440011
 20
587.3298018863994
 30
0.0000000000000000
 11
228.4081674440011
 21
589.6392029631579
 31
0.0000000000000000
  0
LINE
  5
3DA
100
AcDbEntity
  8
MAIN0
  6
CONTINUOUS
 62
3
100
AcDbLine
 10
658.8384594197610
 20
520.0204008096389
 30
0.0000000000000000
 11
683.8384594197607
 21
520.0204008096388
 31
0.0000000000000000
  0
LINE
  5
3DB
100
AcDbEntity
  8
MAIN0
  6
CONTINUOUS
 62
3
100
AcDbLine
 10
658.8384594197610
 20
558.0204008096389
 30
0.0000000000000000
 11
683.8384594197612
 21
558.0204008096388
 31
0.0000000000000000
  0
CIRCLE
  5
3DC
100
AcDbEntity
  8
MAIN0
  6
CONTINUOUS
 62
3
100
AcDbCircle
 10
797.8384594197619
 20
414.0204008096396
 30
0.0000000000000000
 40
4.000000000000000
  0
CIRCLE
  5
3DD
100
AcDbEntity
  8
MAIN0
  6
CONTINUOUS
 62
3
100
AcDbCircle
 10
797.8384594197619
 20
414.0204008096396
 30
0.0000000000000000
 40
3.400000000000000
  0
CIRCLE
  5
3DE
100
AcDbEntity
  8
MAIN0
  6
HIDDEN
 62
3
100
AcDbCircle
 10
1024.338459419762
 20
495.0204008096396
 30
0.0000000000000000
 40
9.000000000000000
  0
LINE
  5
3DF
100
AcDbEntity
  8
MAIN0
  6
HIDDEN
 62
3
100
AcDbLine
 10
1024.338459419762
 20
500.7939035015358
 30
0.0000000000000000
 11
1019.338459419762
 21
497.9071521555877
 31
0.0000000000000000
  0
LINE
  5
3E0
100
AcDbEntity
  8
MAIN0
  6
HIDDEN
 62
3
100
AcDbLine
 10
1019.338459419762
 20
497.9071521555877
 30
0.0000000000000000
 11
1019.338459419762
 21
492.1336494636914
 31
0.0000000000000000
  0
LINE
  5
3E1
100
AcDbEntity
  8
MAIN0
  6
HIDDEN
 62
3
100
AcDbLine
 10
1019.338459419762
 20
492.1336494636915
 30
0.0000000000000000
 11
1024.338459419762
 21
489.2468981177434
 31
0.0000000000000000
  0
LINE
  5
3E2
100
AcDbEntity
  8
MAIN0
  6
HIDDEN
 62
3
100
AcDbLine
 10
1024.338459419762
 20
489.2468981177432
 30
0.0000000000000000
 11
1029.338459419762
 21
492.1336494636913
 31
0.0000000000000000
  0
LINE
  5
3E3
100
AcDbEntity
  8
MAIN0
  6
HIDDEN
 62
3
100
AcDbLine
 10
1029.338459419762
 20
492.1336494636914
 30
0.0000000000000000
 11
1029.338459419762
 21
497.9071521555877
 31
0.0000000000000000
  0
LINE
  5
3E4
100
AcDbEntity
  8
MAIN0
  6
HIDDEN
 62
3
100
AcDbLine
 10
1029.338459419762
 20
497.9071521555878
 30
0.0000000000000000
 11
1024.338459419762
 21
500.7939035015359
 31
0.0000000000000000
  0
CIRCLE
  5
3E5
100
AcDbEntity
  8
MAIN0
  6
HIDDEN
 62
3
100
AcDbCircle
 10
1024.338459419762
 20
583.0204008096396
 30
0.0000000000000000
 40
9.000000000000000
  0
LINE
  5
3E6
100
AcDbEntity
  8
MAIN0
  6
HIDDEN
 62
3
100
AcDbLine
 10
1024.338459419762
 20
588.7939035015357
 30
0.0000000000000000
 11
1019.338459419762
 21
585.9071521555876
 31
0.0000000000000000
  0
LINE
  5
3E7
100
AcDbEntity
  8
MAIN0
  6
HIDDEN
 62
3
100
AcDbLine
 10
1019.338459419762
 20
585.9071521555877
 30
0.0000000000000000
 11
1019.338459419762
 21
580.1336494636914
 31
0.0000000000000000
  0
LINE
  5
3E8
100
AcDbEntity
  8
MAIN0
  6
HIDDEN
 62
3
100
AcDbLine
 10
1019.338459419762
 20
580.1336494636914
 30
0.0000000000000000
 11
1024.338459419762
 21
577.2468981177433
 31
0.0000000000000000
  0
LINE
  5
3E9
100
AcDbEntity
  8
MAIN0
  6
HIDDEN
 62
3
100
AcDbLine
 10
1024.338459419762
 20
577.2468981177433
 30
0.0000000000000000
 11
1029.338459419762
 21
580.1336494636913
 31
0.0000000000000000
  0
LINE
  5
3EA
100
AcDbEntity
  8
MAIN0
  6
HIDDEN
 62
3
100
AcDbLine
 10
1029.338459419762
 20
580.1336494636914
 30
0.0000000000000000
 11
1029.338459419762
 21
585.9071521555877
 31
0.0000000000000000
  0
LINE
  5
3EB
100
AcDbEntity
  8
MAIN0
  6
HIDDEN
 62
3
100
AcDbLine
 10
1029.338459419762
 20
585.9071521555878
 30
0.0000000000000000
 11
1024.338459419762
 21
588.7939035015359
 31
0.0000000000000000
  0
CIRCLE
  5
3EC
100
AcDbEntity
  8
MAIN0
  6
HIDDEN
 62
3
100
AcDbCircle
 10
979.3384594197621
 20
583.0204008096396
 30
0.0000000000000000
 40
9.000000000000000
  0
LINE
  5
3ED
100
AcDbEntity
  8
MAIN0
  6
HIDDEN
 62
3
100
AcDbLine
 10
979.3384594197621
 20
588.7939035015359
 30
0.0000000000000000
 11
974.3384594197621
 21
585.9071521555877
 31
0.0000000000000000
  0
LINE
  5
3EE
100
AcDbEntity
  8
MAIN0
  6
HIDDEN
 62
3
100
AcDbLine
 10
974.3384594197621
 20
585.9071521555877
 30
0.0000000000000000
 11
974.3384594197621
 21
580.1336494636914
 31
0.0000000000000000
  0
LINE
  5
3EF
100
AcDbEntity
  8
MAIN0
  6
HIDDEN
 62
3
100
AcDbLine
 10
974.3384594197621
 20
580.1336494636914
 30
0.0000000000000000
 11
979.3384594197619
 21
577.2468981177433
 31
0.0000000000000000
  0
LINE
  5
3F0
100
AcDbEntity
  8
MAIN0
  6
HIDDEN
 62
3
100
AcDbLine
 10
979.3384594197621
 20
577.2468981177433
 30
0.0000000000000000
 11
984.3384594197619
 21
580.1336494636913
 31
0.0000000000000000
  0
LINE
  5
3F1
100
AcDbEntity
  8
MAIN0
  6
HIDDEN
 62
3
100
AcDbLine
 10
984.3384594197621
 20
580.1336494636914
 30
0.0000000000000000
 11
984.3384594197621
 21
585.9071521555877
 31
0.0000000000000000
  0
LINE
  5
3F2
100
AcDbEntity
  8
MAIN0
  6
HIDDEN
 62
3
100
AcDbLine
 10
984.3384594197619
 20
585.9071521555878
 30
0.0000000000000000
 11
979.3384594197621
 21
588.7939035015359
 31
0.0000000000000000
  0
CIRCLE
  5
3F3
100
AcDbEntity
  8
MAIN0
  6
HIDDEN
 62
3
100
AcDbCircle
 10
841.8384594197621
 20
521.5204008096396
 30
0.0000000000000000
 40
9.000000000000000
  0
LINE
  5
3F4
100
AcDbEntity
  8
MAIN0
  6
HIDDEN
 62
3
100
AcDbLine
 10
841.8384594197621
 20
527.2939035015359
 30
0.0000000000000000
 11
836.8384594197619
 21
524.4071521555877
 31
0.0000000000000000
  0
LINE
  5
3F5
100
AcDbEntity
  8
MAIN0
  6
HIDDEN
 62
3
100
AcDbLine
 10
836.8384594197621
 20
524.4071521555877
 30
0.0000000000000000
 11
836.8384594197621
 21
518.6336494636914
 31
0.0000000000000000
  0
LINE
  5
3F6
100
AcDbEntity
  8
MAIN0
  6
HIDDEN
 62
3
100
AcDbLine
 10
836.8384594197619
 20
518.6336494636913
 30
0.0000000000000000
 11
841.8384594197619
 21
515.7468981177432
 31
0.0000000000000000
  0
LINE
  5
3F7
100
AcDbEntity
  8
MAIN0
  6
HIDDEN
 62
3
100
AcDbLine
 10
841.8384594197619
 20
515.7468981177433
 30
0.0000000000000000
 11
846.8384594197619
 21
518.6336494636914
 31
0.0000000000000000
  0
LINE
  5
3F8
100
AcDbEntity
  8
MAIN0
  6
HIDDEN
 62
3
100
AcDbLine
 10
846.8384594197621
 20
518.6336494636914
 30
0.0000000000000000
 11
846.8384594197621
 21
524.4071521555877
 31
0.0000000000000000
  0
LINE
  5
3F9
100
AcDbEntity
  8
MAIN0
  6
HIDDEN
 62
3
100
AcDbLine
 10
846.8384594197619
 20
524.4071521555877
 30
0.0000000000000000
 11
841.8384594197619
 21
527.2939035015359
 31
0.0000000000000000
  0
CIRCLE
  5
3FA
100
AcDbEntity
  8
MAIN0
  6
HIDDEN
 62
3
100
AcDbCircle
 10
799.8384594197619
 20
521.5204008096396
 30
0.0000000000000000
 40
9.000000000000000
  0
LINE
  5
3FB
100
AcDbEntity
  8
MAIN0
  6
HIDDEN
 62
3
100
AcDbLine
 10
799.8384594197619
 20
527.2939035015359
 30
0.0000000000000000
 11
794.8384594197619
 21
524.4071521555877
 31
0.0000000000000000
  0
LINE
  5
3FC
100
AcDbEntity
  8
MAIN0
  6
HIDDEN
 62
3
100
AcDbLine
 10
794.8384594197619
 20
524.4071521555877
 30
0.0000000000000000
 11
794.8384594197619
 21
518.6336494636914
 31
0.0000000000000000
  0
LINE
  5
3FD
100
AcDbEntity
  8
MAIN0
  6
HIDDEN
 62
3
100
AcDbLine
 10
794.8384594197619
 20
518.6336494636914
 30
0.0000000000000000
 11
799.8384594197619
 21
515.7468981177433
 31
0.0000000000000000
  0
LINE
  5
3FE
100
AcDbEntity
  8
MAIN0
  6
HIDDEN
 62
3
100
AcDbLine
 10
799.8384594197619
 20
515.7468981177434
 30
0.0000000000000000
 11
804.8384594197619
 21
518.6336494636914
 31
0.0000000000000000
  0
LINE
  5
3FF
100
AcDbEntity
  8
MAIN0
  6
HIDDEN
 62
3
100
AcDbLine
 10
804.8384594197619
 20
518.6336494636914
 30
0.0000000000000000
 11
804.8384594197619
 21
524.4071521555877
 31
0.0000000000000000
  0
LINE
  5
400
100
AcDbEntity
  8
MAIN0
  6
HIDDEN
 62
3
100
AcDbLine
 10
804.8384594197619
 20
524.4071521555877
 30
0.0000000000000000
 11
799.8384594197619
 21
527.2939035015357
 31
0.0000000000000000
  0
CIRCLE
  5
401
100
AcDbEntity
  8
MAIN0
  6
HIDDEN
 62
3
100
AcDbCircle
 10
799.8384594197619
 20
556.5204008096396
 30
0.0000000000000000
 40
9.000000000000000
  0
LINE
  5
402
100
AcDbEntity
  8
MAIN0
  6
HIDDEN
 62
3
100
AcDbLine
 10
799.8384594197619
 20
562.2939035015359
 30
0.0000000000000000
 11
794.8384594197619
 21
559.4071521555877
 31
0.0000000000000000
  0
LINE
  5
403
100
AcDbEntity
  8
MAIN0
  6
HIDDEN
 62
3
100
AcDbLine
 10
794.8384594197619
 20
559.4071521555877
 30
0.0000000000000000
 11
794.8384594197619
 21
553.6336494636914
 31
0.0000000000000000
  0
LINE
  5
404
100
AcDbEntity
  8
MAIN0
  6
HIDDEN
 62
3
100
AcDbLine
 10
794.8384594197619
 20
553.6336494636914
 30
0.0000000000000000
 11
799.8384594197619
 21
550.7468981177433
 31
0.0000000000000000
  0
LINE
  5
405
100
AcDbEntity
  8
MAIN0
  6
HIDDEN
 62
3
100
AcDbLine
 10
799.8384594197619
 20
550.7468981177433
 30
0.0000000000000000
 11
804.8384594197619
 21
553.6336494636914
 31
0.0000000000000000
  0
LINE
  5
406
100
AcDbEntity
  8
MAIN0
  6
HIDDEN
 62
3
100
AcDbLine
 10
804.8384594197619
 20
553.6336494636914
 30
0.0000000000000000
 11
804.8384594197619
 21
559.4071521555877
 31
0.0000000000000000
  0
LINE
  5
407
100
AcDbEntity
  8
MAIN0
  6
HIDDEN
 62
3
100
AcDbLine
 10
804.8384594197619
 20
559.4071521555877
 30
0.0000000000000000
 11
799.8384594197619
 21
562.2939035015357
 31
0.0000000000000000
  0
CIRCLE
  5
408
100
AcDbEntity
  8
MAIN0
  6
HIDDEN
 62
3
100
AcDbCircle
 10
841.8384594197621
 20
556.5204008096396
 30
0.0000000000000000
 40
9.000000000000000
  0
LINE
  5
409
100
AcDbEntity
  8
MAIN0
  6
HIDDEN
 62
3
100
AcDbLine
 10
841.8384594197619
 20
562.2939035015360
 30
0.0000000000000000
 11
836.8384594197619
 21
559.4071521555878
 31
0.0000000000000000
  0
LINE
  5
40A
100
AcDbEntity
  8
MAIN0
  6
HIDDEN
 62
3
100
AcDbLine
 10
836.8384594197621
 20
559.4071521555877
 30
0.0000000000000000
 11
836.8384594197621
 21
553.6336494636914
 31
0.0000000000000000
  0
LINE
  5
40B
100
AcDbEntity
  8
MAIN0
  6
HIDDEN
 62
3
100
AcDbLine
 10
836.8384594197619
 20
553.6336494636914
 30
0.0000000000000000
 11
841.8384594197621
 21
550.7468981177433
 31
0.0000000000000000
  0
LINE
  5
40C
100
AcDbEntity
  8
MAIN0
  6
HIDDEN
 62
3
100
AcDbLine
 10
841.8384594197619
 20
550.7468981177433
 30
0.0000000000000000
 11
846.8384594197619
 21
553.6336494636914
 31
0.0000000000000000
  0
LINE
  5
40D
100
AcDbEntity
  8
MAIN0
  6
HIDDEN
 62
3
100
AcDbLine
 10
846.8384594197621
 20
553.6336494636914
 30
0.0000000000000000
 11
846.8384594197621
 21
559.4071521555877
 31
0.0000000000000000
  0
LINE
  5
40E
100
AcDbEntity
  8
MAIN0
  6
HIDDEN
 62
3
100
AcDbLine
 10
846.8384594197619
 20
559.4071521555877
 30
0.0000000000000000
 11
841.8384594197619
 21
562.2939035015359
 31
0.0000000000000000
  0
CIRCLE
  5
40F
100
AcDbEntity
  8
MAIN0
  6
CONTINUOUS
 62
3
100
AcDbCircle
 10
1001.838459419762
 20
539.0204008096396
 30
0.0000000000000000
 40
5.000000000000000
  0
CIRCLE
  5
410
100
AcDbEntity
  8
MAIN0
  6
CONTINUOUS
 62
3
100
AcDbCircle
 10
820.8384594197621
 20
539.0204008096396
 30
0.0000000000000000
 40
5.000000000000000
  0
CIRCLE
  5
411
100
AcDbEntity
  8
MAIN0
  6
CONTINUOUS
 62
3
100
AcDbCircle
 10
972.8384594197621
 20
564.0204008096396
 30
0.0000000000000000
 40
5.000000000000000
  0
CIRCLE
  5
412
100
AcDbEntity
  8
MAIN0
  6
CONTINUOUS
 62
3
100
AcDbCircle
 10
972.8384594197621
 20
564.0204008096396
 30
0.0000000000000000
 40
4.188101000000000
  0
LINE
  5
413
100
AcDbEntity
  8
MAIN0
  6
CONTINUOUS
 62
3
100
AcDbLine
 10
972.8384594197619
 20
566.9071521555877
 30
0.0000000000000000
 11
970.3384594197619
 21
565.4637764826136
 31
0.0000000000000000
  0
LINE
  5
414
100
AcDbEntity
  8
MAIN0
  6
CONTINUOUS
 62
3
100
AcDbLine
 10
970.3384594197621
 20
565.4637764826136
 30
0.0000000000000000
 11
970.3384594197621
 21
562.5770251366655
 31
0.0000000000000000
  0
LINE
  5
415
100
AcDbEntity
  8
MAIN0
  6
CONTINUOUS
 62
3
100
AcDbLine
 10
970.3384594197619
 20
562.5770251366655
 30
0.0000000000000000
 11
972.8384594197619
 21
561.1336494636914
 31
0.0000000000000000
  0
LINE
  5
416
100
AcDbEntity
  8
MAIN0
  6
CONTINUOUS
 62
3
100
AcDbLine
 10
972.8384594197619
 20
561.1336494636914
 30
0.0000000000000000
 11
975.3384594197619
 21
562.5770251366655
 31
0.0000000000000000
  0
LINE
  5
417
100
AcDbEntity
  8
MAIN0
  6
CONTINUOUS
 62
3
100
AcDbLine
 10
975.3384594197621
 20
562.5770251366655
 30
0.0000000000000000
 11
975.3384594197621
 21
565.4637764826136
 31
0.0000000000000000
  0
LINE
  5
418
100
AcDbEntity
  8
MAIN0
  6
CONTINUOUS
 62
3
100
AcDbLine
 10
975.3384594197619
 20
565.4637764826136
 30
0.0000000000000000
 11
972.8384594197619
 21
566.9071521555877
 31
0.0000000000000000
  0
CIRCLE
  5
419
100
AcDbEntity
  8
MAIN0
  6
CONTINUOUS
 62
3
100
AcDbCircle
 10
847.8384594197621
 20
579.0204008096396
 30
0.0000000000000000
 40
5.000000000000000
  0
CIRCLE
  5
41A
100
AcDbEntity
  8
MAIN0
  6
CONTINUOUS
 62
3
100
AcDbCircle
 10
847.8384594197621
 20
579.0204008096396
 30
0.0000000000000000
 40
4.188101000000000
  0
LINE
  5
41B
100
AcDbEntity
  8
MAIN0
  6
CONTINUOUS
 62
3
100
AcDbLine
 10
847.8384594197619
 20
581.9071521555877
 30
0.0000000000000000
 11
845.3384594197619
 21
580.4637764826136
 31
0.0000000000000000
  0
LINE
  5
41C
100
AcDbEntity
  8
MAIN0
  6
CONTINUOUS
 62
3
100
AcDbLine
 10
845.3384594197621
 20
580.4637764826136
 30
0.0000000000000000
 11
845.3384594197621
 21
577.5770251366655
 31
0.0000000000000000
  0
LINE
  5
41D
100
AcDbEntity
  8
MAIN0
  6
CONTINUOUS
 62
3
100
AcDbLine
 10
845.3384594197619
 20
577.5770251366655
 30
0.0000000000000000
 11
847.8384594197619
 21
576.1336494636914
 31
0.0000000000000000
  0
LINE
  5
41E
100
AcDbEntity
  8
MAIN0
  6
CONTINUOUS
 62
3
100
AcDbLine
 10
847.8384594197621
 20
576.1336494636914
 30
0.0000000000000000
 11
850.3384594197619
 21
577.5770251366655
 31
0.0000000000000000
  0
LINE
  5
41F
100
AcDbEntity
  8
MAIN0
  6
CONTINUOUS
 62
3
100
AcDbLine
 10
850.3384594197621
 20
577.5770251366655
 30
0.0000000000000000
 11
850.3384594197621
 21
580.4637764826136
 31
0.0000000000000000
  0
LINE
  5
420
100
AcDbEntity
  8
MAIN0
  6
CONTINUOUS
 62
3
100
AcDbLine
 10
850.3384594197619
 20
580.4637764826136
 30
0.0000000000000000
 11
847.8384594197619
 21
581.9071521555877
 31
0.0000000000000000
  0
CIRCLE
  5
421
100
AcDbEntity
  8
MAIN0
  6
CONTINUOUS
 62
3
100
AcDbCircle
 10
1001.838459419762
 20
359.5204008096396
 30
0.0000000000000000
 40
5.000000000000000
  0
CIRCLE
  5
422
100
AcDbEntity
  8
MAIN0
  6
CONTINUOUS
 62
3
100
AcDbCircle
 10
1001.838459419762
 20
359.5204008096396
 30
0.0000000000000000
 40
4.250000000000000
  0
CIRCLE
  5
423
100
AcDbEntity
  8
MAIN0
  6
CONTINUOUS
 62
3
100
AcDbCircle
 10
1001.838459419762
 20
379.5204008096396
 30
0.0000000000000000
 40
5.000000000000000
  0
CIRCLE
  5
424
100
AcDbEntity
  8
MAIN0
  6
CONTINUOUS
 62
3
100
AcDbCircle
 10
1001.838459419762
 20
379.5204008096396
 30
0.0000000000000000
 40
4.250000000000000
  0
CIRCLE
  5
425
100
AcDbEntity
  8
MAIN0
  6
CONTINUOUS
 62
3
100
AcDbCircle
 10
1001.838459419762
 20
698.5204008096396
 30
0.0000000000000000
 40
5.000000000000000
  0
CIRCLE
  5
426
100
AcDbEntity
  8
MAIN0
  6
CONTINUOUS
 62
3
100
AcDbCircle
 10
1001.838459419762
 20
698.5204008096396
 30
0.0000000000000000
 40
4.250000000000000
  0
CIRCLE
  5
427
100
AcDbEntity
  8
MAIN0
  6
CONTINUOUS
 62
3
100
AcDbCircle
 10
1001.838459419762
 20
718.5204008096396
 30
0.0000000000000000
 40
5.000000000000000
  0
CIRCLE
  5
428
100
AcDbEntity
  8
MAIN0
  6
CONTINUOUS
 62
3
100
AcDbCircle
 10
1001.838459419762
 20
718.5204008096396
 30
0.0000000000000000
 40
4.250000000000000
  0
LINE
  5
429
100
AcDbEntity
  8
MAIN0
  6
HIDDEN
 62
3
100
AcDbLine
 10
969.2384594197620
 20
349.5204008096396
 30
0.0000000000000000
 11
969.8384594197621
 21
350.1204008096396
 31
0.0000000000000000
  0
LINE
  5
42A
100
AcDbEntity
  8
MAIN0
  6
HIDDEN
 62
3
100
AcDbLine
 10
969.8384594197621
 20
350.1204008096396
 30
0.0000000000000000
 11
969.8384594197621
 21
367.0204008096396
 31
0.0000000000000000
  0
LINE
  5
42B
100
AcDbEntity
  8
MAIN0
  6
HIDDEN
 62
3
100
AcDbLine
 10
969.8384594197621
 20
367.0204008096396
 30
0.0000000000000000
 11
988.8384594197621
 21
367.0204008096396
 31
0.0000000000000000
  0
LINE
  5
42C
100
AcDbEntity
  8
MAIN0
  6
HIDDEN
 62
3
100
AcDbLine
 10
988.8384594197621
 20
367.0204008096396
 30
0.0000000000000000
 11
988.8384594197621
 21
350.1204008096396
 31
0.0000000000000000
  0
LINE
  5
42D
100
AcDbEntity
  8
MAIN0
  6
HIDDEN
 62
3
100
AcDbLine
 10
988.8384594197621
 20
350.1204008096396
 30
0.0000000000000000
 11
989.4384594197620
 21
349.5204008096395
 31
0.0000000000000000
  0
LINE
  5
42E
100
AcDbEntity
  8
MAIN0
  6
HIDDEN
 62
3
100
AcDbLine
 10
972.8384594197621
 20
367.0204008096396
 30
0.0000000000000000
 11
972.8384594197621
 21
387.9204008096396
 31
0.0000000000000000
  0
LINE
  5
42F
100
AcDbEntity
  8
MAIN0
  6
HIDDEN
 62
3
100
AcDbLine
 10
972.8384594197621
 20
387.9204008096396
 30
0.0000000000000000
 11
972.2384594197622
 21
388.5204008096395
 31
0.0000000000000000
  0
LINE
  5
430
100
AcDbEntity
  8
MAIN0
  6
HIDDEN
 62
3
100
AcDbLine
 10
985.8384594197621
 20
367.0204008096396
 30
0.0000000000000000
 11
985.8384594197621
 21
387.9204008096396
 31
0.0000000000000000
  0
LINE
  5
431
100
AcDbEntity
  8
MAIN0
  6
HIDDEN
 62
3
100
AcDbLine
 10
985.8384594197621
 20
387.9204008096396
 30
0.0000000000000000
 11
986.4384594197622
 21
388.5204008096396
 31
0.0000000000000000
  0
LINE
  5
432
100
AcDbEntity
  8
MAIN0
  6
HIDDEN
 62
3
100
AcDbLine
 10
970.3384594197621
 20
367.0204008096396
 30
0.0000000000000000
 11
970.3384594197621
 21
356.2204008096396
 31
0.0000000000000000
  0
LINE
  5
433
100
AcDbEntity
  8
MAIN0
  6
HIDDEN
 62
3
100
AcDbLine
 10
970.3384594197621
 20
356.2204008096396
 30
0.0000000000000000
 11
972.4169203888448
 21
355.0204008096396
 31
0.0000000000000000
  0
LINE
  5
434
100
AcDbEntity
  8
MAIN0
  6
HIDDEN
 62
3
100
AcDbLine
 10
972.4169203888448
 20
355.0204008096396
 30
0.0000000000000000
 11
986.2599984506794
 21
355.0204008096396
 31
0.0000000000000000
  0
LINE
  5
435
100
AcDbEntity
  8
MAIN0
  6
HIDDEN
 62
3
100
AcDbLine
 10
986.2599984506794
 20
355.0204008096395
 30
0.0000000000000000
 11
988.3384594197621
 21
356.2204008096395
 31
0.0000000000000000
  0
LINE
  5
436
100
AcDbEntity
  8
MAIN0
  6
HIDDEN
 62
3
100
AcDbLine
 10
988.3384594197621
 20
356.2204008096396
 30
0.0000000000000000
 11
988.3384594197621
 21
367.0204008096396
 31
0.0000000000000000
  0
LINE
  5
437
100
AcDbEntity
  8
MAIN0
  6
HIDDEN
 62
3
100
AcDbLine
 10
970.3384594197621
 20
356.2204008096396
 30
0.0000000000000000
 11
988.3384594197621
 21
356.2204008096396
 31
0.0000000000000000
  0
LINE
  5
438
100
AcDbEntity
  8
MAIN0
  6
HIDDEN
 62
3
100
AcDbLine
 10
973.3384594197621
 20
367.0204008096396
 30
0.0000000000000000
 11
973.3384594197621
 21
407.0204008096396
 31
0.0000000000000000
  0
LINE
  5
439
100
AcDbEntity
  8
MAIN0
  6
HIDDEN
 62
3
100
AcDbLine
 10
973.3384594197621
 20
407.0204008096396
 30
0.0000000000000000
 11
985.3384594197621
 21
407.0204008096396
 31
0.0000000000000000
  0
LINE
  5
43A
100
AcDbEntity
  8
MAIN0
  6
HIDDEN
 62
3
100
AcDbLine
 10
985.3384594197621
 20
407.0204008096396
 30
0.0000000000000000
 11
985.3384594197621
 21
367.0204008096396
 31
0.0000000000000000
  0
LINE
  5
43B
100
AcDbEntity
  8
MAIN0
  6
HIDDEN
 62
3
100
AcDbLine
 10
974.2856749197620
 20
367.0204008096396
 30
0.0000000000000000
 11
974.2856749197620
 21
407.0204008096396
 31
0.0000000000000000
  0
LINE
  5
43C
100
AcDbEntity
  8
MAIN0
  6
HIDDEN
 62
3
100
AcDbLine
 10
984.3912439197620
 20
367.0204008096396
 30
0.0000000000000000
 11
984.3912439197620
 21
407.0204008096396
 31
0.0000000000000000
  0
LINE
  5
43D
100
AcDbEntity
  8
MAIN0
  6
CONTINUOUS
 62
3
100
AcDbLine
 10
677.5047935201562
 20
797.3306486421250
 30
0.0000000000000000
 11
667.3224558710700
 21
807.5129862912113
 31
0.0000000000000000
  0
LINE
  5
43E
100
AcDbEntity
  8
MAIN0
  6
CONTINUOUS
 62
3
100
AcDbLine
 10
667.3224558710699
 20
807.5129862912113
 30
0.0000000000000000
 11
664.2314932269449
 21
806.6847653468832
 31
0.0000000000000000
  0
LINE
  5
43F
100
AcDbEntity
  8
MAIN0
  6
CONTINUOUS
 62
3
100
AcDbLine
 10
664.2314932269450
 20
806.6847653468833
 30
0.0000000000000000
 11
651.1801140669209
 21
793.6333861868592
 31
0.0000000000000000
  0
LINE
  5
440
100
AcDbEntity
  8
MAIN0
  6
CONTINUOUS
 62
3
100
AcDbLine
 10
651.1801140669209
 20
793.6333861868592
 30
0.0000000000000000
 11
650.3518931225929
 21
790.5424235427341
 31
0.0000000000000000
  0
LINE
  5
441
100
AcDbEntity
  8
MAIN0
  6
CONTINUOUS
 62
3
100
AcDbLine
 10
650.3518931225929
 20
790.5424235427341
 30
0.0000000000000000
 11
660.5342307716792
 21
780.3600858936479
 31
0.0000000000000000
  0
LINE
  5
442
100
AcDbEntity
  8
MAIN0
  6
CONTINUOUS
 62
3
100
AcDbLine
 10
667.3224558710700
 20
807.5129862912113
 30
0.0000000000000000
 11
650.3518931225929
 21
790.5424235427341
 31
0.0000000000000000
  0
LINE
  5
443
100
AcDbEntity
  8
MAIN0
  6
CONTINUOUS
 62
3
100
AcDbLine
 10
695.1824630498199
 20
773.9961248629691
 30
0.0000000000000000
 11
717.1027732666030
 21
752.0758146461859
 31
0.0000000000000000
  0
LINE
  5
444
100
AcDbEntity
  8
MAIN0
  6
CONTINUOUS
 62
3
100
AcDbLine
 10
717.1027732666030
 20
752.0758146461859
 30
0.0000000000000000
 11
705.7890647676181
 21
740.7621061472012
 31
0.0000000000000000
  0
LINE
  5
445
100
AcDbEntity
  8
MAIN0
  6
CONTINUOUS
 62
3
100
AcDbLine
 10
705.7890647676181
 20
740.7621061472012
 30
0.0000000000000000
 11
683.8687545508352
 21
762.6824163639842
 31
0.0000000000000000
  0
LINE
  5
446
100
AcDbEntity
  8
MAIN0
  6
CONTINUOUS
 62
3
100
AcDbLine
 10
694.4169973317685
 20
773.2306591449174
 30
0.0000000000000000
 11
716.3373075485514
 21
751.3103489281344
 31
0.0000000000000000
  0
LINE
  5
447
100
AcDbEntity
  8
MAIN0
  6
CONTINUOUS
 62
3
100
AcDbLine
 10
684.6342202688866
 20
763.4478820820357
 30
0.0000000000000000
 11
706.5545304856696
 21
741.5275718652525
 31
0.0000000000000000
  0
LINE
  5
448
100
AcDbEntity
  8
MAIN0
  6
CONTINUOUS
 62
3
100
AcDbLine
 10
530.4627125741016
 20
299.9364184280162
 30
0.0000000000000000
 11
520.2803749250154
 21
310.1187560771025
 31
0.0000000000000000
  0
LINE
  5
449
100
AcDbEntity
  8
MAIN0
  6
CONTINUOUS
 62
3
100
AcDbLine
 10
520.2803749250154
 20
310.1187560771025
 30
0.0000000000000000
 11
517.1894122808903
 21
309.2905351327744
 31
0.0000000000000000
  0
LINE
  5
44A
100
AcDbEntity
  8
MAIN0
  6
CONTINUOUS
 62
3
100
AcDbLine
 10
517.1894122808903
 20
309.2905351327744
 30
0.0000000000000000
 11
504.1380331208663
 21
296.2391559727504
 31
0.0000000000000000
  0
LINE
  5
44B
100
AcDbEntity
  8
MAIN0
  6
CONTINUOUS
 62
3
100
AcDbLine
 10
504.1380331208662
 20
296.2391559727504
 30
0.0000000000000000
 11
503.3098121765381
 21
293.1481933286253
 31
0.0000000000000000
  0
LINE
  5
44C
100
AcDbEntity
  8
MAIN0
  6
CONTINUOUS
 62
3
100
AcDbLine
 10
503.3098121765382
 20
293.1481933286253
 30
0.0000000000000000
 11
513.4921498256244
 21
282.9658556795391
 31
0.0000000000000000
  0
LINE
  5
44D
100
AcDbEntity
  8
MAIN0
  6
CONTINUOUS
 62
3
100
AcDbLine
 10
520.2803749250154
 20
310.1187560771025
 30
0.0000000000000000
 11
503.3098121765382
 21
293.1481933286253
 31
0.0000000000000000
  0
LINE
  5
44E
100
AcDbEntity
  8
MAIN0
  6
CONTINUOUS
 62
3
100
AcDbLine
 10
543.1906346354595
 20
281.5516421171660
 30
0.0000000000000000
 11
577.1317601324138
 21
247.6105166202117
 31
0.0000000000000000
  0
LINE
  5
44F
100
AcDbEntity
  8
MAIN0
  6
CONTINUOUS
 62
3
100
AcDbLine
 10
577.1317601324138
 20
247.6105166202116
 30
0.0000000000000000
 11
565.8180516334289
 21
236.2968081212269
 31
0.0000000000000000
  0
LINE
  5
450
100
AcDbEntity
  8
MAIN0
  6
CONTINUOUS
 62
3
100
AcDbLine
 10
565.8180516334289
 20
236.2968081212268
 30
0.0000000000000000
 11
531.8769261364747
 21
270.2379336181811
 31
0.0000000000000000
  0
LINE
  5
451
100
AcDbEntity
  8
MAIN0
  6
CONTINUOUS
 62
3
100
AcDbLine
 10
542.4251689174081
 20
280.7861763991145
 30
0.0000000000000000
 11
576.3662944143623
 21
246.8450509021602
 31
0.0000000000000000
  0
LINE
  5
452
100
AcDbEntity
  8
MAIN0
  6
CONTINUOUS
 62
3
100
AcDbLine
 10
532.6423918545262
 20
271.0033993362327
 30
0.0000000000000000
 11
566.5835173514805
 21
237.0622738392784
 31
0.0000000000000000
  0
CIRCLE
  5
453
100
AcDbEntity
  8
MAIN0
  6
CONTINUOUS
 62
3
100
AcDbCircle
 10
320.4081674440011
 20
585.0204008096409
 30
0.0000000000000000
 40
8.000000000000000
  0
LINE
  5
454
100
AcDbEntity
  8
MAIN0
  6
CONTINUOUS
 62
3
100
AcDbLine
 10
320.4081674440011
 20
589.6392029631579
 30
0.0000000000000000
 11
316.4081674440011
 21
587.3298018863994
 31
0.0000000000000000
  0
LINE
  5
455
100
AcDbEntity
  8
MAIN0
  6
CONTINUOUS
 62
3
100
AcDbLine
 10
316.4081674440011
 20
587.3298018863994
 30
0.0000000000000000
 11
316.4081674440011
 21
582.7109997328824
 31
0.0000000000000000
  0
LINE
  5
456
100
AcDbEntity
  8
MAIN0
  6
CONTINUOUS
 62
3
100
AcDbLine
 10
316.4081674440011
 20
582.7109997328824
 30
0.0000000000000000
 11
320.4081674440011
 21
580.4015986561240
 31
0.0000000000000000
  0
LINE
  5
457
100
AcDbEntity
  8
MAIN0
  6
CONTINUOUS
 62
3
100
AcDbLine
 10
320.4081674440011
 20
580.4015986561240
 30
0.0000000000000000
 11
324.4081674440011
 21
582.7109997328824
 31
0.0000000000000000
  0
LINE
  5
458
100
AcDbEntity
  8
MAIN0
  6
CONTINUOUS
 62
3
100
AcDbLine
 10
324.4081674440011
 20
582.7109997328824
 30
0.0000000000000000
 11
324.4081674440011
 21
587.3298018863994
 31
0.0000000000000000
  0
LINE
  5
459
100
AcDbEntity
  8
MAIN0
  6
CONTINUOUS
 62
3
100
AcDbLine
 10
324.4081674440011
 20
587.3298018863994
 30
0.0000000000000000
 11
320.4081674440011
 21
589.6392029631579
 31
0.0000000000000000
  0
LINE
  5
45A
100
AcDbEntity
  8
MAIN0
  6
CONTINUOUS
 62
3
100
AcDbLine
 10
702.8384594197630
 20
483.0204008096396
 30
0.0000000000000000
 11
722.8384594197619
 21
483.0204008096395
 31
0.0000000000000000
  0
LINE
  5
45B
100
AcDbEntity
  8
MAIN0
  6
CONTINUOUS
 62
3
100
AcDbLine
 10
702.8384594197630
 20
493.5204008096396
 30
0.0000000000000000
 11
722.8384594197617
 21
493.5204008096395
 31
0.0000000000000000
  0
LINE
  5
45C
100
AcDbEntity
  8
MAIN0
  6
CONTINUOUS
 62
3
100
AcDbLine
 10
683.8384594197605
 20
501.0204008096395
 30
0.0000000000000000
 11
702.8384594197630
 21
501.0204008096395
 31
0.0000000000000000
  0
LINE
  5
45D
100
AcDbEntity
  8
MAIN0
  6
CONTINUOUS
 62
3
100
AcDbLine
 10
683.8384594197606
 20
517.5204008096397
 30
0.0000000000000000
 11
702.8384594197629
 21
517.5204008096396
 31
0.0000000000000000
  0
LINE
  5
45E
100
AcDbEntity
  8
MAIN0
  6
CONTINUOUS
 62
3
100
AcDbLine
 10
683.8384594197605
 20
501.0204008096396
 30
0.0000000000000000
 11
683.8384594197614
 21
577.0204008096398
 31
0.0000000000000000
  0
LINE
  5
45F
100
AcDbEntity
  8
MAIN0
  6
CONTINUOUS
 62
3
100
AcDbLine
 10
683.8384594197607
 20
502.0204008074409
 30
0.0000000000000000
 11
658.8384594197610
 21
502.0204008074410
 31
0.0000000000000000
  0
LINE
  5
460
100
AcDbEntity
  8
MAIN0
  6
CONTINUOUS
 62
3
100
AcDbLine
 10
658.8384594197612
 20
576.0204008111663
 30
0.0000000000000000
 11
658.8384594197610
 21
502.0204008074410
 31
0.0000000000000000
  0
LINE
  5
461
100
AcDbEntity
  8
MAIN0
  6
CONTINUOUS
 62
3
100
AcDbLine
 10
683.8384594197617
 20
576.0204008111663
 30
0.0000000000000000
 11
658.8384594197612
 21
576.0204008111663
 31
0.0000000000000000
  0
LINE
  5
462
100
AcDbEntity
  8
MAIN0
  6
CONTINUOUS
 62
3
100
AcDbLine
 10
683.8384594197614
 20
577.0204008096397
 30
0.0000000000000000
 11
702.8384594197628
 21
577.0204008096396
 31
0.0000000000000000
  0
LINE
  5
463
100
AcDbEntity
  8
MAIN0
  6
CONTINUOUS
 62
3
100
AcDbLine
 10
683.8384594197610
 20
560.5204008096397
 30
0.0000000000000000
 11
702.8384594197628
 21
560.5204008096396
 31
0.0000000000000000
  0
LINE
  5
464
100
AcDbEntity
  8
MAIN0
  6
CONTINUOUS
 62
3
100
AcDbLine
 10
702.8384594197628
 20
584.5204008096396
 30
0.0000000000000000
 11
722.8384594197626
 21
584.5204008096396
 31
0.0000000000000000
  0
LINE
  5
465
100
AcDbEntity
  8
MAIN0
  6
CONTINUOUS
 62
3
100
AcDbLine
 10
702.8384594197628
 20
595.0204008096398
 30
0.0000000000000000
 11
722.8384594197628
 21
595.0204008096396
 31
0.0000000000000000
  0
LINE
  5
466
100
AcDbEntity
  8
MAIN0
  6
CONTINUOUS
 62
3
100
AcDbLine
 10
636.3384594197612
 20
560.0204008096397
 30
0.0000000000000000
 11
658.8384594197610
 21
560.0204008096397
 31
0.0000000000000000
  0
LINE
  5
467
100
AcDbEntity
  8
MAIN0
  6
CONTINUOUS
 62
3
100
AcDbLine
 10
636.3384594197612
 20
560.0204008096397
 30
0.0000000000000000
 11
636.3384594197612
 21
518.0204008096397
 31
0.0000000000000000
  0
LINE
  5
468
100
AcDbEntity
  8
MAIN0
  6
CONTINUOUS
 62
3
100
AcDbLine
 10
636.3384594197610
 20
518.0204008096398
 30
0.0000000000000000
 11
658.8384594197611
 21
518.0204008096397
 31
0.0000000000000000
  0
LINE
  5
469
100
AcDbEntity
  8
MAIN0
  6
CONTINUOUS
 62
3
100
AcDbLine
 10
702.8384594197628
 20
595.0204008096397
 30
0.0000000000000000
 11
702.8384594197629
 21
560.5204008096396
 31
0.0000000000000000
  0
LINE
  5
46A
100
AcDbEntity
  8
MAIN0
  6
CONTINUOUS
 62
3
100
AcDbLine
 10
702.8384594197630
 20
517.5204008096396
 30
0.0000000000000000
 11
702.8384594197630
 21
483.0204008096396
 31
0.0000000000000000
  0
CIRCLE
  5
46B
100
AcDbEntity
  8
MAIN0
  6
HIDDEN
 62
3
100
AcDbCircle
 10
979.3384594197621
 20
495.0204008096396
 30
0.0000000000000000
 40
9.000000000000000
  0
LINE
  5
46C
100
AcDbEntity
  8
MAIN0
  6
HIDDEN
 62
3
100
AcDbLine
 10
979.3384594197619
 20
500.7939035015358
 30
0.0000000000000000
 11
974.3384594197619
 21
497.9071521555877
 31
0.0000000000000000
  0
LINE
  5
46D
100
AcDbEntity
  8
MAIN0
  6
HIDDEN
 62
3
100
AcDbLine
 10
974.3384594197621
 20
497.9071521555877
 30
0.0000000000000000
 11
974.3384594197621
 21
492.1336494636914
 31
0.0000000000000000
  0
LINE
  5
46E
100
AcDbEntity
  8
MAIN0
  6
HIDDEN
 62
3
100
AcDbLine
 10
974.3384594197619
 20
492.1336494636914
 30
0.0000000000000000
 11
979.3384594197619
 21
489.2468981177433
 31
0.0000000000000000
  0
LINE
  5
46F
100
AcDbEntity
  8
MAIN0
  6
HIDDEN
 62
3
100
AcDbLine
 10
979.3384594197619
 20
489.2468981177433
 30
0.0000000000000000
 11
984.3384594197619
 21
492.1336494636914
 31
0.0000000000000000
  0
LINE
  5
470
100
AcDbEntity
  8
MAIN0
  6
HIDDEN
 62
3
100
AcDbLine
 10
984.3384594197621
 20
492.1336494636914
 30
0.0000000000000000
 11
984.3384594197621
 21
497.9071521555877
 31
0.0000000000000000
  0
LINE
  5
471
100
AcDbEntity
  8
MAIN0
  6
HIDDEN
 62
3
100
AcDbLine
 10
984.3384594197619
 20
497.9071521555878
 30
0.0000000000000000
 11
979.3384594197619
 21
500.7939035015359
 31
0.0000000000000000
  0
LINE
  5
472
100
AcDbEntity
  8
WAKU0
  6
CONTINUOUS
 62
3
100
AcDbLine
 10
412.0000000000000
 20
51.00000000000000
 30
0.0000000000000000
 11
582.0000000000000
 21
51.00000000000000
 31
0.0000000000000000
  0
LINE
  5
473
100
AcDbEntity
  8
WAKU0
  6
CONTINUOUS
 62
3
100
AcDbLine
 10
412.0000000000000
 20
51.00000000000000
 30
0.0000000000000000
 11
412.0000000000000
 21
12.00000000000000
 31
0.0000000000000000
  0
LINE
  5
474
100
AcDbEntity
  8
WAKU0
  6
CONTINUOUS
 62
3
100
AcDbLine
 10
484.0000000000000
 20
51.00000000000000
 30
0.0000000000000000
 11
484.0000000000000
 21
12.00000000000000
 31
0.0000000000000000
  0
LINE
  5
475
100
AcDbEntity
  8
WAKU0
  6
CONTINUOUS
 62
3
100
AcDbLine
 10
504.0000000000000
 20
51.00000000000000
 30
0.0000000000000000
 11
504.0000000000000
 21
12.00000000000000
 31
0.0000000000000000
  0
LINE
  5
476
100
AcDbEntity
  8
WAKU0
  6
CONTINUOUS
 62
3
100
AcDbLine
 10
516.0000000000000
 20
51.00000000000000
 30
0.0000000000000000
 11
516.0000000000000
 21
12.00000000000000
 31
0.0000000000000000
  0
LINE
  5
477
100
AcDbEntity
  8
WAKU0
  6
CONTINUOUS
 62
3
100
AcDbLine
 10
516.0000000000000
 20
37.00000000000000
 30
0.0000000000000000
 11
582.0000000000000
 21
37.00000000000000
 31
0.0000000000000000
  0
LINE
  5
478
100
AcDbEntity
  8
WAKU0
  6
CONTINUOUS
 62
3
100
AcDbLine
 10
504.0000000000000
 20
23.00000000000000
 30
0.0000000000000000
 11
582.0000000000000
 21
23.00000000000000
 31
0.0000000000000000
  0
LINE
  5
479
100
AcDbEntity
  8
WAKU0
  6
CONTINUOUS
 62
3
100
AcDbLine
 10
547.0000000000000
 20
51.00000000000000
 30
0.0000000000000000
 11
547.0000000000000
 21
44.00000000000000
 31
0.0000000000000000
  0
LINE
  5
47A
100
AcDbEntity
  8
WAKU0
  6
CONTINUOUS
 62
3
100
AcDbLine
 10
559.0000000000000
 20
51.00000000000000
 30
0.0000000000000000
 11
559.0000000000000
 21
44.00000000000000
 31
0.0000000000000000
  0
LINE
  5
47B
100
AcDbEntity
  8
WAKU0
  6
CONTINUOUS
 62
3
100
AcDbLine
 10
484.0000000000000
 20
31.50000000000000
 30
0.0000000000000000
 11
504.0000000000000
 21
31.50000000000000
 31
0.0000000000000000
  0
LINE
  5
47C
100
AcDbEntity
  8
WAKU0
  6
CONTINUOUS
 62
3
100
AcDbLine
 10
504.0000000000000
 20
44.00000000000000
 30
0.0000000000000000
 11
582.0000000000000
 21
44.00000000000000
 31
0.0000000000000000
  0
LINE
  5
47D
100
AcDbEntity
  8
WAKU0
  6
CONTINUOUS
 62
3
100
AcDbLine
 10
412.0000000000000
 20
37.00000000000000
 30
0.0000000000000000
 11
484.0000000000000
 21
37.00000000000000
 31
0.0000000000000000
  0
LINE
  5
47E
100
AcDbEntity
  8
WAKU0
  6
CONTINUOUS
 62
3
100
AcDbLine
 10
412.0000000000000
 20
23.00000000000000
 30
0.0000000000000000
 11
484.0000000000000
 21
23.00000000000000
 31
0.0000000000000000
  0
LINE
  5
47F
100
AcDbEntity
  8
WAKU0
  6
CONTINUOUS
 62
3
100
AcDbLine
 10
460.0000000000000
 20
37.00000000000000
 30
0.0000000000000000
 11
460.0000000000000
 21
12.00000000000000
 31
0.0000000000000000
  0
LINE
  5
480
100
AcDbEntity
  8
WAKU0
  6
CONTINUOUS
 62
3
100
AcDbLine
 10
436.0000000000000
 20
37.00000000000000
 30
0.0000000000000000
 11
436.0000000000000
 21
23.00000000000000
 31
0.0000000000000000
  0
LINE
  5
481
100
AcDbEntity
  8
WAKU0
  6
CONTINUOUS
 62
3
100
AcDbLine
 10
472.0000000000000
 20
26.00000000000000
 30
0.0000000000000000
 11
472.0000000000000
 21
23.00000000000000
 31
0.0000000000000000
  0
LINE
  5
482
100
AcDbEntity
  8
WAKU0
  6
CONTINUOUS
 62
3
100
AcDbLine
 10
448.0000000000000
 20
26.00000000000000
 30
0.0000000000000000
 11
448.0000000000000
 21
23.00000000000000
 31
0.0000000000000000
  0
LINE
  5
483
100
AcDbEntity
  8
WAKU0
  6
CONTINUOUS
 62
3
100
AcDbLine
 10
424.0000000000000
 20
26.00000000000000
 30
0.0000000000000000
 11
424.0000000000000
 21
23.00000000000000
 31
0.0000000000000000
  0
LINE
  5
484
100
AcDbEntity
  8
WAKU0
  6
CONTINUOUS
 62
3
100
AcDbLine
 10
430.0000000000000
 20
51.00000000000000
 30
0.0000000000000000
 11
430.0000000000000
 21
37.00000000000000
 31
0.0000000000000000
  0
LINE
  5
485
100
AcDbEntity
  8
WAKU0
  6
CONTINUOUS
 62
3
100
AcDbLine
 10
412.0000000000000
 20
45.00000000000000
 30
0.0000000000000000
 11
484.0000000000000
 21
45.00000000000000
 31
0.0000000000000000
  0
LINE
  5
486
100
AcDbEntity
  8
WAKU0
  6
HIDDEN
 62
3
100
AcDbLine
 10
532.5000000000000
 20
23.00000000000000
 30
0.0000000000000000
 11
532.5000000000000
 21
12.00000000000000
 31
0.0000000000000000
  0
LINE
  5
487
100
AcDbEntity
  8
WAKU0
  6
HIDDEN
 62
3
100
AcDbLine
 10
544.9000000000000
 20
23.00000000000000
 30
0.0000000000000000
 11
544.9000000000000
 21
12.00000000000000
 31
0.0000000000000000
  0
MTEXT
  5
488
100
AcDbEntity
  8
WAKU0
  6
CONTINUOUS
 62
3
100
AcDbMText
 10
516.4820000243485
 20
49.04999995231628
 30
0.0000000000000000
 40
3.099999904632568
 41
0.0000000000000000
 71
     1
 72
     1
  1
{\H0.92x;{MV125N}}
 11
1.000000000000000
 21
0.0000000000000000
 31
0.0000000000000000
  7
STANDARD
  0
MTEXT
  5
489
100
AcDbEntity
  8
WAKU0
  6
CONTINUOUS
 62
3
100
AcDbMText
 10
532.3350002765656
 20
43.50000000000000
 30
0.0000000000000000
 40
3.000000000000000
 41
0.0000000000000000
 71
     1
 72
     1
  1
{\H0.94x;{パワーバイス\PＰＯＷＥＲ　ＶＩＳＥ}}
 11
1.000000000000000
 21
0.0000000000000000
 31
0.0000000000000000
  7
KNJYOKO
  0
MTEXT
  5
48A
100
AcDbEntity
  8
WAKU0
  6
CONTINUOUS
 62
3
100
AcDbMText
 10
522.3999990373850
 20
34.83333333333333
 30
0.0000000000000000
 40
4.000000000000000
 41
0.0000000000000000
 71
     1
 72
     1
  1
{\H0.59x;{ＭＶ１２５Ｎ　ガイケイ\PＭＶ１２５Ｎ　ＯＵＴＳＩＤＥ　ＶＩＥＷ}}
 11
1.000000000000000
 21
0.0000000000000000
 31
0.0000000000000000
  7
KNJYOKO
  0
MTEXT
  5
48B
100
AcDbEntity
  8
WAKU0
  6
CONTINUOUS
 62
3
100
AcDbMText
 10
490.0049998760223
 20
39.29999995231628
 30
0.0000000000000000
 40
3.099999904632568
 41
0.0000000000000000
 71
     1
 72
     1
  1
{\H0.90x;{1:2}}
 11
1.000000000000000
 21
0.0000000000000000
 31
0.0000000000000000
  7
STANDARD
  0
MTEXT
  5
48C
100
AcDbEntity
  8
WAKU0
  6
CONTINUOUS
 62
3
100
AcDbMText
 10
546.4000001549721
 20
20.15000009536743
 30
0.0000000000000000
 40
5.300000190734863
 41
0.0000000000000000
 71
     1
 72
     1
  1
{\H0.90x;{7696}}
 11
1.000000000000000
 21
0.0000000000000000
 31
0.0000000000000000
  7
STANDARD
  0
MTEXT
  5
48D
100
AcDbEntity
  8
WAKU0
  6
CONTINUOUS
 62
3
100
AcDbMText
 10
534.3000000834466
 20
20.15000009536743
 30
0.0000000000000000
 40
5.300000190734863
 41
0.0000000000000000
 71
     1
 72
     1
  1
{\H0.87x;{25}}
 11
1.000000000000000
 21
0.0000000000000000
 31
0.0000000000000000
  7
STANDARD
  0
MTEXT
  5
48E
100
AcDbEntity
  8
WAKU0
  6
CONTINUOUS
 62
3
100
AcDbMText
 10
517.5000001192093
 20
20.15000009536743
 30
0.0000000000000000
 40
5.300000190734863
 41
0.0000000000000000
 71
     1
 72
     1
  1
{\H0.89x;{61M}}
 11
1.000000000000000
 21
0.0000000000000000
 31
0.0000000000000000
  7
STANDARD
  0
MTEXT
  5
48F
100
AcDbEntity
  8
WAKU0
  6
CONTINUOUS
 62
3
100
AcDbMText
 10
572.0000000476837
 20
20.15000009536743
 30
0.0000000000000000
 40
5.300000190734863
 41
0.0000000000000000
 71
     1
 72
     1
  1
{\H0.81x;{2}}
 11
1.000000000000000
 21
0.0000000000000000
 31
0.0000000000000000
  7
STANDARD
  0
MTEXT
  5
490
100
AcDbEntity
  8
WAKU0
  6
CONTINUOUS
 62
3
100
AcDbMText
 10
572.0000000819564
 20
44.84999990463257
 30
0.0000000000000000
 40
5.300000190734863
 41
0.0000000000000000
 71
     7
 72
     1
  1
{\H0.81x;{ }}
 11
1.000000000000000
 21
0.0000000000000000
 31
0.0000000000000000
  7
STANDARD
  0
MTEXT
  5
491
100
AcDbEntity
  8
WAKU0
  6
CONTINUOUS
 62
3
100
AcDbMText
 10
461.3850002884865
 20
33.00000000000000
 30
0.0000000000000000
 40
3.000000000000000
 41
0.0000000000000000
 71
     7
 72
     1
  1
{\H0.93x;{DRAWN BY}}
 11
1.000000000000000
 21
0.0000000000000000
 31
0.0000000000000000
  7
STANDARD
  0
MTEXT
  5
492
100
AcDbEntity
  8
WAKU0
  6
CONTINUOUS
 62
3
100
AcDbMText
 10
441.2149997949600
 20
32.95000004768372
 30
0.0000000000000000
 40
3.099999904632568
 41
0.0000000000000000
 71
     7
 72
     1
  1
{\H0.92x;{CHIEF}}
 11
1.000000000000000
 21
0.0000000000000000
 31
0.0000000000000000
  7
STANDARD
  0
MTEXT
  5
493
100
AcDbEntity
  8
WAKU0
  6
CONTINUOUS
 62
3
100
AcDbMText
 10
414.4249997138977
 20
32.95000004768372
 30
0.0000000000000000
 40
3.099999904632568
 41
0.0000000000000000
 71
     7
 72
     1
  1
{\H0.92x;{MANAGER}}
 11
1.000000000000000
 21
0.0000000000000000
 31
0.0000000000000000
  7
STANDARD
  0
MTEXT
  5
494
100
AcDbEntity
  8
WAKU0
  6
CONTINUOUS
 62
3
100
AcDbMText
 10
416.6599994301796
 20
18.13333336512248
 30
0.0000000000000000
 40
3.099999904632568
 41
0.0000000000000000
 71
     7
 72
     1
  1
{\H0.93x;{KITAGAWA IRON\PWORKS CO.,LTD.}}
 11
1.000000000000000
 21
0.0000000000000000
 31
0.0000000000000000
  7
STANDARD
  0
MTEXT
  5
495
100
AcDbEntity
  8
WAKU0
  6
CONTINUOUS
 62
3
100
AcDbMText
 10
413.0850002169609
 20
46.50000000000000
 30
0.0000000000000000
 40
3.000000000000000
 41
0.0000000000000000
 71
     7
 72
     1
  1
{\H0.92x;{CAREER}}
 11
1.000000000000000
 21
0.0000000000000000
 31
0.0000000000000000
  7
STANDARD
  0
MTEXT
  5
496
100
AcDbEntity
  8
WAKU0
  6
CONTINUOUS
 62
3
100
AcDbMText
 10
466.6099998354912
 20
18.95000004768372
 30
0.0000000000000000
 40
3.099999904632568
 41
0.0000000000000000
 71
     7
 72
     1
  1
{\H0.91x;{DATE}}
 11
1.000000000000000
 21
0.0000000000000000
 31
0.0000000000000000
  7
STANDARD
  0
MTEXT
  5
497
100
AcDbEntity
  8
WAKU0
  6
CONTINUOUS
 62
3
100
AcDbMText
 10
485.9000002145767
 20
26.50000000000000
 30
0.0000000000000000
 40
3.000000000000000
 41
0.0000000000000000
 71
     7
 72
     1
  1
{\H0.63x;{3RD ANGLE}}
 11
1.000000000000000
 21
0.0000000000000000
 31
0.0000000000000000
  7
STANDARD
  0
MTEXT
  5
498
100
AcDbEntity
  8
WAKU0
  6
CONTINUOUS
 62
3
100
AcDbMText
 10
487.2149997949600
 20
45.95000004768372
 30
0.0000000000000000
 40
3.099999904632568
 41
0.0000000000000000
 71
     7
 72
     1
  1
{\H0.92x;{SCALE}}
 11
1.000000000000000
 21
0.0000000000000000
 31
0.0000000000000000
  7
STANDARD
  0
MTEXT
  5
499
100
AcDbEntity
  8
WAKU0
  6
CONTINUOUS
 62
3
100
AcDbMText
 10
577.7000000476837
 20
46.00000000000000
 30
0.0000000000000000
 40
3.000000000000000
 41
0.0000000000000000
 71
     7
 72
     1
  1
{\H0.63x;{kg}}
 11
1.000000000000000
 21
0.0000000000000000
 31
0.0000000000000000
  7
STANDARD
  0
MTEXT
  5
49A
100
AcDbEntity
  8
WAKU0
  6
CONTINUOUS
 62
3
100
AcDbMText
 10
547.6000001430512
 20
46.00000000000000
 30
0.0000000000000000
 40
3.000000000000000
 41
0.0000000000000000
 71
     7
 72
     1
  1
{\H0.63x;{WEIGHT}}
 11
1.000000000000000
 21
0.0000000000000000
 31
0.0000000000000000
  7
STANDARD
  0
MTEXT
  5
49B
100
AcDbEntity
  8
WAKU0
  6
CONTINUOUS
 62
3
100
AcDbMText
 10
506.0049998760223
 20
18.13333336512248
 30
0.0000000000000000
 40
3.099999904632568
 41
0.0000000000000000
 71
     7
 72
     1
  1
{\H0.90x;{DRW\PNO.}}
 11
1.000000000000000
 21
0.0000000000000000
 31
0.0000000000000000
  7
STANDARD
  0
MTEXT
  5
49C
100
AcDbEntity
  8
WAKU0
  6
CONTINUOUS
 62
3
100
AcDbMText
 10
504.6099998354912
 20
31.95000004768372
 30
0.0000000000000000
 40
3.099999904632568
 41
0.0000000000000000
 71
     7
 72
     1
  1
{\H0.91x;{NAME}}
 11
1.000000000000000
 21
0.0000000000000000
 31
0.0000000000000000
  7
STANDARD
  0
MTEXT
  5
49D
100
AcDbEntity
  8
WAKU0
  6
CONTINUOUS
 62
3
100
AcDbMText
 10
504.6099998354912
 20
45.95000004768372
 30
0.0000000000000000
 40
3.099999904632568
 41
0.0000000000000000
 71
     7
 72
     1
  1
{\H0.91x;{TYPE}}
 11
1.000000000000000
 21
0.0000000000000000
 31
0.0000000000000000
  7
STANDARD
  0
LINE
  5
49E
100
AcDbEntity
  8
WAKU0
  6
HIDDEN
 62
3
100
AcDbLine
 10
579.1599564743885
 20
13.84999990463257
 30
0.0000000000000000
 11
568.9400436209789
 21
13.84999990463257
 31
0.0000000000000000
  0
LINE
  5
49F
100
AcDbEntity
  8
WAKU0
  6
HIDDEN
 62
3
100
AcDbLine
 10
579.1599564743885
 20
13.84999990463250
 30
0.0000000000000000
 11
574.0500000476851
 21
22.70070406014901
 31
0.0000000000000000
  0
LINE
  5
4A0
100
AcDbEntity
  8
WAKU0
  6
HIDDEN
 62
3
100
AcDbLine
 10
574.0500000476851
 20
22.70070406014902
 30
0.0000000000000000
 11
568.9400436209789
 21
13.84999990463248
 31
0.0000000000000000
  0
LINE
  5
4A1
100
AcDbEntity
  8
WAKU0
  6
CONTINUOUS
 62
3
100
AcDbLine
 10
502.4713877753800
 20
15.78041421262812
 30
0.0000000000000000
 11
502.4713877753800
 21
21.78041421262815
 31
0.0000000000000000
  0
LINE
  5
4A2
100
AcDbEntity
  8
WAKU0
  6
CONTINUOUS
 62
3
100
AcDbLine
 10
495.9336941228225
 20
17.28041421262811
 30
0.0000000000000000
 11
495.9336941228225
 21
20.28041421262824
 31
0.0000000000000000
  0
LINE
  5
4A3
100
AcDbEntity
  8
WAKU0
  6
CENTER
 62
12
100
AcDbLine
 10
485.4321805514995
 20
18.78041421262813
 30
0.0000000000000000
 11
503.2765788964694
 21
18.78041421262813
 31
0.0000000000000000
  0
LINE
  5
4A4
100
AcDbEntity
  8
WAKU0
  6
CENTER
 62
12
100
AcDbLine
 10
489.4474565857986
 20
14.55921662918448
 30
0.0000000000000000
 11
489.4474565857986
 21
22.89865102149943
 31
0.0000000000000000
  0
LINE
  5
4A5
100
AcDbEntity
  8
WAKU0
  6
CONTINUOUS
 62
3
100
AcDbLine
 10
495.9336941228225
 20
20.28041421262797
 30
0.0000000000000000
 11
502.4713877753800
 21
21.78041421262795
 31
0.0000000000000000
  0
LINE
  5
4A6
100
AcDbEntity
  8
WAKU0
  6
CONTINUOUS
 62
3
100
AcDbLine
 10
495.9336941228225
 20
17.28041421262811
 30
0.0000000000000000
 11
502.4713877753799
 21
15.78041421262812
 31
0.0000000000000000
  0
CIRCLE
  5
4A7
100
AcDbEntity
  8
WAKU0
  6
CONTINUOUS
 62
3
100
AcDbCircle
 10
489.4474565857986
 20
18.78041421262813
 30
0.0000000000000000
 40
1.499999999999972
  0
CIRCLE
  5
4A8
100
AcDbEntity
  8
WAKU0
  6
CONTINUOUS
 62
3
100
AcDbCircle
 10
489.4474565857986
 20
18.78041421262813
 30
0.0000000000000000
 40
2.999999999999979
  0
LINE
  5
4A9
100
AcDbEntity
  8
A0
  6
CONTINUOUS
 62
3
100
AcDbLine
 10
1102.226520240273
 20
993.4411845191238
 30
0.0000000000000000
 11
1102.226520240281
 21
889.1911867841004
 31
0.0000000000000000
  0
LINE
  5
4AA
100
AcDbEntity
  8
A0
  6
CONTINUOUS
 62
3
100
AcDbLine
 10
1102.226520240273
 20
993.4411845191241
 30
0.0000000000000000
 11
1235.226519763484
 21
993.4411845192421
 31
0.0000000000000000
  0
MTEXT
  5
4AB
100
AcDbEntity
  8
A0
  6
CONTINUOUS
 62
3
100
AcDbMText
 10
1119.101519048205
 20
990.9411845195866
 30
0.0000000000000000
 40
7.749999761581421
 41
0.0000000000000000
 71
     1
 72
     1
  1
{\H0.71x;{仕様　　SPECIFICATIONS}}
 11
1.000000000000000
 21
0.0000000000000000
 31
0.0000000000000000
  7
KNJYOKO
  0
MTEXT
  5
4AC
100
AcDbEntity
  8
A0
  6
CONTINUOUS
 62
3
100
AcDbMText
 10
1103.476520240290
 20
969.1911849961318
 30
0.0000000000000000
 40
7.749999761581421
 41
0.0000000000000000
 71
     1
 72
     1
  1
{\H0.71x;{CLAMPING RANGE}}
 11
1.000000000000000
 21
0.0000000000000000
 31
0.0000000000000000
  7
STANDARD
  0
MTEXT
  5
4AD
100
AcDbEntity
  8
A0
  6
CONTINUOUS
 62
3
100
AcDbMText
 10
1103.476520240290
 20
979.4411847577132
 30
0.0000000000000000
 40
7.749999761581421
 41
0.0000000000000000
 71
     1
 72
     1
  1
{\H0.70x;{口金の開き}}
 11
1.000000000000000
 21
0.0000000000000000
 31
0.0000000000000000
  7
KNJYOKO
  0
MTEXT
  5
4AE
100
AcDbEntity
  8
A0
  6
CONTINUOUS
 62
3
100
AcDbMText
 10
1103.476520240290
 20
958.9411852345504
 30
0.0000000000000000
 40
7.749999761581421
 41
0.0000000000000000
 71
     1
 72
     1
  1
{\H0.70x;{締付トルク}}
 11
1.000000000000000
 21
0.0000000000000000
 31
0.0000000000000000
  7
KNJYOKO
  0
LINE
  5
4AF
100
AcDbEntity
  8
A0
  6
CONTINUOUS
 62
3
100
AcDbLine
 10
1235.226519763484
 20
939.6911857117088
 30
0.0000000000000000
 11
1102.226520240278
 21
939.6911857116497
 31
0.0000000000000000
  0
MTEXT
  5
4B0
100
AcDbEntity
  8
A0
  6
CONTINUOUS
 62
3
100
AcDbMText
 10
1103.476520240290
 20
948.6911854729690
 30
0.0000000000000000
 40
7.749999761581421
 41
0.0000000000000000
 71
     1
 72
     1
  1
{\H0.71x;{TIGHTENING TORQUE}}
 11
1.000000000000000
 21
0.0000000000000000
 31
0.0000000000000000
  7
STANDARD
  0
MTEXT
  5
4B1
100
AcDbEntity
  8
A0
  6
CONTINUOUS
 62
3
100
AcDbMText
 10
1103.476520240290
 20
938.4411857113876
 30
0.0000000000000000
 40
7.749999761581421
 41
0.0000000000000000
 71
     1
 72
     1
  1
{\H0.70x;{締付けレンジ}}
 11
1.000000000000000
 21
0.0000000000000000
 31
0.0000000000000000
  7
KNJYOKO
  0
MTEXT
  5
4B2
100
AcDbEntity
  8
A0
  6
CONTINUOUS
 62
3
100
AcDbMText
 10
1103.476520240290
 20
928.1911859498061
 30
0.0000000000000000
 40
7.749999761581421
 41
0.0000000000000000
 71
     1
 72
     1
  1
{\H0.71x;{CLAMP RANGE}}
 11
1.000000000000000
 21
0.0000000000000000
 31
0.0000000000000000
  7
STANDARD
  0
LINE
  5
4B3
100
AcDbEntity
  8
A0
  6
CONTINUOUS
 62
3
100
AcDbLine
 10
1235.226519763484
 20
908.9411864269646
 30
0.0000000000000000
 11
1102.226520240280
 21
908.9411864269055
 31
0.0000000000000000
  0
MTEXT
  5
4B4
100
AcDbEntity
  8
A0
  6
CONTINUOUS
 62
3
100
AcDbMText
 10
1103.476520240290
 20
907.6911864266433
 30
0.0000000000000000
 40
7.749999761581421
 41
0.0000000000000000
 71
     1
 72
     1
  1
{\H0.70x;{製品質量}}
 11
1.000000000000000
 21
0.0000000000000000
 31
0.0000000000000000
  7
KNJYOKO
  0
LINE
  5
4B5
100
AcDbEntity
  8
A0
  6
CONTINUOUS
 62
3
100
AcDbLine
 10
1235.226519763484
 20
889.1911867842185
 30
0.0000000000000000
 11
1102.226520240281
 21
889.1911867841006
 31
0.0000000000000000
  0
MTEXT
  5
4B6
100
AcDbEntity
  8
A0
  6
CONTINUOUS
 62
3
100
AcDbMText
 10
1103.476520240290
 20
897.4411866650619
 30
0.0000000000000000
 40
6.999999880790710
 41
0.0000000000000000
 71
     1
 72
     1
  1
{\H0.67x;{MASS OF POWER VISE}}
 11
1.000000000000000
 21
0.0000000000000000
 31
0.0000000000000000
  7
STANDARD
  0
MTEXT
  5
4B7
100
AcDbEntity
  8
A0
  6
CONTINUOUS
 62
3
100
AcDbMText
 10
1201.605332456950
 20
902.5661865458424
 30
0.0000000000000000
 40
7.749999761581421
 41
0.0000000000000000
 71
     1
 72
     1
  1
{\H0.70x;{150kg}}
 11
1.000000000000000
 21
0.0000000000000000
 31
0.0000000000000000
  7
STANDARD
  0
LINE
  5
4B8
100
AcDbEntity
  8
A0
  6
CONTINUOUS
 62
3
100
AcDbLine
 10
1189.976518809777
 20
939.6911857116867
 30
0.0000000000000000
 11
1189.976518809777
 21
889.1911867841740
 31
0.0000000000000000
  0
LINE
  5
4B9
100
AcDbEntity
  8
A0
  6
CONTINUOUS
 62
3
100
AcDbLine
 10
1189.976518809777
 20
919.1911861885239
 30
0.0000000000000000
 11
1235.226519763484
 21
919.1911861885440
 31
0.0000000000000000
  0
MTEXT
  5
4BA
100
AcDbEntity
  8
A0
  6
CONTINUOUS
 62
3
100
AcDbMText
 10
1196.226519286616
 20
928.1911859498061
 30
0.0000000000000000
 40
7.749999761581421
 41
0.0000000000000000
 71
     1
 72
     1
  1
{\H0.67x;{2}}
 11
1.000000000000000
 21
0.0000000000000000
 31
0.0000000000000000
  7
STANDARD
  0
LINE
  5
4BB
100
AcDbEntity
  8
A0
  6
CONTINUOUS
 62
3
100
AcDbLine
 10
1207.125313679658
 20
939.6911857116943
 30
0.0000000000000000
 11
1207.125313679658
 21
908.9411864269523
 31
0.0000000000000000
  0
MTEXT
  5
4BC
100
AcDbEntity
  8
A0
  6
CONTINUOUS
 62
3
100
AcDbMText
 10
1196.226519286616
 20
917.9411861882247
 30
0.0000000000000000
 40
7.749999761581421
 41
0.0000000000000000
 71
     1
 72
     1
  1
{\H0.67x;{3}}
 11
1.000000000000000
 21
0.0000000000000000
 31
0.0000000000000000
  7
STANDARD
  0
LINE
  5
4BD
100
AcDbEntity
  8
A0
  6
CONTINUOUS
 62
3
100
AcDbLine
 10
1189.976518809777
 20
929.4411859497091
 30
0.0000000000000000
 11
1235.226519763484
 21
929.4411859497492
 31
0.0000000000000000
  0
MTEXT
  5
4BE
100
AcDbEntity
  8
A0
  6
CONTINUOUS
 62
3
100
AcDbMText
 10
1196.226519286616
 20
938.4411857113876
 30
0.0000000000000000
 40
7.749999761581421
 41
0.0000000000000000
 71
     1
 72
     1
  1
{\H0.67x;{1}}
 11
1.000000000000000
 21
0.0000000000000000
 31
0.0000000000000000
  7
STANDARD
  0
MTEXT
  5
4BF
100
AcDbEntity
  8
A0
  6
CONTINUOUS
 62
3
100
AcDbMText
 10
1210.947572931779
 20
938.4411857113867
 30
0.0000000000000000
 40
7.749999761581421
 41
0.0000000000000000
 71
     1
 72
     1
  1
{\H0.70x;{16KN}}
 11
1.000000000000000
 21
0.0000000000000000
 31
0.0000000000000000
  7
STANDARD
  0
MTEXT
  5
4C0
100
AcDbEntity
  8
A0
  6
CONTINUOUS
 62
3
100
AcDbMText
 10
1210.947572931779
 20
928.1911859498052
 30
0.0000000000000000
 40
7.749999761581421
 41
0.0000000000000000
 71
     1
 72
     1
  1
{\H0.70x;{28KN}}
 11
1.000000000000000
 21
0.0000000000000000
 31
0.0000000000000000
  7
STANDARD
  0
MTEXT
  5
4C1
100
AcDbEntity
  8
A0
  6
CONTINUOUS
 62
3
100
AcDbMText
 10
1210.947572931779
 20
917.9411861882238
 30
0.0000000000000000
 40
7.749999761581421
 41
0.0000000000000000
 71
     1
 72
     1
  1
{\H0.70x;{40KN}}
 11
1.000000000000000
 21
0.0000000000000000
 31
0.0000000000000000
  7
STANDARD
  0
LINE
  5
4C2
100
AcDbEntity
  8
A0
  6
CONTINUOUS
 62
3
100
AcDbLine
 10
1235.226519763484
 20
993.4411845192420
 30
0.0000000000000000
 11
1235.226519763484
 21
889.1911867842140
 31
0.0000000000000000
  0
MTEXT
  5
4C3
100
AcDbEntity
  8
A0
  6
CONTINUOUS
 62
3
100
AcDbMText
 10
1191.226518809779
 20
974.3161848769225
 30
0.0000000000000000
 40
7.749999761581421
 41
0.0000000000000000
 71
     1
 72
     1
  1
{\H0.70x;{０～１６８mm}}
 11
1.000000000000000
 21
0.0000000000000000
 31
0.0000000000000000
  7
KNJYOKO
  0
LINE
  5
4C4
100
AcDbEntity
  8
A0
  6
CONTINUOUS
 62
3
100
AcDbLine
 10
1102.226520240276
 20
960.1911852343799
 30
0.0000000000000000
 11
1235.226519763484
 21
960.1911852344978
 31
0.0000000000000000
  0
LINE
  5
4C5
100
AcDbEntity
  8
A0
  6
CONTINUOUS
 62
3
100
AcDbLine
 10
1102.226520240274
 20
980.6911847579754
 30
0.0000000000000000
 11
1235.226519763484
 21
980.6911847580345
 31
0.0000000000000000
  0
LINE
  5
4C6
100
AcDbEntity
  8
A0
  6
CONTINUOUS
 62
3
100
AcDbLine
 10
1189.976518809777
 20
980.6911847580124
 30
0.0000000000000000
 11
1189.976518809777
 21
960.1911852344531
 31
0.0000000000000000
  0
ENDSEC
  0
SECTION
  2
OBJECTS
  0
DICTIONARY
  5
51E
100
AcDbDictionary
  3
ACAD_GROUP
350
51F
  3
ACAD_MLINESTYLE
350
520
  3
DWGPROPS
350
521
  0
DICTIONARY
  5
51F
102
{ACAD_REACTORS
330
51E
102
}
100
AcDbDictionary
  0
DICTIONARY
  5
520
102
{ACAD_REACTORS
330
51E
102
}
100
AcDbDictionary
  3
STANDARD
350
522
  0
MLINESTYLE
  5
522
102
{ACAD_REACTORS
330
520
102
}
100
AcDbMlineStyle
  2
STANDARD
 70
     0
  3

 62
   256
 51
90.00
 52
90.00
 71
     2
 49
0.50
 62
   256
  6
BYLAYER
 49
-0.50
 62
   256
  6
BYLAYER
  0
XRECORD
  5
521
102
{ACAD_REACTORS
330
51E
102
}
100
AcDbXrecord
280
     1
  1
DWGPROPS COOKIE
  2
ＭＶ１２５　ガイケイ
  3

  4

  6
パワーバイス
  7

  8

  9

300
=
301
=
302
=
303
=
304
=
305
=
306
=
307
=
308
=
309
=
 40
0.000000
 41
0.000000
 42
0.000000
  1

 90
        0
  0
ENDSEC
  0
EOF
